<?xml version="1.0" standalone="no"?>
<!DOCTYPE svg PUBLIC "-//W3C//DTD SVG 1.1//EN" "http://www.w3.org/Graphics/SVG/1.1/DTD/svg11.dtd" >
<svg xmlns="http://www.w3.org/2000/svg" xmlns:xlink="http://www.w3.org/1999/xlink" version="1.1">
<metadata>
Created by FontForge 20190801 at Thu Nov 28 21:24:39 2019
 By www-data
Copyright 2010 The Josefin Sans Project Authors (https://github.com/ThomasJockin/JosefinSansFont-master), with Reserved Font Name "Josefin Sans".
</metadata>
<defs>
<font id="JosefinSansSemiBoldItalic" horiz-adv-x="0" >
  <font-face 
    font-family="JosefinSansSemiBoldItalic"
    font-weight="600"
    font-style="italic"
    font-stretch="normal"
    units-per-em="1000"
    panose-1="0 0 0 0 0 0 0 0 0 0"
    ascent="750"
    descent="-250"
    x-height="423"
    cap-height="728"
    bbox="-99 -315 1457 1195"
    underline-thickness="50"
    underline-position="-125"
    slope="-7"
    unicode-range="U+000D-FB02"
  />
<missing-glyph horiz-adv-x="300" 
 />
    <glyph glyph-name="fi" unicode="fi" horiz-adv-x="598" 
d="M86 0l39 325h-72l13 99h72l20 166q11 88 61.5 138.5t135.5 50.5q24 0 52 -7t49 -22l-58 -81q-8 10 -19.5 14t-22.5 4q-34 0 -57 -23t-29 -77l-20 -163h116l-12 -99h-117l-39 -325h-112zM427 423h112l-52 -423h-112zM435 568q0 27 19 45.5t49 17.5q21 0 41.5 -13t19.5 -42
q0 -26 -19 -45t-48 -19q-22 1 -42 14t-20 42z" />
    <glyph glyph-name="fl" unicode="fl" horiz-adv-x="614" 
d="M86 0l39 325h-72l13 99h72l20 166q11 88 61.5 138.5t135.5 50.5q24 0 52 -7t49 -22l-58 -81q-8 10 -19.5 14t-22.5 4q-34 0 -57 -23t-29 -77l-20 -163h116l-12 -99h-117l-39 -325h-112zM493 780h113l-96 -780h-112z" />
    <glyph glyph-name=".notdef" horiz-adv-x="300" 
 />
    <glyph glyph-name=".null" 
 />
    <glyph glyph-name="nonmarkingreturn" horiz-adv-x="333" 
 />
    <glyph glyph-name="NULL" 
 />
    <glyph glyph-name="NULL" 
 />
    <glyph glyph-name="CR" unicode="&#xd;" horiz-adv-x="300" 
 />
    <glyph glyph-name="space" unicode=" " horiz-adv-x="300" 
 />
    <glyph glyph-name="exclam" unicode="!" horiz-adv-x="201" 
d="M123 754h100l-70 -570h-100zM73 -7q-28 4 -42.5 21.5t-9.5 42.5q5 24 26 38t49 11q27 -3 40.5 -22t8.5 -43q-5 -26 -24.5 -38.5t-47.5 -9.5z" />
    <glyph glyph-name="quotedbl" unicode="&#x22;" horiz-adv-x="350" 
d="M252 731q-8 -63 -17 -125.5t-17 -126.5h-95l30 252h99zM388 731q-8 -63 -17.5 -125.5t-17.5 -126.5h-95l31 252h99z" />
    <glyph glyph-name="numbersign" unicode="#" horiz-adv-x="580" 
d="M351 653q-12 -47 -24 -93.5t-23 -93.5h86q11 47 22.5 93.5t23.5 93.5h102q-12 -47 -24 -93.5t-23 -93.5h95q-5 -24 -10 -48.5t-11 -48.5h-97q-5 -22 -10.5 -44t-10.5 -45h96q-6 -24 -12.5 -48.5t-11.5 -49.5h-96q-11 -46 -22 -91t-22 -91h-101q10 46 21.5 91t22.5 91h-86
q-10 -46 -21.5 -91t-22.5 -91h-102q11 46 22.5 91t21.5 91h-87q6 25 12 49.5t12 48.5h87q7 23 11.5 45t10.5 44h-87q6 24 11 48.5t11 48.5h87q12 47 23.5 93.5t24.5 93.5h101zM281 369l-10 -44t-11 -45h86q5 23 10 45l10 44h-85z" />
    <glyph glyph-name="dollar" unicode="$" horiz-adv-x="582" 
d="M213 -68l53 440l39 35l48 388h69l-51 -417l-39 -35l-50 -411h-69zM522 567q-37 23 -80 40t-83 19q-31 1 -53.5 -5.5t-38 -18.5t-23.5 -28t-10 -34q-2 -29 16.5 -52t50.5 -41.5t67 -34.5q42 -18 80 -44.5t60 -68t15 -107.5q-4 -39 -23 -76t-52 -65.5t-80.5 -44
t-109.5 -12.5q-45 2 -87.5 13.5t-80 31t-69.5 47.5l62 87q23 -20 52.5 -37t62 -27.5t63.5 -12.5q36 0 66.5 11t51 34t23.5 57q3 29 -13 51t-42 39.5t-57 31.5q-32 15 -65 33t-60.5 42.5t-42 59.5t-9.5 82q7 61 39 104.5t84.5 66t117.5 21.5q52 -2 92.5 -13.5t72.5 -27.5
t58 -36z" />
    <glyph glyph-name="percent" unicode="%" horiz-adv-x="829" 
d="M214 278q-33 2 -59 14.5t-43 35t-25 55.5t-5 74q5 51 25 92t56 64t88 21q31 -2 56.5 -14.5t43 -35t25.5 -55t5 -73.5q-4 -51 -24.5 -92t-56 -64.5t-86.5 -21.5zM222 357q20 -1 32.5 13.5t19.5 38.5t9 52q2 27 -0.5 44.5t-8.5 28t-14.5 15t-18.5 5.5q-20 1 -32.5 -12
t-19 -36t-9.5 -54q-2 -33 3 -53.5t15.5 -30.5t23.5 -11zM605 -21q-33 2 -58.5 14.5t-42.5 35.5t-25 55.5t-4 73.5q5 51 25 92t56 64.5t88 21.5q32 -2 57.5 -15t43 -35.5t25 -55t4.5 -73.5q-5 -50 -25 -91t-56 -65t-88 -22zM614 58q21 0 33.5 14.5t19 38.5t8.5 52
q3 36 -2 55.5t-15 28t-24 9.5q-20 0 -33 -12.5t-19.5 -35.5t-9.5 -55q-2 -32 3.5 -53t15.5 -31t23 -11zM752 635l-522 -637l-110 2l520 635h112z" />
    <glyph glyph-name="ampersand" unicode="&#x26;" horiz-adv-x="715" 
d="M643 0h-33h-45.5h-40h-16.5l-280 452q-9 14 -19.5 36t-17 49t-3.5 54q4 42 28.5 80.5t68.5 63.5t107 25q64 0 110 -25.5t73 -61.5l-68 -77q-28 30 -54.5 48t-54.5 18q-44 0 -66.5 -25t-24.5 -57q-1 -13 3.5 -29t11 -29l9.5 -19zM320 341q-27 2 -53 -7.5t-47 -26.5
t-34.5 -40.5t-15.5 -50.5q-3 -35 13 -63t45.5 -44t66.5 -17q35 -2 61.5 7.5t46 26t32.5 37.5l66 -68q-32 -47 -91.5 -78.5t-142.5 -27.5q-68 3 -119.5 33.5t-78 81t-20.5 113.5q5 49 31 89t66 68.5t87.5 44t95.5 13.5zM564 434h106l-158 -308l-78 51z" />
    <glyph glyph-name="quotesingle" unicode="'" horiz-adv-x="169" 
d="M227 731q-8 -63 -17.5 -125.5t-17.5 -126.5h-97l31 252h101z" />
    <glyph glyph-name="parenleft" unicode="(" horiz-adv-x="389" 
d="M91 286q7 78 29 149t53.5 131t68.5 108t74 82l83 -51q-45 -44 -85.5 -107t-68.5 -142.5t-38 -175.5q-8 -89 2 -165t33.5 -136.5t55.5 -105.5l-96 -41q-34 46 -63.5 115t-43 155t-4.5 184v0z" />
    <glyph glyph-name="parenright" unicode=")" horiz-adv-x="389" 
d="M319 304q-7 -78 -29 -149t-53.5 -131t-68.5 -108t-74 -81l-83 51q45 44 85.5 106.5t69 142.5t36.5 176q9 88 -1 164t-33.5 137t-55.5 105l96 41q35 -46 64 -115t43 -155t4 -184v0z" />
    <glyph glyph-name="asterisk" unicode="*" horiz-adv-x="335" 
d="M198 517q-19 -11 -38 -21t-39 -21q-6 15 -13 30.5t-14 30.5q20 9 39.5 19.5t38.5 20.5q-16 11 -33 22t-33 21q9 14 18.5 28.5t19.5 28.5q17 -11 34.5 -22t34.5 -21l10 87h70q-3 -22 -6 -43.5t-6 -43.5q20 10 40.5 20.5t39.5 21.5q7 -14 13.5 -28.5t12.5 -28.5
q-21 -10 -40.5 -21t-40.5 -22v0q17 -11 34 -21.5t35 -20.5q-11 -15 -21 -30t-21 -30q-17 10 -34 21l-34 22q-3 -20 -5.5 -40.5t-5.5 -41.5h-66z" />
    <glyph glyph-name="plus" unicode="+" horiz-adv-x="552" 
d="M270 417h102l-16 -134h132l-12 -98h-132l-17 -133h-102l17 133h-132l12 98h132z" />
    <glyph glyph-name="comma" unicode="," horiz-adv-x="204" 
d="M44 -206l-57 39q24 20 34.5 58.5t5.5 75.5l98 -1q5 -28 -3.5 -61t-28 -63t-49.5 -48z" />
    <glyph glyph-name="hyphen" unicode="-" horiz-adv-x="305" 
d="M87 270h187l-12 -98h-187z" />
    <glyph glyph-name="period" unicode="." horiz-adv-x="166" 
d="M33 54q0 29 22.5 48.5t46.5 19.5q19 0 35 -16t16 -40q0 -19 -10 -34t-25.5 -23.5t-30.5 -8.5q-21 0 -37.5 15t-16.5 39v0z" />
    <glyph glyph-name="slash" unicode="/" horiz-adv-x="399" 
d="M494 748q-95 -192 -189 -383.5t-189 -383.5h-101q95 192 188.5 383.5t188.5 383.5h102z" />
    <glyph glyph-name="zero" unicode="0" horiz-adv-x="648" 
d="M308 0q-53 1 -98.5 18.5t-80 53t-53.5 89t-17 126.5q1 22 6 57.5t16.5 78.5t34 86t56.5 78.5t84 57t118 20.5q51 -1 98 -20.5t83 -58.5t53.5 -96.5t9.5 -134.5q-5 -73 -27 -137.5t-60.5 -114t-94 -77t-128.5 -26.5zM322 110q42 -1 73.5 22t53 60.5t33.5 84t14 92.5
q2 69 -17 109.5t-52 58t-71 18.5q-42 1 -73.5 -22t-53 -60.5t-33.5 -84t-14 -92.5q-3 -68 16.5 -109t52 -58.5t71.5 -18.5z" />
    <glyph glyph-name="one" unicode="1" horiz-adv-x="359" 
d="M127 660h183l-81 -660h-117l67 548h-66z" />
    <glyph glyph-name="two" unicode="2" horiz-adv-x="575" 
d="M39 0q101 91 168 156t107.5 111t61 78t27 56.5t6.5 46.5q0 38 -14.5 61.5t-39 35t-56.5 11.5t-54.5 -10.5t-36 -27.5t-19.5 -36.5t-6 -37.5q0 -26 7 -47.5t20 -38.5l-79 -65q-14 16 -28.5 41t-24 56t-9.5 63q0 33 13 70.5t41.5 70t75 53.5t113.5 21q69 0 118 -23.5
t75.5 -67t25.5 -103.5q0 -41 -10.5 -80.5t-37.5 -82t-73 -95t-117 -120.5l-54 16h274l-13 -112h-461z" />
    <glyph glyph-name="three" unicode="3" horiz-adv-x="507" 
d="M471 660l-194 -284l-63 34q27 7 47.5 8.5t34.5 1.5q45 -3 84.5 -25.5t63.5 -62.5t24 -95q0 -42 -13 -84.5t-41.5 -78.5t-74.5 -58t-111 -23q-31 0 -67 8.5t-69 27.5t-57 49l70 91q21 -32 55 -48.5t67 -15.5q30 0 52.5 10.5t37.5 28t23 40t8 48.5q0 52 -36.5 80.5
t-93.5 29.5q-23 1 -44.5 -4t-32.5 -10l-3 4l162 231l34 -15h-228l14 112h351z" />
    <glyph glyph-name="four" unicode="4" horiz-adv-x="518" 
d="M-5 153v1l473 514h1l-52 -426h83l-11 -89h-83l-18 -153h-117l19 153h-295zM330 412l-163 -185l-11 15h144l23 180z" />
    <glyph glyph-name="five" unicode="5" horiz-adv-x="519" 
d="M235 -8q-25 0 -60 8.5t-70 27.5t-60 47l72 89q15 -21 35.5 -34t41.5 -18.5t37 -5.5q43 0 70 17t39.5 44.5t12.5 57.5q0 35 -12.5 57.5t-33 35.5t-44 18.5t-43.5 6.5q-28 0 -60 -8.5t-66 -30.5h-2l71 356h314l-12 -112h-228l-29 -143l-6 24q12 4 30 6.5t38 2.5
q32 -1 67.5 -12.5t66.5 -36t50 -63.5t19 -95q0 -40 -13 -82t-41.5 -77.5t-73.5 -57t-110 -22.5z" />
    <glyph glyph-name="six" unicode="6" horiz-adv-x="571" 
d="M283 -8q-66 0 -117.5 29t-81 83t-29.5 129q0 50 16.5 104t56 110t107 111.5t168.5 108.5l66 -89q-84 -31 -143 -77.5t-93 -97t-44 -95.5l-28 7q32 53 76.5 81.5t112.5 28.5q27 0 58.5 -10.5t59 -34.5t45.5 -61t18 -90q0 -37 -15 -79t-46 -77.5t-77.5 -58t-109.5 -22.5z
M284 96q37 0 61.5 13.5t39 33.5t20.5 42t6 39q0 33 -15 56t-41.5 36.5t-59.5 13.5q-38 0 -62 -13t-38.5 -32t-20 -39.5t-5.5 -36.5q0 -31 15 -56.5t40.5 -41t59.5 -15.5z" />
    <glyph glyph-name="seven" unicode="7" horiz-adv-x="495" 
d="M528 660l-336 -660h-135l291 563l41 -15h-314l15 112h438z" />
    <glyph glyph-name="eight" unicode="8" horiz-adv-x="559" 
d="M40 201q0 53 20.5 92.5t54 67.5t71.5 43q-21 20 -35 44.5t-13 58.5q1 26 11.5 54t32 52.5t55.5 39.5t83 15q51 0 91 -19t64 -51t24 -72q0 -49 -21.5 -79.5t-58.5 -55.5q24 -15 47.5 -38t39 -55.5t15.5 -74.5q0 -24 -9 -54t-28 -61t-48.5 -57t-71 -42.5t-95.5 -16.5
q-69 0 -120.5 29.5t-80 77t-28.5 102.5zM159 207q0 -31 13 -58t38.5 -43t60.5 -16q39 0 69 18.5t47.5 48.5t17.5 66q0 32 -15 58.5t-40.5 42.5t-58.5 16q-43 0 -72.5 -20.5t-44.5 -51t-15 -61.5zM249 501q-1 -26 19 -45t46 -19q24 0 39.5 10.5t23.5 26.5t8 31
q0 30 -18.5 47.5t-44.5 17.5q-32 0 -51 -19t-22 -50z" />
    <glyph glyph-name="nine" unicode="9" horiz-adv-x="562" 
d="M252 215q-33 0 -66.5 14t-61.5 39.5t-44.5 63t-14.5 84.5q1 37 16.5 77.5t46.5 76t78 57t110 20.5q68 0 119.5 -29.5t81 -79.5t27.5 -113q-1 -62 -24.5 -118t-69.5 -108.5t-116.5 -102t-168.5 -100.5l-67 90q87 33 152.5 73t106 84.5t48.5 86.5l31 -8q-34 -52 -76 -80
t-108 -27zM297 310q56 -1 89 26t40 88q3 32 -10.5 58.5t-39.5 43.5t-61 17q-44 1 -72 -18.5t-42 -48t-15 -56.5q-1 -33 13 -57.5t40 -38t58 -14.5z" />
    <glyph glyph-name="colon" unicode=":" horiz-adv-x="178" 
d="M33 54q0 29 22 48.5t47 19.5q19 0 35 -16t16 -40q0 -20 -10.5 -34.5t-25.5 -23t-30 -8.5q-22 0 -38 15t-16 39v0zM67 331q0 29 22 48.5t47 19.5q19 0 35 -16t16 -39q0 -20 -10.5 -35t-25.5 -23.5t-30 -8.5q-21 0 -37.5 15t-16.5 39v0z" />
    <glyph glyph-name="semicolon" unicode=";" horiz-adv-x="204" 
d="M98 308q0 19 10.5 34.5t26 24.5t31.5 9q20 0 36 -16t16 -40q0 -30 -22 -48t-46 -18q-20 0 -36 15t-16 39v0zM171 88q-29 -53 -57 -105t-56 -105h-91q27 53 52.5 105t52.5 105h99z" />
    <glyph glyph-name="less" unicode="&#x3c;" horiz-adv-x="583" 
d="M462 -14l-206 128l-206 128q118 64 237 128t237 127l-17 -137q-53 -29 -108.5 -58.5t-110.5 -59.5q48 -30 96 -59.5t95 -59.5v0z" />
    <glyph glyph-name="equal" unicode="=" horiz-adv-x="719" 
d="M126 203h514l-12 -98h-514zM150 400h514l-12 -98h-514z" />
    <glyph glyph-name="greater" unicode="&#x3e;" horiz-adv-x="577" 
d="M90 123q56 30 110.5 59.5t110.5 59.5q-48 30 -95.5 59.5t-96.5 58.5l17 137q104 -64 206.5 -127.5t206.5 -127.5q-120 -64 -238 -128t-238 -128v0z" />
    <glyph glyph-name="question" unicode="?" horiz-adv-x="446" 
d="M138 265q4 32 16.5 53.5t31 36.5t41 29t47.5 31q45 32 68 67.5t23 75.5q0 25 -10 44.5t-29 31t-46 11.5q-37 0 -61 -10t-40 -31t-30 -53v0q-20 8 -41.5 16t-42.5 17q10 20 25.5 47t41.5 53t65 43t95 17q52 0 91.5 -24t62 -64.5t22.5 -89.5q0 -64 -32.5 -111t-90.5 -87
q-18 -12 -42 -27.5t-43 -38t-23 -56.5l-10 -80h-101zM153 -5q-20 0 -36.5 14.5t-16.5 38.5q0 29 22 48.5t46 19.5q20 0 36 -16t16 -40q0 -29 -21.5 -47t-45.5 -18v0z" />
    <glyph glyph-name="at" unicode="@" horiz-adv-x="1031" 
d="M444 -222q-82 0 -155 24t-129 72.5t-88 121.5t-32 172q0 63 19.5 131.5t61 132.5t107.5 115t158.5 81.5t214.5 30.5q95 0 168.5 -27.5t124 -77t77 -114.5t26.5 -140q0 -62 -19 -117.5t-52.5 -98.5t-80 -67.5t-103.5 -24.5q-42 0 -72.5 20t-44.5 55t-6 81l19 -51
q-15 -24 -45.5 -49t-68.5 -42t-79 -17q-55 0 -98.5 23.5t-68 67.5t-24.5 106q0 71 31 129.5t86 92.5t127 34q44 0 72.5 -11t47 -29.5t30.5 -40.5l17 62h106l-37 -268q-2 -17 0 -31.5t11 -22t25 -7.5q22 0 44 15.5t39.5 43.5t28.5 65.5t11 81.5q0 74 -35 135.5t-103 98.5
t-170 37q-107 0 -183.5 -29t-127 -76.5t-79.5 -101.5t-41.5 -105t-12.5 -88q0 -80 25 -137.5t68.5 -94.5t101.5 -55.5t125 -18.5q58 0 114.5 18.5t105.5 49.5l46 -65q-39 -30 -88 -50t-99 -30t-96 -10zM489 81q30 0 55 11t44.5 31t31.5 48l13 92q-4 26 -20 45.5t-40.5 30.5
t-55.5 11q-40 0 -73 -21t-52 -55t-19 -74q0 -33 14.5 -60t41 -43t60.5 -16z" />
    <glyph glyph-name="A" unicode="A" horiz-adv-x="699" 
d="M109 0h-114l415 758h7l229 -758h-134l-157 574l91 56zM230 271h250l27 -100h-324z" />
    <glyph glyph-name="B" unicode="B" horiz-adv-x="624" 
d="M359 728q101 0 158 -37t57 -124q0 -39 -12 -80t-40 -73t-79 -45l-3 4q32 -6 61 -24.5t47.5 -50t18.5 -77.5q0 -58 -22 -100.5t-58.5 -69t-84 -39t-99.5 -12.5h-231l89 728h198zM338 418q32 0 54 11t35 29.5t19 39t6 38.5q0 43 -27.5 63.5t-76.5 20.5h-80l-25 -202h95z
M307 108q44 0 75.5 14.5t49 41t17.5 62.5q0 35 -18.5 54.5t-47.5 28t-61 8.5h-91l-25 -209h101z" />
    <glyph glyph-name="C" unicode="C" horiz-adv-x="699" 
d="M622 40q-15 -9 -45 -21.5t-69.5 -22t-85.5 -9.5q-60 0 -121.5 19t-113 59t-82.5 105t-31 156q0 59 13.5 117.5t42.5 110.5t74 92t107.5 63t142.5 23q77 0 136 -23.5t96 -50.5l-60 -106q-25 22 -66.5 43t-94.5 25q-65 2 -115 -19.5t-84.5 -61t-52.5 -92t-18 -112.5
q0 -52 16.5 -95.5t47 -74.5t73.5 -48t95 -17q40 0 70 8.5t52 19.5t37 19z" />
    <glyph glyph-name="D" unicode="D" horiz-adv-x="758" 
d="M72 0l89 728h231q100 0 166.5 -31.5t104 -83.5t51 -117.5t6.5 -133.5q-7 -84 -40.5 -151.5t-87 -114.5t-120 -71.5t-139.5 -24.5h-261zM202 112h126q56 0 104 16.5t84.5 48.5t58.5 80.5t27 112.5q7 69 -10.5 116t-50.5 76t-74 42t-81 13h-123z" />
    <glyph glyph-name="E" unicode="E" horiz-adv-x="659" 
d="M161 728h483l-13 -108h-363l-24 -200h322l-14 -110h-322l-24 -199h377l-14 -111h-497z" />
    <glyph glyph-name="F" unicode="F" horiz-adv-x="593" 
d="M161 728h441l-13 -110h-321l-25 -207h280l-15 -111h-280l-36 -300h-120z" />
    <glyph glyph-name="G" unicode="G" horiz-adv-x="764" 
d="M664 50q-20 -16 -59.5 -30t-85.5 -22.5t-88 -8.5q-29 0 -66.5 7.5t-78 23t-78.5 41t-69 63t-49 88.5t-17 117q1 52 15.5 108t44.5 109t76.5 94.5t111.5 66.5t150 24q61 -1 124 -17.5t114 -49.5l-52 -105q-38 26 -89.5 41t-98.5 14q-63 0 -109 -18t-77.5 -48t-50.5 -66.5
t-28 -75.5t-10 -74q0 -51 17 -88.5t45 -64t61.5 -42.5t67.5 -24t61 -9q29 -1 58 3.5t51 14.5l15 130h-137l14 111h255z" />
    <glyph glyph-name="H" unicode="H" horiz-adv-x="793" 
d="M752 728l-89 -728h-120l39 310h-352l-38 -310h-120l89 728h120l-37 -305h351l37 305h120z" />
    <glyph glyph-name="I" unicode="I" horiz-adv-x="322" 
d="M161 728h120l-89 -728h-120z" />
    <glyph glyph-name="J" unicode="J" horiz-adv-x="382" 
d="M270 141q-11 -91 -54 -155.5t-109 -99t-147 -37.5v0l14 113q46 3 84 22.5t63.5 58.5t32.5 101l71 584h117z" />
    <glyph glyph-name="K" unicode="K" horiz-adv-x="687" 
d="M244 449l-8 -37l20 23l309 293h151l-340 -318l261 -410h-147l-209 336l-56 -50l-35 -286h-118l89 728h118z" />
    <glyph glyph-name="L" unicode="L" horiz-adv-x="620" 
d="M161 728h116l-75 -616h359l-14 -112h-475z" />
    <glyph glyph-name="M" unicode="M" horiz-adv-x="936" 
d="M184 0h-112l92 754h1l324 -555l-49 11l457 544h2l-93 -754h-116l61 491v-59l-309 -373h-2l-223 373l26 54z" />
    <glyph glyph-name="N" unicode="N" horiz-adv-x="844" 
d="M711 -26h-3l-492 543l32 -15l-60 -502h-116l92 753h5l483 -543l-25 9l60 509h116z" />
    <glyph glyph-name="O" unicode="O" horiz-adv-x="856" 
d="M423 -7q-64 0 -126.5 21t-112.5 64t-80 108t-30 152q0 66 24.5 136t74 129t124 95.5t173.5 36.5q65 0 127 -21t112.5 -64t80 -108t29.5 -153q0 -66 -24.5 -135.5t-74 -128.5t-123.5 -95.5t-174 -36.5zM425 105q72 0 124 26t85 67.5t49 90t16 94.5q0 49 -17.5 92t-49 76.5
t-74 52.5t-93.5 19q-72 0 -123.5 -25.5t-84.5 -67.5t-48 -90.5t-15 -94.5q0 -48 17 -91.5t47.5 -77t73 -52.5t93.5 -19z" />
    <glyph glyph-name="P" unicode="P" horiz-adv-x="598" 
d="M366 728q55 0 99 -13.5t75 -40.5t47.5 -64.5t16.5 -86.5q0 -46 -15 -93.5t-48 -87.5t-86.5 -64.5t-129.5 -24.5h-102l-31 -253h-120l89 728h205zM335 365q42 0 70 15t45.5 37.5t25 46.5t7.5 42q0 24 -10.5 49.5t-36 43t-70.5 17.5h-98l-31 -251h98z" />
    <glyph glyph-name="Q" unicode="Q" horiz-adv-x="943" 
d="M646 85l246 29l-14 -114h-387zM465 -7q-64 0 -126.5 21t-112.5 64t-80 108t-30 152q0 66 24.5 136t74 129t124 95.5t173.5 36.5q65 0 127 -21t112.5 -64t80 -108t29.5 -153q0 -66 -24.5 -135.5t-74 -128.5t-123.5 -95.5t-174 -36.5zM467 105q72 0 124 26t85 67.5t49 90
t16 94.5q0 49 -17.5 92t-49 76.5t-74 52.5t-93.5 19q-72 0 -123.5 -25.5t-84.5 -67.5t-48 -90.5t-15 -94.5q0 -48 17 -91.5t47.5 -77t73 -52.5t93.5 -19z" />
    <glyph glyph-name="R" unicode="R" horiz-adv-x="671" 
d="M366 728q60 0 107.5 -15.5t79.5 -45.5t46 -73.5t7 -99.5q-6 -43 -24 -86t-52 -77.5t-84 -56t-121 -21.5h-106l-31 -253h-116l89 728h205zM337 365q52 0 83.5 20.5t47 50t17.5 54.5q3 18 -0.5 39.5t-15.5 41t-35.5 32.5t-61.5 13h-109l-30 -251h104zM454 296l151 -296
h-136l-154 293z" />
    <glyph glyph-name="S" unicode="S" horiz-adv-x="574" 
d="M522 567q-37 23 -80 40t-83 19q-31 1 -53.5 -5.5t-38 -18.5t-23.5 -28t-10 -34q-2 -29 16.5 -52t50.5 -41.5t67 -34.5q42 -18 80 -44.5t60 -68t15 -107.5q-4 -39 -23 -76t-52 -65.5t-80.5 -44t-109.5 -12.5q-45 2 -87.5 13.5t-80 31t-69.5 47.5l62 87q23 -20 52.5 -37
t62 -27.5t63.5 -12.5q36 0 66.5 11t51 34t23.5 57q3 29 -13 51t-42 39.5t-57 31.5q-32 15 -65 33t-60.5 42.5t-42 59.5t-9.5 82q7 61 39 104.5t84.5 66t117.5 21.5q52 -2 92.5 -13.5t72.5 -27.5t58 -36z" />
    <glyph glyph-name="T" unicode="T" horiz-adv-x="583" 
d="M109 728h487l-15 -114h-185l-76 -614h-120l76 614h-181z" />
    <glyph glyph-name="U" unicode="U" horiz-adv-x="766" 
d="M224 262q-5 -43 11.5 -79t50.5 -57t80 -21q47 0 86 21t65 57t31 79l57 466h120l-57 -469q-10 -79 -54.5 -139.5t-112.5 -94t-149 -33.5v0q-78 0 -138 33.5t-90 94t-20 139.5l57 469h120z" />
    <glyph glyph-name="V" unicode="V" horiz-adv-x="729" 
d="M334 -28l-232 756h139l160 -568l-66 13l282 555h137l-416 -756h-4z" />
    <glyph glyph-name="W" unicode="W" horiz-adv-x="1017" 
d="M102 724h135l117 -515l-18 8l184 358l35 -159l-255 -450zM458 724h116l138 -505l-22 4l227 501h124l-377 -756z" />
    <glyph glyph-name="X" unicode="X" horiz-adv-x="659" 
d="M90 728h147l386 -728h-150zM-9 0l303 401l43 -115l-203 -286h-143zM361 443l201 285h141l-292 -384z" />
    <glyph glyph-name="Y" unicode="Y" horiz-adv-x="704" 
d="M295 236l-208 492h142l157 -392l-35 -2l250 394h144l-333 -492l-29 -236h-117z" />
    <glyph glyph-name="Z" unicode="Z" horiz-adv-x="665" 
d="M2 0l500 648l15 -32h-306q-20 0 -39.5 8t-31 23t-9.5 35l10 83h107l-1 -14q-1 -12 5 -17.5t24 -5.5h423l-489 -630l-10 14h430l-13 -112h-615z" />
    <glyph glyph-name="bracketleft" unicode="[" horiz-adv-x="351" 
d="M165 758h202l-12 -99h-102l-87 -713h102l-12 -97h-202z" />
    <glyph glyph-name="backslash" unicode="\" horiz-adv-x="406" 
d="M201 748q47 -192 94.5 -383.5t93.5 -383.5h-113q-47 192 -94.5 383.5t-94.5 383.5h114z" />
    <glyph glyph-name="bracketright" unicode="]" horiz-adv-x="365" 
d="M127 758h202l-111 -909h-203l13 97h102l87 713h-102z" />
    <glyph glyph-name="asciicircum" unicode="^" horiz-adv-x="477" 
d="M348 487q-3 6 -12.5 20t-19 28.5t-12.5 20.5q-5 -6 -17.5 -20.5t-25.5 -28.5t-18 -20h-70q36 46 72.5 91.5t72.5 91.5v0q25 -46 49.5 -91.5t49.5 -91.5h-69z" />
    <glyph glyph-name="underscore" unicode="_" horiz-adv-x="609" 
d="M114 97h406l-12 -97h-406z" />
    <glyph glyph-name="grave" unicode="`" horiz-adv-x="204" 
d="M161 621l65 -134h-70l-119 134h124z" />
    <glyph glyph-name="a" unicode="a" horiz-adv-x="601" 
d="M221 -9q-45 0 -86.5 24.5t-67 71t-25.5 110.5q0 45 16 88t47 78.5t75 57t99 21.5q44 0 74 -11.5t49 -30t31 -41.5l-9 -19l22 83h103l-51 -423h-112l12 101l7 -27q-4 -5 -18 -18.5t-37 -28.5t-55.5 -25.5t-73.5 -10.5zM283 81q26 0 49.5 10.5t42.5 30t31 46.5l11 92
q-5 27 -21 47.5t-41 31.5t-56 11q-39 0 -65.5 -13.5t-43.5 -35t-24.5 -45.5t-7.5 -46q0 -38 15.5 -67t44 -45.5t65.5 -16.5z" />
    <glyph glyph-name="b" unicode="b" horiz-adv-x="607" 
d="M320 -10q-58 0 -97 23t-62 59l15 28l-13 -100h-112l96 780h111l-54 -441l3 38q26 28 67.5 46.5t92.5 18.5q54 0 99.5 -23.5t72.5 -70.5t27 -118q0 -62 -30 -117t-85 -89t-131 -34zM307 84q40 0 67 13.5t44.5 34.5t25 45t7.5 46q0 40 -15 69.5t-43 45.5t-66 16
q-45 0 -79 -24t-51 -62l-12 -91q5 -16 14.5 -32.5t24 -30t35 -22t48.5 -8.5z" />
    <glyph glyph-name="c" unicode="c" horiz-adv-x="470" 
d="M407 28q-29 -18 -67.5 -29t-77.5 -11q-30 0 -67.5 10t-73 33t-58 62.5t-22.5 98.5q0 43 15.5 85.5t45 77.5t73.5 56t102 21q61 0 104 -18t71 -47l-64 -68q-15 15 -41.5 28t-62.5 13q-33 0 -63 -18.5t-48.5 -50t-18.5 -71.5q0 -34 16 -61t44.5 -43.5t67.5 -16.5
q22 0 41.5 6t35.5 17z" />
    <glyph glyph-name="d" unicode="d" horiz-adv-x="607" 
d="M247 -10q-60 1 -107.5 29.5t-73.5 76.5t-24 104q1 46 18 89t50 78t79 55.5t105 19.5q56 -1 98 -24.5t63 -56.5l-21 -27l54 446h112l-96 -780h-112l11 93l8 -26q-35 -34 -75.5 -56t-88.5 -21zM281 85q29 -1 54 9.5t45.5 30t33.5 47.5l10 90q-4 27 -20.5 47.5t-41.5 32
t-57 12.5q-42 0 -75 -16.5t-52 -47.5t-21 -74q-1 -38 14 -67.5t43.5 -46t66.5 -17.5z" />
    <glyph glyph-name="e" unicode="e" horiz-adv-x="535" 
d="M281 85q22 0 43.5 8t41.5 20l40 -87q-31 -17 -67 -26.5t-70 -9.5q-68 0 -119 24.5t-79.5 73t-28.5 118.5q0 40 15 81t45 75.5t77 56t110 21.5q37 0 72.5 -9.5t64.5 -32.5t50 -62.5t29 -100.5l-353 -94l-18 65l291 80l-39 -14q-10 37 -37 59t-64 22q-43 0 -72 -19t-44 -50
t-15 -65q0 -49 19 -78.5t48 -42.5t60 -13z" />
    <glyph glyph-name="f" unicode="f" horiz-adv-x="402" 
d="M86 0l39 325h-72l13 99h72l20 166q11 88 61.5 138.5t135.5 50.5q24 0 52 -7t49 -22l-58 -81q-8 10 -19.5 14t-22.5 4q-34 0 -57 -23t-29 -77l-20 -163h132l-13 -99h-132l-39 -325h-112z" />
    <glyph glyph-name="g" unicode="g" horiz-adv-x="615" 
d="M258 -211q-56 0 -95 12t-68 32t-54 43l76 76q19 -20 40.5 -34.5t49 -22.5t61.5 -8q36 0 64 13.5t46 38t21 58.5l13 106l6 -20q-20 -40 -63.5 -66.5t-105.5 -26.5q-58 0 -105 26t-74.5 74.5t-27.5 117.5q0 35 14.5 75.5t44.5 76.5t76 59t109 23q60 0 102.5 -21t59.5 -53
l-11 -19l24 74h103l-56 -445q-7 -59 -41 -101.5t-88 -65t-121 -22.5zM306 350q-41 0 -69.5 -14t-46 -36t-25.5 -46.5t-8 -45.5q0 -39 16 -67.5t45.5 -44t69.5 -15.5q27 0 52.5 11t46 30t33.5 46l11 92q-5 27 -22.5 47.5t-43.5 31.5t-59 11z" />
    <glyph glyph-name="h" unicode="h" horiz-adv-x="570" 
d="M200 348q28 41 74.5 67t106.5 26q61 0 95 -35t29 -92l-38 -314h-112l33 275q2 31 -12 50.5t-50 19.5q-35 0 -65 -20.5t-49 -56t-25 -81.5l-23 -187h-112l95 780h110l-55 -455z" />
    <glyph glyph-name="i" unicode="i" horiz-adv-x="266" 
d="M103 423h112l-52 -423h-112zM111 569q1 26 20 44.5t48 18.5q22 0 42 -13t20 -42q-1 -27 -20 -45.5t-48 -18.5q-21 0 -41.5 13.5t-20.5 42.5z" />
    <glyph glyph-name="j" unicode="j" horiz-adv-x="279" 
d="M-22 -138q35 23 57 56.5t28 81.5l53 423h112l-53 -423q-9 -72 -43 -124.5t-99 -82.5zM120 569q1 26 20 44.5t48 18.5q22 0 42 -13t20 -42q-1 -27 -20 -45.5t-48 -18.5q-21 0 -41.5 13.5t-20.5 42.5z" />
    <glyph glyph-name="k" unicode="k" horiz-adv-x="518" 
d="M52 0l95 780h112l-95 -780h-112zM303 284l159 -284h-131l-110 220zM145 127v107l281 199l63 -60z" />
    <glyph glyph-name="l" unicode="l" horiz-adv-x="267" 
d="M147 780h112l-95 -780h-112z" />
    <glyph glyph-name="m" unicode="m" horiz-adv-x="841" 
d="M204 423l-1 -91l-2 15q30 44 74 69.5t99 25.5q52 0 83 -21.5t36 -66.5l-3 -2q31 40 75 65t90 25q62 0 94.5 -35.5t26.5 -91.5l-38 -315h-112l34 272q2 30 -7 50.5t-42 22.5q-36 0 -65 -22.5t-47.5 -58t-23.5 -74.5l-24 -190h-112l33 272q3 30 -7.5 50.5t-42.5 22.5
q-36 0 -64.5 -22.5t-47 -58t-23.5 -74.5l-23 -190h-112l51 423h101z" />
    <glyph glyph-name="n" unicode="n" horiz-adv-x="570" 
d="M204 423l1 -91l-6 14q27 43 73.5 69t107.5 26t96 -35t29 -92l-38 -314h-112l33 274q3 32 -12.5 51.5t-52.5 19.5q-34 0 -63.5 -20.5t-48 -56t-24.5 -81.5l-23 -187h-112l51 423h101z" />
    <glyph glyph-name="o" unicode="o" horiz-adv-x="557" 
d="M270 -11q-39 0 -79.5 13t-74 38.5t-54 65t-20.5 92.5q0 39 13 81.5t42 79t76.5 59t115.5 22.5q58 0 109.5 -24t84.5 -70.5t33 -113.5q0 -26 -7.5 -58.5t-24 -65t-45 -59.5t-70.5 -43.5t-99 -16.5zM273 82q48 0 76 23.5t40.5 57.5t12.5 64q0 35 -11.5 58.5t-30 37.5
t-39 20t-36.5 6q-46 0 -75 -23t-42 -57t-13 -66q0 -45 19 -71.5t46.5 -38t52.5 -11.5z" />
    <glyph glyph-name="p" unicode="p" horiz-adv-x="596" 
d="M294 -11q-45 0 -88 21t-62 54l26 29l-33 -296h-111l79 634h97l-1 -98l-24 30q43 35 91 57t93 22q54 0 98.5 -24t71 -67t26.5 -101q0 -69 -32.5 -128.5t-91.5 -96t-139 -36.5zM291 83q46 0 80 21t53 55.5t19 73.5q0 35 -17 62.5t-44.5 42.5t-59.5 15q-29 0 -54 -11
t-45 -31t-34 -48l-10 -88q4 -17 12.5 -33t22 -29.5t32.5 -21.5t45 -8z" />
    <glyph glyph-name="q" unicode="q" horiz-adv-x="600" 
d="M238 -9q-48 -1 -93.5 23.5t-74.5 70.5t-29 109q0 48 18 92.5t50.5 79.5t76.5 55.5t95 20.5q65 0 101.5 -24.5t53.5 -56.5l-10 -15l18 77h105l-78 -626h-112l38 304l28 -25q-5 -6 -19 -19.5t-37.5 -29t-56 -26.5t-74.5 -10zM270 80q29 0 54 10.5t45.5 30.5t34.5 48l13 87
q-4 18 -13 34.5t-23 29.5t-34 21t-46 8q-45 0 -79.5 -21t-53 -55t-18.5 -74q0 -35 16.5 -62t44 -42t59.5 -15z" />
    <glyph glyph-name="r" unicode="r" horiz-adv-x="393" 
d="M204 423l-6 -99q22 38 54 64.5t67 40t62 13.5l-19 -112q-47 4 -85.5 -17t-62 -56.5t-28.5 -74.5l-23 -182h-111l51 423h101z" />
    <glyph glyph-name="s" unicode="s" horiz-adv-x="424" 
d="M190 -9q-19 0 -50 5.5t-63.5 22.5t-57.5 50l55 59q23 -26 44 -38.5t39.5 -16t32.5 -3.5q34 0 47 16.5t13 31.5q0 18 -13 29t-33 19t-42 16q-47 19 -70 49t-23 69q0 20 7.5 43.5t25 45t48 36t76.5 14.5q24 0 51.5 -4t55.5 -16t53 -35l-51 -65q-20 23 -44 33t-49 10
q-21 0 -34 -7t-19 -17.5t-6 -21.5q1 -18 14.5 -29t34 -19t41.5 -17q29 -11 50.5 -27.5t32.5 -40t8 -56.5q-2 -25 -14 -49t-32.5 -44t-52.5 -31.5t-75 -11.5z" />
    <glyph glyph-name="t" unicode="t" horiz-adv-x="373" 
d="M163 609h112l-22 -186h110l-10 -88h-111l-41 -335h-112l41 335h-73l11 88h73z" />
    <glyph glyph-name="u" unicode="u" horiz-adv-x="561" 
d="M185 -18q-58 0 -92 35t-28 91l38 315h112l-34 -275q-2 -31 12 -50.5t48 -19.5t62.5 20.5t47.5 56.5t24 81l23 187h112l-52 -423h-101l2 94l4 -15q-17 -27 -44 -49.5t-61 -35t-73 -12.5z" />
    <glyph glyph-name="v" unicode="v" horiz-adv-x="510" 
d="M229 -11l-191 434h133l114 -316l-68 2l176 314h125l-285 -434h-4z" />
    <glyph glyph-name="w" unicode="w" horiz-adv-x="679" 
d="M436 -13l-99 280l-154 -279h-7l-138 435h110l86 -265l-39 7l114 196l-21 62h96l81 -250l-22 -2l133 252h110l-243 -436h-7z" />
    <glyph glyph-name="x" unicode="x" horiz-adv-x="481" 
d="M452 0h-135l-271 423h137zM261 276l111 147h113l-193 -228zM234 148l-123 -148h-113l193 224z" />
    <glyph glyph-name="y" unicode="y" horiz-adv-x="513" 
d="M73 -203l357 626h103l-350 -626h-110zM207 -3l-153 426h126l120 -369z" />
    <glyph glyph-name="z" unicode="z" horiz-adv-x="487" 
d="M142 331q-34 0 -55.5 22.5t-16.5 62.5l5 48h85l-1 -14q-2 -18 5 -22.5t25 -4.5h270l-289 -355l-19 24h264l-11 -92h-407l296 364l13 -33h-164z" />
    <glyph glyph-name="braceleft" unicode="{" horiz-adv-x="359" 
d="M330 659q-21 0 -33.5 -7t-20 -28t-12.5 -66l-15 -127q-4 -36 -19 -62t-32 -42t-31 -25q11 -8 24 -24.5t22 -42t4 -60.5l-16 -126q-5 -44 -3 -66t13 -29.5t31 -7.5h42l-12 -98h-70q-25 0 -47.5 1.5t-39.5 10t-24.5 32.5t-2.5 68l20 156q4 27 1 58.5t-17.5 54.5t-47.5 24v0
l12 95q33 2 53 24.5t30.5 54t13.5 59.5l19 152q6 47 19 72t31.5 35t41.5 11.5t49 1.5h70l-12 -99h-41z" />
    <glyph glyph-name="bar" unicode="|" horiz-adv-x="295" 
d="M178 711h101l-117 -947h-101z" />
    <glyph glyph-name="braceright" unicode="}" horiz-adv-x="363" 
d="M73 -54q21 0 33 7.5t19.5 29.5t12.5 66l14 118q6 40 20.5 67t32 43.5t30.5 24.5q-10 9 -24 25t-22 42t-4 62l15 127q6 45 4.5 66t-12.5 28t-32 7h-41l12 99h70q25 0 48 -1.5t39.5 -11t23.5 -34.5t1 -73l-20 -161q-2 -21 -0.5 -43.5t8.5 -41.5t21 -31t36 -13v0l-11 -95
q-23 -1 -40.5 -13t-29 -31t-18 -41.5t-9.5 -43.5l-19 -156q-6 -47 -18.5 -72t-31.5 -35t-42.5 -11.5t-49.5 -1.5h-70l12 98h42z" />
    <glyph glyph-name="asciitilde" unicode="~" horiz-adv-x="459" 
d="M322 425q-38 2 -61.5 20.5t-41.5 37.5q-12 13 -23.5 23.5t-27.5 11.5q-15 1 -26.5 -10t-17.5 -29t-8 -42l-69 6q2 45 19.5 82t48 58.5t70.5 18.5q30 -1 50.5 -18.5t37.5 -36.5q14 -16 27 -28t29 -13q15 -1 25 10.5t15 31t6 42.5l70 -5q0 -49 -17 -86t-45 -56t-61 -18z
" />
    <glyph glyph-name="uni00A0" unicode="&#xa0;" horiz-adv-x="300" 
 />
    <glyph glyph-name="exclamdown" unicode="&#xa1;" horiz-adv-x="201" 
d="M99 -205h-100l70 570h100zM149 555q28 -3 42.5 -21t9.5 -43q-5 -24 -26 -38t-49 -11q-27 4 -40.5 23t-8.5 43q5 25 24.5 37.5t47.5 9.5z" />
    <glyph glyph-name="cent" unicode="&#xa2;" horiz-adv-x="470" 
d="M273 491h68l-68 -559h-68zM407 28q-29 -18 -67.5 -29t-77.5 -11q-30 0 -67.5 10t-73 33t-58 62.5t-22.5 98.5q0 43 15.5 85.5t45 77.5t73.5 56t102 21q61 0 104 -18t71 -47l-64 -68q-15 15 -41.5 28t-62.5 13q-33 0 -63 -18.5t-48.5 -50t-18.5 -71.5q0 -34 16 -61
t44.5 -43.5t67.5 -16.5q22 0 41.5 6t35.5 17z" />
    <glyph glyph-name="sterling" unicode="&#xa3;" horiz-adv-x="580" 
d="M427 398l-14 -113h-322l13 113h323zM188 547q6 47 38.5 85.5t85 60t117.5 21.5q73 0 119.5 -28t66.5 -77l-91 -58q-8 13 -20.5 24.5t-33 19t-52.5 7.5q-37 0 -62 -11t-38.5 -33t-17.5 -54l-36 -292l-3 -19q-3 -16 -7.5 -33t-11 -31t-14.5 -23l-7 6h196q30 0 45.5 10
t18.5 32l5 38l101 1l-9 -71q-4 -35 -20.5 -63t-48.5 -43.5t-82 -15.5h-403l13 112h45q21 0 33 6t19.5 25.5t11.5 58.5z" />
    <glyph glyph-name="currency" unicode="&#xa4;" horiz-adv-x="505" 
d="M416 435q9 -18 13 -38t1 -41q-2 -24 -11 -45t-24 -39l23 -30l-52 -45q-7 8 -13.5 15.5t-12.5 14.5q-38 -20 -84 -19q-22 1 -41.5 8t-34.5 18v0l-32 -27l-43 50l31 27q-9 17 -13 38.5t-1 43.5v0q2 23 10.5 43.5t22.5 37.5q-5 8 -11 14.5t-11 14.5l52 45l24 -28
q20 10 41 16t44 5q22 -1 42 -9t36 -20v0l31 25l42 -50zM190 361q-3 -34 19 -59.5t56 -27.5q25 -1 46 10.5t35.5 31t16.5 43.5q3 35 -19.5 61t-57.5 27q-24 1 -45 -10.5t-35 -30.5t-16 -45v0z" />
    <glyph glyph-name="yen" unicode="&#xa5;" horiz-adv-x="704" 
d="M179 307h376l-11 -91h-376zM166 163h376l-11 -91h-376zM303 302l-216 426h142l165 -326l-35 -3l242 329h144l-325 -426l-37 -302h-117z" />
    <glyph glyph-name="brokenbar" unicode="&#xa6;" horiz-adv-x="218" 
d="M77 119h101l-44 -356h-101zM150 711h101l-44 -356h-101z" />
    <glyph glyph-name="section" unicode="&#xa7;" horiz-adv-x="575" 
d="M367 132l-37 45q46 -5 82 -25t55 -54.5t12 -83.5q-7 -56 -41 -100.5t-87.5 -69t-118.5 -20.5q-41 3 -81 13.5t-75 30t-62 45.5l69 93q27 -25 52 -41.5t51 -25.5t52 -10q30 -2 55.5 6t42.5 26t20 44q3 27 -12.5 44.5t-42.5 30t-59 22.5q-31 10 -62.5 25t-57 36t-39 51
t-8.5 69q7 54 37 87t72.5 46t84.5 8l-14 -40q-51 19 -80 46.5t-39 60.5t-6 69q5 44 32 85.5t77.5 66.5t124.5 20q60 -4 107.5 -26t81.5 -55l-60 -83q-33 31 -65 45.5t-64 17.5q-36 2 -60 -6t-36.5 -23t-14.5 -33q-3 -26 12.5 -43.5t44 -30.5t62.5 -24q31 -11 62 -25
t55.5 -34.5t37.5 -50.5t8 -73q-7 -57 -50 -101.5t-118 -54.5zM419 274q5 25 -11.5 44t-42 32t-52.5 18q-50 5 -83 -14t-39 -49q-4 -28 10 -48t40 -35t56 -25q26 0 52.5 9t46.5 26t23 42z" />
    <glyph glyph-name="dieresis" unicode="&#xa8;" horiz-adv-x="376" 
d="M71 541q3 26 24 42.5t43 15.5q21 -1 38 -19.5t14 -45.5t-23.5 -42.5t-41.5 -14.5q-23 1 -40 19.5t-14 44.5v0zM263 541q3 26 23.5 42.5t42.5 15.5t38.5 -20t13.5 -45q-3 -27 -23.5 -42.5t-41.5 -14.5q-23 1 -39.5 19t-13.5 45v0z" />
    <glyph glyph-name="copyright" unicode="&#xa9;" horiz-adv-x="861" 
d="M582 185q-26 -21 -67 -39t-93 -15q-52 5 -91 34.5t-58 74.5t-13 97q7 58 36.5 101t76.5 66t106 20q30 -2 65.5 -13.5t55.5 -31.5l-55 -84q-14 17 -32 23.5t-38 7.5q-26 1 -47.5 -11.5t-35 -33.5t-16.5 -47q-3 -27 4.5 -49t26.5 -36.5t46 -16.5q22 -1 45.5 6.5t42.5 25.5z
M401 -29q-73 5 -135 35.5t-105 81.5t-63.5 117t-11.5 142q10 77 46 139.5t91 107.5t123.5 67.5t141.5 18.5q74 -5 135.5 -35.5t105 -81t63.5 -117t11 -143.5q-9 -75 -44.5 -138t-90.5 -108t-123 -67.5t-144 -18.5zM412 62q74 -5 137.5 26t105.5 88.5t50 132.5q10 76 -17 138
t-82.5 100.5t-128.5 42.5q-74 5 -137.5 -26t-105.5 -88.5t-52 -134.5q-9 -76 17.5 -137.5t81.5 -99t131 -42.5z" />
    <glyph glyph-name="ordfeminine" unicode="&#xaa;" horiz-adv-x="395" 
d="M185 424q-37 0 -64 16.5t-40 50.5t-7 83q6 48 27.5 82.5t53 53.5t65.5 19q38 0 59 -14.5t32 -35.5l9 39h80l-35 -288h-86l9 64l2 -15q-3 -6 -17 -19.5t-36.5 -24.5t-51.5 -11zM220 493q17 0 31.5 7t25.5 20t17 31l7 53q-4 25 -20 40.5t-41 15.5q-30 0 -52.5 -22.5
t-27.5 -59.5q-3 -24 4 -43t21.5 -30.5t34.5 -11.5z" />
    <glyph glyph-name="guillemotleft" unicode="&#xab;" horiz-adv-x="610" 
d="M148 243q4 3 19 17.5t36 35.5l44 44t44 44.5t36 35.5t19 17l-14 -114q-5 -4 -15 -15.5t-22 -24.5t-22 -24.5t-15 -15.5q4 -4 11 -15.5t15.5 -25.5t16 -25t10.5 -16l-13 -114zM322 243q3 3 18 17.5t36 35.5t44.5 44t44.5 44.5t36 35.5t19 17l-14 -113q-5 -4 -15 -15.5
t-22 -25t-22.5 -25t-14.5 -15.5q3 -4 10.5 -15.5t16 -25.5t16 -25t10.5 -16l-13 -114z" />
    <glyph glyph-name="logicalnot" unicode="&#xac;" horiz-adv-x="487" 
d="M79 309h365l-26 -205h-116l11 93h-249z" />
    <glyph glyph-name="uni00AD" unicode="&#xad;" horiz-adv-x="600" 
d="M87 270h187l-12 -98h-187z" />
    <glyph glyph-name="registered" unicode="&#xae;" horiz-adv-x="519" 
d="M267 274q-63 4 -111 36.5t-73 85.5t-18 118q8 65 45.5 114t93.5 75.5t118 22.5q63 -3 111.5 -36t73.5 -86t17 -118q-7 -64 -44.5 -113.5t-93.5 -76t-119 -22.5zM274 335q47 -2 86.5 17t65.5 55t31 83q7 48 -10.5 86.5t-51.5 62t-80 26.5t-85.5 -16t-65 -55t-32.5 -84
q-5 -47 11.5 -86t51 -62.5t79.5 -26.5zM228 620l92 -1q41 0 58.5 -24.5t12.5 -59.5q-2 -27 -20.5 -48t-56.5 -21h-44l-9 -71h-61zM295 513q17 -1 24 6t8 18q1 12 -4 21.5t-20 10.5l-20 1l-6 -57h18zM345 476l27 -82l-68 1l-22 83z" />
    <glyph glyph-name="macron" unicode="&#xaf;" horiz-adv-x="406" 
d="M153 545h234l-7 -63h-234z" />
    <glyph glyph-name="degree" unicode="&#xb0;" horiz-adv-x="286" 
d="M46 573q4 30 21 53.5t44 37.5t58 12q43 -3 70 -34.5t22 -75.5q-2 -31 -19.5 -55.5t-43.5 -37.5t-56 -12q-44 3 -72 35t-24 77v0zM150 522q20 -1 35 12t17 33q2 19 -10 32.5t-31 14.5t-34.5 -12.5t-16.5 -33.5q-2 -18 9.5 -31.5t30.5 -14.5v0z" />
    <glyph glyph-name="plusminus" unicode="&#xb1;" horiz-adv-x="533" 
d="M290 580h102l-16 -135h131l-11 -97h-132l-17 -134h-102l17 134h-132l12 97h132zM109 176h365l-12 -98h-365z" />
    <glyph glyph-name="uni00B2" unicode="&#xb2;" horiz-adv-x="405" 
d="M111 631q14 18 38 32t53 22.5t58 7.5q65 -1 100.5 -36t28.5 -97q-6 -42 -32.5 -79t-64 -68t-75.5 -57.5t-67 -48.5l25 76h206l-11 -94h-290l8 64q25 14 54.5 33.5t57 42.5t46.5 49t22 52q4 37 -8.5 53.5t-41.5 16.5q-23 0 -47 -13t-37 -30z" />
    <glyph glyph-name="uni00B3" unicode="&#xb3;" horiz-adv-x="384" 
d="M172 286q-42 0 -68.5 16t-39.5 32l39 65q5 -6 14.5 -16.5t22 -18t28.5 -5.5q29 4 48 20t23 45q4 32 -14.5 49t-46.5 17q-11 0 -23.5 -2.5t-19.5 -6.5l-5 10l99 130l22 -17h-140l10 81h236l-127 -189l-70 20q13 11 32 19t43 8q23 0 49 -16t43.5 -43.5t12.5 -62.5
q-5 -37 -27.5 -68t-58 -49t-82.5 -18z" />
    <glyph glyph-name="acute" unicode="&#xb4;" horiz-adv-x="291" 
d="M323 621l-139 -134h-69l84 134h124z" />
    <glyph glyph-name="uni00B5" unicode="&#xb5;" horiz-adv-x="561" 
d="M185 -18q-55 0 -86 33.5t-29 86.5l95 61l-45 -364h-92l37 311l38 313h112l-33 -274q-2 -31 11 -51t48 -20q34 0 62.5 20.5t47.5 56.5t24 81l23 187h112l-52 -423h-101l2 79q-17 -27 -43 -49.5t-59 -35t-72 -12.5z" />
    <glyph glyph-name="paragraph" unicode="&#xb6;" horiz-adv-x="569" 
d="M257 429q-43 0 -76 20t-51.5 54t-18.5 75q0 51 25.5 92.5t68.5 66.5t93 25h266l-94 -762h-100l82 664h-66l-82 -664h-100z" />
    <glyph glyph-name="periodcentered" unicode="&#xb7;" horiz-adv-x="225" 
d="M67 281q0 29 22.5 48.5t46.5 19.5q19 0 35 -16t16 -40q0 -19 -10 -34t-25.5 -23.5t-30.5 -8.5q-21 0 -37.5 15t-16.5 39v0z" />
    <glyph glyph-name="cedilla" unicode="&#xb8;" horiz-adv-x="459" 
d="M101 -141q9 -12 24.5 -20.5t36.5 -10.5q22 -1 43 8.5t24 30.5q2 14 -9 27.5t-46 15.5q-16 1 -33 -1.5t-31 -6.5l-11 55l68 46l85 -2l-77 -77l-19 29q11 3 25 4.5t27 1.5q54 -2 87 -26.5t27 -70.5q-4 -35 -27.5 -56t-57.5 -30.5t-71 -7.5q-40 3 -65.5 16.5t-39.5 30.5z
" />
    <glyph glyph-name="uni00B9" unicode="&#xb9;" horiz-adv-x="276" 
d="M94 673h167l-46 -389h-105l35 289h-63z" />
    <glyph glyph-name="ordmasculine" unicode="&#xba;" horiz-adv-x="376" 
d="M76 585q5 44 29.5 77t62.5 50.5t84 14.5q47 -3 80 -25t48.5 -57.5t9.5 -79.5q-5 -43 -28.5 -76.5t-61.5 -51.5t-86 -15q-45 3 -78.5 24t-49.5 56.5t-10 82.5zM162 578q-3 -21 4.5 -39.5t22 -29.5t33.5 -12q22 -2 39 7.5t28.5 27t13.5 38.5q3 22 -4 40.5t-21.5 29.5
t-35.5 13q-20 1 -37.5 -8.5t-28.5 -27t-14 -39.5z" />
    <glyph glyph-name="guillemotright" unicode="&#xbb;" horiz-adv-x="610" 
d="M437 243q-4 3 -18.5 17.5l-35.5 35.5t-44.5 44t-44.5 44.5t-36 35.5t-18 17l13 -114q5 -4 15 -15.5t22 -24.5t22.5 -24.5t14.5 -15.5q-3 -4 -10.5 -15.5t-16 -25.5t-16 -25t-10.5 -16l14 -114zM263 243q-3 3 -18 17.5t-36 35.5t-44.5 44t-44.5 44.5t-36 35.5t-18 17
l13 -113q5 -4 15 -15.5t22.5 -25t22.5 -25t15 -15.5q-4 -4 -11 -15.5t-16 -25.5t-16.5 -25t-10.5 -16l13 -114z" />
    <glyph glyph-name="onequarter" unicode="&#xbc;" horiz-adv-x="896" 
d="M699 766q-95 -191 -188.5 -382.5t-188.5 -383.5h-101q94 192 188 383.5t189 382.5h101zM94 673h167l-46 -389h-105l35 289h-63zM846 168l-8 -63h-317l2 28l237 272h69l-49 -397h-96l34 280l25 5l-140 -164l-10 39h253z" />
    <glyph glyph-name="onehalf" unicode="&#xbd;" horiz-adv-x="911" 
d="M114 673h167l-46 -389h-105l35 289h-63zM666 767q-94 -192 -188 -383.5t-189 -383.5h-101q95 192 189 383.5t188 383.5h101zM546 340q14 18 38 32t53 22.5t58 7.5q65 -1 100.5 -36t28.5 -97q-6 -42 -32.5 -79t-64 -68t-75.5 -57.5t-67 -48.5l25 76h206l-11 -94h-290l8 64
q25 14 54.5 33.5t57 42.5t46.5 49t22 52q4 37 -8.5 53.5t-41.5 16.5q-23 0 -47 -13t-37 -30z" />
    <glyph glyph-name="threequarters" unicode="&#xbe;" horiz-adv-x="920" 
d="M173 286q-42 0 -68.5 16t-39.5 32l39 65q5 -6 14.5 -16.5t22 -18t28.5 -5.5q29 4 48 20t23 45q4 32 -14.5 49t-46.5 17q-11 0 -23.5 -2.5t-19.5 -6.5l-5 10l99 130l22 -17h-140l10 81h236l-127 -189l-70 20q13 11 32 19t43 8q23 0 49 -16t43.5 -43.5t12.5 -62.5
q-5 -37 -27.5 -68t-58 -49t-82.5 -18zM723 767q-94 -192 -188 -383.5t-189 -383.5h-101q95 192 189 383.5t188 383.5h101zM868 161l-7 -64h-318l2 29l238 271h69l-49 -397h-97l35 281l25 4l-140 -164l-11 40h253z" />
    <glyph glyph-name="questiondown" unicode="&#xbf;" horiz-adv-x="436" 
d="M323 274q-4 -32 -16 -53.5t-30.5 -36.5t-41.5 -28.5t-47 -31.5q-46 -32 -68.5 -67.5t-22.5 -75.5q0 -25 10 -44.5t29 -31t45 -11.5q38 0 62 10t40 31.5t29 52.5v0q21 -8 42.5 -16t41.5 -17q-9 -20 -24.5 -47t-41.5 -53t-65 -43t-96 -17q-51 0 -90.5 24t-62.5 65t-23 89
q0 65 33 112t90 86q19 13 43 28t43 37.5t23 56.5l10 80h100zM308 544q21 0 37 -14.5t16 -38.5q0 -29 -22 -48.5t-46 -19.5q-19 0 -35.5 16t-16.5 40q0 29 22 47t45 18v0z" />
    <glyph glyph-name="Agrave" unicode="&#xc0;" horiz-adv-x="699" 
d="M109 0h-114l415 758h7l229 -758h-134l-157 574l91 56zM230 271h250l27 -100h-324zM388 939l65 -134h-70l-119 134h124z" />
    <glyph glyph-name="Aacute" unicode="&#xc1;" horiz-adv-x="699" 
d="M109 0h-114l415 758h7l229 -758h-134l-157 574l91 56zM230 271h250l27 -100h-324zM585 939l-139 -134h-69l84 134h124z" />
    <glyph glyph-name="Acircumflex" unicode="&#xc2;" horiz-adv-x="699" 
d="M109 0h-114l415 758h7l229 -758h-134l-157 574l91 56zM230 271h250l27 -100h-324zM494 805l-73 93l29 8l-98 -101h-101l192 183h1l151 -183h-101z" />
    <glyph glyph-name="Atilde" unicode="&#xc3;" horiz-adv-x="699" 
d="M109 0h-114l415 758h7l229 -758h-134l-157 574l91 56zM230 271h250l27 -100h-324zM495 770q-39 2 -62 20.5t-42 37.5q-12 13 -23.5 23t-27.5 11q-14 1 -25.5 -9.5t-18 -28.5t-8.5 -42l-69 6q2 45 20 82t48 58.5t71 18.5q29 -1 49.5 -18.5t37.5 -36.5q15 -16 28 -28
t28 -13q16 -1 25.5 10.5t14.5 31t7 42.5l69 -5q1 -49 -16 -86t-45.5 -56t-60.5 -18z" />
    <glyph glyph-name="Adieresis" unicode="&#xc4;" horiz-adv-x="699" 
d="M109 0h-114l415 758h7l229 -758h-134l-157 574l91 56zM230 271h250l27 -100h-324zM272 859q3 26 24 42.5t43 15.5q21 -1 38 -19.5t14 -45.5t-23.5 -42.5t-41.5 -14.5q-23 1 -40 19.5t-14 44.5v0zM464 859q3 26 23.5 42.5t42.5 15.5t38.5 -20t13.5 -45q-3 -27 -23.5 -42.5
t-41.5 -14.5q-23 1 -39.5 19t-13.5 45v0z" />
    <glyph glyph-name="Aring" unicode="&#xc5;" horiz-adv-x="699" 
d="M109 0h-114l415 758h7l229 -758h-134l-157 574l91 56zM230 271h250l27 -100h-324zM332 867q4 44 35.5 68.5t75.5 22.5q43 -3 68.5 -30t20.5 -70q-3 -43 -35 -68t-75 -23t-69 30t-21 70zM391 862q-1 -19 9 -30.5t28 -13.5q19 -1 31.5 10.5t14.5 31.5q1 21 -8.5 32.5
t-28.5 11.5q-18 1 -31 -9.5t-15 -32.5z" />
    <glyph glyph-name="AE" unicode="&#xc6;" horiz-adv-x="960" 
d="M544 728h401l-13 -112h-286l-24 -196h245l-14 -112h-245l-24 -196h300l-14 -112h-416zM542 595q-4 -10 -9.5 -25t-5.5 -16l-410 -554h-134l561 728zM254 264h248l-11 -92h-283z" />
    <glyph glyph-name="Ccedilla" unicode="&#xc7;" horiz-adv-x="699" 
d="M622 40q-15 -9 -45 -21.5t-69.5 -22t-85.5 -9.5q-60 0 -121.5 19t-113 59t-82.5 105t-31 156q0 59 13.5 117.5t42.5 110.5t74 92t107.5 63t142.5 23q77 0 136 -23.5t96 -50.5l-60 -106q-25 22 -66.5 43t-94.5 25q-65 2 -115 -19.5t-84.5 -61t-52.5 -92t-18 -112.5
q0 -52 16.5 -95.5t47 -74.5t73.5 -48t95 -17q40 0 70 8.5t52 19.5t37 19zM328 -142q9 -12 24.5 -20.5t36.5 -10.5q22 -1 43 8.5t24 30.5q2 14 -9 27.5t-46 15.5q-16 1 -33 -1.5t-31 -6.5l-11 55l68 46l85 -2l-77 -77l-19 29q11 3 25 4.5t27 1.5q54 -2 87 -26.5t27 -70.5
q-4 -35 -27.5 -56t-57.5 -30.5t-71 -7.5q-40 3 -65.5 16.5t-39.5 30.5z" />
    <glyph glyph-name="Egrave" unicode="&#xc8;" horiz-adv-x="659" 
d="M161 728h483l-13 -108h-363l-24 -200h322l-14 -110h-322l-24 -199h377l-14 -111h-497zM369 921l65 -134h-70l-119 134h124z" />
    <glyph glyph-name="Eacute" unicode="&#xc9;" horiz-adv-x="659" 
d="M161 728h483l-13 -108h-363l-24 -200h322l-14 -110h-322l-24 -199h377l-14 -111h-497zM566 921l-139 -134h-69l84 134h124z" />
    <glyph glyph-name="Ecircumflex" unicode="&#xca;" horiz-adv-x="659" 
d="M161 728h483l-13 -108h-363l-24 -200h322l-14 -110h-322l-24 -199h377l-14 -111h-497zM475 787l-73 93l29 8l-98 -101h-101l192 183h1l151 -183h-101z" />
    <glyph glyph-name="Edieresis" unicode="&#xcb;" horiz-adv-x="659" 
d="M161 728h483l-13 -108h-363l-24 -200h322l-14 -110h-322l-24 -199h377l-14 -111h-497zM253 841q3 26 24 42.5t43 15.5q21 -1 38 -19.5t14 -45.5t-23.5 -42.5t-41.5 -14.5q-23 1 -40 19.5t-14 44.5v0zM445 841q3 26 23.5 42.5t42.5 15.5t38.5 -20t13.5 -45
q-3 -27 -23.5 -42.5t-41.5 -14.5q-23 1 -39.5 19t-13.5 45v0z" />
    <glyph glyph-name="Igrave" unicode="&#xcc;" horiz-adv-x="322" 
d="M161 728h120l-89 -728h-120zM195 921l65 -134h-70l-119 134h124z" />
    <glyph glyph-name="Iacute" unicode="&#xcd;" horiz-adv-x="322" 
d="M161 728h120l-89 -728h-120zM392 921l-139 -134h-69l84 134h124z" />
    <glyph glyph-name="Icircumflex" unicode="&#xce;" horiz-adv-x="322" 
d="M161 728h120l-89 -728h-120zM301 787l-73 93l29 8l-98 -101h-101l192 183h1l151 -183h-101z" />
    <glyph glyph-name="Idieresis" unicode="&#xcf;" horiz-adv-x="322" 
d="M161 728h120l-89 -728h-120zM79 841q3 26 24 42.5t43 15.5q21 -1 38 -19.5t14 -45.5t-23.5 -42.5t-41.5 -14.5q-23 1 -40 19.5t-14 44.5v0zM271 841q3 26 23.5 42.5t42.5 15.5t38.5 -20t13.5 -45q-3 -27 -23.5 -42.5t-41.5 -14.5q-23 1 -39.5 19t-13.5 45v0z" />
    <glyph glyph-name="Eth" unicode="&#xd0;" horiz-adv-x="758" 
d="M72 0l89 728h231q100 0 166.5 -31.5t104 -83.5t51 -117.5t6.5 -133.5q-7 -84 -40.5 -151.5t-87 -114.5t-120 -71.5t-139.5 -24.5h-261zM202 112h126q56 0 104 16.5t84.5 48.5t58.5 80.5t27 112.5q7 69 -10.5 116t-50.5 76t-74 42t-81 13h-123zM51 407h265l-15 -113h-265z
" />
    <glyph glyph-name="Ntilde" unicode="&#xd1;" horiz-adv-x="844" 
d="M711 -26h-3l-492 543l32 -15l-60 -502h-116l92 753h5l483 -543l-25 9l60 509h116zM555 729q-39 2 -62 20.5t-42 37.5q-12 13 -23.5 23t-27.5 11q-14 1 -25.5 -9.5t-18 -28.5t-8.5 -42l-69 6q2 45 20 82t48 58.5t71 18.5q29 -1 49.5 -18.5t37.5 -36.5q15 -16 28 -28
t28 -13q16 -1 25.5 10.5t14.5 31t7 42.5l69 -5q1 -49 -16 -86t-45.5 -56t-60.5 -18z" />
    <glyph glyph-name="Ograve" unicode="&#xd2;" horiz-adv-x="856" 
d="M423 -7q-64 0 -126.5 21t-112.5 64t-80 108t-30 152q0 66 24.5 136t74 129t124 95.5t173.5 36.5q65 0 127 -21t112.5 -64t80 -108t29.5 -153q0 -66 -24.5 -135.5t-74 -128.5t-123.5 -95.5t-174 -36.5zM425 105q72 0 124 26t85 67.5t49 90t16 94.5q0 49 -17.5 92t-49 76.5
t-74 52.5t-93.5 19q-72 0 -123.5 -25.5t-84.5 -67.5t-48 -90.5t-15 -94.5q0 -48 17 -91.5t47.5 -77t73 -52.5t93.5 -19zM447 921l65 -134h-70l-119 134h124z" />
    <glyph glyph-name="Oacute" unicode="&#xd3;" horiz-adv-x="856" 
d="M423 -7q-64 0 -126.5 21t-112.5 64t-80 108t-30 152q0 66 24.5 136t74 129t124 95.5t173.5 36.5q65 0 127 -21t112.5 -64t80 -108t29.5 -153q0 -66 -24.5 -135.5t-74 -128.5t-123.5 -95.5t-174 -36.5zM425 105q72 0 124 26t85 67.5t49 90t16 94.5q0 49 -17.5 92t-49 76.5
t-74 52.5t-93.5 19q-72 0 -123.5 -25.5t-84.5 -67.5t-48 -90.5t-15 -94.5q0 -48 17 -91.5t47.5 -77t73 -52.5t93.5 -19zM644 921l-139 -134h-69l84 134h124z" />
    <glyph glyph-name="Ocircumflex" unicode="&#xd4;" horiz-adv-x="856" 
d="M423 -7q-64 0 -126.5 21t-112.5 64t-80 108t-30 152q0 66 24.5 136t74 129t124 95.5t173.5 36.5q65 0 127 -21t112.5 -64t80 -108t29.5 -153q0 -66 -24.5 -135.5t-74 -128.5t-123.5 -95.5t-174 -36.5zM425 105q72 0 124 26t85 67.5t49 90t16 94.5q0 49 -17.5 92t-49 76.5
t-74 52.5t-93.5 19q-72 0 -123.5 -25.5t-84.5 -67.5t-48 -90.5t-15 -94.5q0 -48 17 -91.5t47.5 -77t73 -52.5t93.5 -19zM553 787l-73 93l29 8l-98 -101h-101l192 183h1l151 -183h-101z" />
    <glyph glyph-name="Otilde" unicode="&#xd5;" horiz-adv-x="856" 
d="M423 -7q-64 0 -126.5 21t-112.5 64t-80 108t-30 152q0 66 24.5 136t74 129t124 95.5t173.5 36.5q65 0 127 -21t112.5 -64t80 -108t29.5 -153q0 -66 -24.5 -135.5t-74 -128.5t-123.5 -95.5t-174 -36.5zM425 105q72 0 124 26t85 67.5t49 90t16 94.5q0 49 -17.5 92t-49 76.5
t-74 52.5t-93.5 19q-72 0 -123.5 -25.5t-84.5 -67.5t-48 -90.5t-15 -94.5q0 -48 17 -91.5t47.5 -77t73 -52.5t93.5 -19zM554 752q-39 2 -62 20.5t-42 37.5q-12 13 -23.5 23t-27.5 11q-14 1 -25.5 -9.5t-18 -28.5t-8.5 -42l-69 6q2 45 20 82t48 58.5t71 18.5
q29 -1 49.5 -18.5t37.5 -36.5q15 -16 28 -28t28 -13q16 -1 25.5 10.5t14.5 31t7 42.5l69 -5q1 -49 -16 -86t-45.5 -56t-60.5 -18z" />
    <glyph glyph-name="Odieresis" unicode="&#xd6;" horiz-adv-x="856" 
d="M423 -7q-64 0 -126.5 21t-112.5 64t-80 108t-30 152q0 66 24.5 136t74 129t124 95.5t173.5 36.5q65 0 127 -21t112.5 -64t80 -108t29.5 -153q0 -66 -24.5 -135.5t-74 -128.5t-123.5 -95.5t-174 -36.5zM425 105q72 0 124 26t85 67.5t49 90t16 94.5q0 49 -17.5 92t-49 76.5
t-74 52.5t-93.5 19q-72 0 -123.5 -25.5t-84.5 -67.5t-48 -90.5t-15 -94.5q0 -48 17 -91.5t47.5 -77t73 -52.5t93.5 -19zM331 841q3 26 24 42.5t43 15.5q21 -1 38 -19.5t14 -45.5t-23.5 -42.5t-41.5 -14.5q-23 1 -40 19.5t-14 44.5v0zM523 841q3 26 23.5 42.5t42.5 15.5
t38.5 -20t13.5 -45q-3 -27 -23.5 -42.5t-41.5 -14.5q-23 1 -39.5 19t-13.5 45v0z" />
    <glyph glyph-name="multiply" unicode="&#xd7;" horiz-adv-x="522" 
d="M313 262q26 23 50 44.5t50 44.5q19 -20 37 -42.5t36 -43.5q-23 -21 -48.5 -43t-48.5 -45q20 -21 39 -44t39 -46l-99 -87q-19 22 -39.5 44t-40.5 45q-23 -22 -48 -44t-49 -43l-38 42t-37 42q24 23 49 44.5t50 44.5l-80 91l97 88z" />
    <glyph glyph-name="Oslash" unicode="&#xd8;" horiz-adv-x="853" 
d="M842 682l-687 -700l-51 51l688 701zM423 -7q-64 0 -126.5 21t-112.5 64t-80 108t-30 152q0 66 24.5 136t74 129t124 95.5t173.5 36.5q65 0 127 -21t112.5 -64t80 -108t29.5 -153q0 -66 -24.5 -135.5t-74 -128.5t-123.5 -95.5t-174 -36.5zM425 105q72 0 124 26t85 67.5
t49 90t16 94.5q0 49 -17.5 92t-49 76.5t-74 52.5t-93.5 19q-72 0 -123.5 -25.5t-84.5 -67.5t-48 -90.5t-15 -94.5q0 -48 17 -91.5t47.5 -77t73 -52.5t93.5 -19z" />
    <glyph glyph-name="Ugrave" unicode="&#xd9;" horiz-adv-x="766" 
d="M224 262q-5 -43 11.5 -79t50.5 -57t80 -21q47 0 86 21t65 57t31 79l57 466h120l-57 -469q-10 -79 -54.5 -139.5t-112.5 -94t-149 -33.5v0q-78 0 -138 33.5t-90 94t-20 139.5l57 469h120zM422 921l65 -134h-70l-119 134h124z" />
    <glyph glyph-name="Uacute" unicode="&#xda;" horiz-adv-x="766" 
d="M224 262q-5 -43 11.5 -79t50.5 -57t80 -21q47 0 86 21t65 57t31 79l57 466h120l-57 -469q-10 -79 -54.5 -139.5t-112.5 -94t-149 -33.5v0q-78 0 -138 33.5t-90 94t-20 139.5l57 469h120zM619 921l-139 -134h-69l84 134h124z" />
    <glyph glyph-name="Ucircumflex" unicode="&#xdb;" horiz-adv-x="766" 
d="M224 262q-5 -43 11.5 -79t50.5 -57t80 -21q47 0 86 21t65 57t31 79l57 466h120l-57 -469q-10 -79 -54.5 -139.5t-112.5 -94t-149 -33.5v0q-78 0 -138 33.5t-90 94t-20 139.5l57 469h120zM527 787l-73 93l29 8l-98 -101h-101l192 183h1l151 -183h-101z" />
    <glyph glyph-name="Udieresis" unicode="&#xdc;" horiz-adv-x="766" 
d="M224 262q-5 -43 11.5 -79t50.5 -57t80 -21q47 0 86 21t65 57t31 79l57 466h120l-57 -469q-10 -79 -54.5 -139.5t-112.5 -94t-149 -33.5v0q-78 0 -138 33.5t-90 94t-20 139.5l57 469h120zM305 841q3 26 24 42.5t43 15.5q21 -1 38 -19.5t14 -45.5t-23.5 -42.5t-41.5 -14.5
q-23 1 -40 19.5t-14 44.5v0zM497 841q3 26 23.5 42.5t42.5 15.5t38.5 -20t13.5 -45q-3 -27 -23.5 -42.5t-41.5 -14.5q-23 1 -39.5 19t-13.5 45v0z" />
    <glyph glyph-name="Yacute" unicode="&#xdd;" horiz-adv-x="704" 
d="M295 236l-208 492h142l157 -392l-35 -2l250 394h144l-333 -492l-29 -236h-117zM578 926l-139 -134h-69l84 134h124z" />
    <glyph glyph-name="Thorn" unicode="&#xde;" horiz-adv-x="597" 
d="M350 598q54 0 98 -13.5t75.5 -40.5t48 -64.5t16.5 -86.5q0 -46 -15 -93.5t-48 -87.5t-87 -64.5t-129 -24.5h-102l-16 -123h-119l87 711h120l-14 -113h85zM318 235q42 0 70.5 15t46 37.5t25 46.5t7.5 42q0 24 -10.5 49.5t-36 43t-70.5 17.5h-99l-31 -251h98z" />
    <glyph glyph-name="germandbls" unicode="&#xdf;" horiz-adv-x="618" 
d="M353 -6q-34 0 -68.5 11.5t-52.5 31.5l48 70q15 -14 35 -21.5t34 -7.5q28 0 47 15t31.5 37t18.5 46t8 43q2 37 -9 64t-32.5 42.5t-53.5 16.5l-5 1l11 97q22 -1 37 5t24.5 17t13.5 24t4 25q0 30 -17 47t-54 18t-62.5 -17.5t-40 -53.5t-23.5 -84l-74 -421h-113l59 337h-65
l18 91h65l7 48q11 65 44 107.5t85 63.5t116 21q53 -1 91 -19.5t58 -51t20 -76.5q0 -25 -8 -49.5t-27 -45t-50 -32.5q30 -15 51.5 -39t32 -59t9.5 -83q-2 -37 -14 -76.5t-36.5 -72.5t-64.5 -52.5t-98 -17.5z" />
    <glyph glyph-name="agrave" unicode="&#xe0;" horiz-adv-x="601" 
d="M221 -9q-45 0 -86.5 24.5t-67 71t-25.5 110.5q0 45 16 88t47 78.5t75 57t99 21.5q44 0 74 -11.5t49 -30t31 -41.5l-9 -19l22 83h103l-51 -423h-112l12 101l7 -27q-4 -5 -18 -18.5t-37 -28.5t-55.5 -25.5t-73.5 -10.5zM283 81q26 0 49.5 10.5t42.5 30t31 46.5l11 92
q-5 27 -21 47.5t-41 31.5t-56 11q-39 0 -65.5 -13.5t-43.5 -35t-24.5 -45.5t-7.5 -46q0 -38 15.5 -67t44 -45.5t65.5 -16.5zM313 647l65 -134h-70l-119 134h124z" />
    <glyph glyph-name="aacute" unicode="&#xe1;" horiz-adv-x="601" 
d="M221 -9q-45 0 -86.5 24.5t-67 71t-25.5 110.5q0 45 16 88t47 78.5t75 57t99 21.5q44 0 74 -11.5t49 -30t31 -41.5l-9 -19l22 83h103l-51 -423h-112l12 101l7 -27q-4 -5 -18 -18.5t-37 -28.5t-55.5 -25.5t-73.5 -10.5zM283 81q26 0 49.5 10.5t42.5 30t31 46.5l11 92
q-5 27 -21 47.5t-41 31.5t-56 11q-39 0 -65.5 -13.5t-43.5 -35t-24.5 -45.5t-7.5 -46q0 -38 15.5 -67t44 -45.5t65.5 -16.5zM510 647l-139 -134h-69l84 134h124z" />
    <glyph glyph-name="acircumflex" unicode="&#xe2;" horiz-adv-x="601" 
d="M221 -9q-45 0 -86.5 24.5t-67 71t-25.5 110.5q0 45 16 88t47 78.5t75 57t99 21.5q44 0 74 -11.5t49 -30t31 -41.5l-9 -19l22 83h103l-51 -423h-112l12 101l7 -27q-4 -5 -18 -18.5t-37 -28.5t-55.5 -25.5t-73.5 -10.5zM283 81q26 0 49.5 10.5t42.5 30t31 46.5l11 92
q-5 27 -21 47.5t-41 31.5t-56 11q-39 0 -65.5 -13.5t-43.5 -35t-24.5 -45.5t-7.5 -46q0 -38 15.5 -67t44 -45.5t65.5 -16.5zM418 513l-73 93l29 8l-98 -101h-101l192 183h1l151 -183h-101z" />
    <glyph glyph-name="atilde" unicode="&#xe3;" horiz-adv-x="601" 
d="M221 -9q-45 0 -86.5 24.5t-67 71t-25.5 110.5q0 45 16 88t47 78.5t75 57t99 21.5q44 0 74 -11.5t49 -30t31 -41.5l-9 -19l22 83h103l-51 -423h-112l12 101l7 -27q-4 -5 -18 -18.5t-37 -28.5t-55.5 -25.5t-73.5 -10.5zM283 81q26 0 49.5 10.5t42.5 30t31 46.5l11 92
q-5 27 -21 47.5t-41 31.5t-56 11q-39 0 -65.5 -13.5t-43.5 -35t-24.5 -45.5t-7.5 -46q0 -38 15.5 -67t44 -45.5t65.5 -16.5zM419 478q-39 2 -62 20.5t-42 37.5q-12 13 -23.5 23t-27.5 11q-14 1 -25.5 -9.5t-18 -28.5t-8.5 -42l-69 6q2 45 20 82t48 58.5t71 18.5
q29 -1 49.5 -18.5t37.5 -36.5q15 -16 28 -28t28 -13q16 -1 25.5 10.5t14.5 31t7 42.5l69 -5q1 -49 -16 -86t-45.5 -56t-60.5 -18z" />
    <glyph glyph-name="adieresis" unicode="&#xe4;" horiz-adv-x="601" 
d="M221 -9q-45 0 -86.5 24.5t-67 71t-25.5 110.5q0 45 16 88t47 78.5t75 57t99 21.5q44 0 74 -11.5t49 -30t31 -41.5l-9 -19l22 83h103l-51 -423h-112l12 101l7 -27q-4 -5 -18 -18.5t-37 -28.5t-55.5 -25.5t-73.5 -10.5zM283 81q26 0 49.5 10.5t42.5 30t31 46.5l11 92
q-5 27 -21 47.5t-41 31.5t-56 11q-39 0 -65.5 -13.5t-43.5 -35t-24.5 -45.5t-7.5 -46q0 -38 15.5 -67t44 -45.5t65.5 -16.5zM196 567q3 26 24 42.5t43 15.5q21 -1 38 -19.5t14 -45.5t-23.5 -42.5t-41.5 -14.5q-23 1 -40 19.5t-14 44.5v0zM388 567q3 26 23.5 42.5t42.5 15.5
t38.5 -20t13.5 -45q-3 -27 -23.5 -42.5t-41.5 -14.5q-23 1 -39.5 19t-13.5 45v0z" />
    <glyph glyph-name="aring" unicode="&#xe5;" horiz-adv-x="601" 
d="M221 -9q-45 0 -86.5 24.5t-67 71t-25.5 110.5q0 45 16 88t47 78.5t75 57t99 21.5q44 0 74 -11.5t49 -30t31 -41.5l-9 -19l22 83h103l-51 -423h-112l12 101l7 -27q-4 -5 -18 -18.5t-37 -28.5t-55.5 -25.5t-73.5 -10.5zM283 81q26 0 49.5 10.5t42.5 30t31 46.5l11 92
q-5 27 -21 47.5t-41 31.5t-56 11q-39 0 -65.5 -13.5t-43.5 -35t-24.5 -45.5t-7.5 -46q0 -38 15.5 -67t44 -45.5t65.5 -16.5zM256 575q4 44 35.5 68.5t75.5 22.5q43 -3 68.5 -30t20.5 -70q-3 -43 -35 -68t-75 -23t-69 30t-21 70zM315 570q-1 -19 9 -30.5t28 -13.5
q19 -1 31.5 10.5t14.5 31.5q1 21 -8.5 32.5t-28.5 11.5q-18 1 -31 -9.5t-15 -32.5z" />
    <glyph glyph-name="ae" unicode="&#xe6;" horiz-adv-x="818" 
d="M545 -11q-23 1 -54.5 7.5t-62.5 22t-56 42.5t-37.5 68.5t-5.5 99.5q7 62 43.5 110t92.5 75.5t120 26.5q31 0 64 -9t63 -32t50.5 -63t26.5 -102l-386 -70l-5 63l296 56l-24 -12q-7 28 -22 46t-35.5 26.5t-43.5 8.5q-33 1 -60.5 -14.5t-45.5 -43.5t-23 -67q-6 -41 5 -68.5
t30.5 -43.5t42 -23t39.5 -8q24 -1 47.5 6.5t45.5 20.5l40 -86q-33 -17 -71.5 -27t-73.5 -10zM197 -11q-40 0 -78 14t-63 42t-25 71q0 31 18 63t58.5 53.5t108.5 20.5q27 0 48.5 -3.5t40.5 -10.5t36 -17.5t34 -26.5l-26 -65q-18 17 -37.5 27t-39.5 14.5t-39 4.5
q-45 1 -61.5 -18.5t-16.5 -39.5q1 -19 12 -31t29 -16.5t38 -4.5q27 2 54 13.5t44 29.5l8 68l45 -18l-13 -102q-22 -23 -49.5 -38t-59.5 -22.5t-66 -7.5zM318 218l5 40q4 30 -4 48.5t-22.5 27.5t-31 12t-30.5 4q-36 0 -67 -17t-53 -40l-48 74q36 31 84.5 53t110.5 21
q18 -1 42 -5t49 -14t45 -28t31 -45.5t6 -66.5l-3 -20z" />
    <glyph glyph-name="ccedilla" unicode="&#xe7;" horiz-adv-x="448" 
d="M365 109q14 -17 25 -34.5t24 -35.5q-31 -23 -69 -36.5t-79 -13.5q-57 0 -102.5 27.5t-71 72.5t-25.5 101q0 49 20.5 93.5t56 78.5t81.5 53t96 19q43 0 77.5 -13.5t61.5 -35.5q-17 -17 -34 -34.5t-35 -35.5q-15 13 -35.5 20.5t-45.5 7.5q-42 0 -76 -19.5t-53.5 -52
t-19.5 -73.5q0 -32 14 -58.5t40.5 -42.5t62.5 -16q25 0 47 7.5t40 20.5v0zM272 -8q-2 -19 4 -28t15 -14t17 -12q15 -13 22 -30.5t7 -38.5q0 -31 -14.5 -61t-43 -49t-69.5 -19q-36 0 -64 20t-37 60l29 14.5l29 14.5q2 -15 13.5 -25t29.5 -10q26 0 40 17.5t14 40.5
q0 17 -9.5 26.5t-21 18t-19 22.5t-5.5 38l3 23h61z" />
    <glyph glyph-name="egrave" unicode="&#xe8;" horiz-adv-x="535" 
d="M281 85q22 0 43.5 8t41.5 20l40 -87q-31 -17 -67 -26.5t-70 -9.5q-68 0 -119 24.5t-79.5 73t-28.5 118.5q0 40 15 81t45 75.5t77 56t110 21.5q37 0 72.5 -9.5t64.5 -32.5t50 -62.5t29 -100.5l-353 -94l-18 65l291 80l-39 -14q-10 37 -37 59t-64 22q-43 0 -72 -19t-44 -50
t-15 -65q0 -49 19 -78.5t48 -42.5t60 -13zM267 655l65 -134h-70l-119 134h124z" />
    <glyph glyph-name="eacute" unicode="&#xe9;" horiz-adv-x="445" 
d="M281 85q22 0 43.5 8t41.5 20l40 -87q-31 -17 -67 -26.5t-70 -9.5q-68 0 -119 24.5t-79.5 73t-28.5 118.5q0 40 15 81t45 75.5t77 56t110 21.5q37 0 72.5 -9.5t64.5 -32.5t50 -62.5t29 -100.5l-353 -94l-18 65l291 80l-39 -14q-10 37 -37 59t-64 22q-43 0 -72 -19t-44 -50
t-15 -65q0 -49 19 -78.5t48 -42.5t60 -13zM417 621l-139 -134h-69l84 134h124z" />
    <glyph glyph-name="ecircumflex" unicode="&#xea;" horiz-adv-x="535" 
d="M281 85q22 0 43.5 8t41.5 20l40 -87q-31 -17 -67 -26.5t-70 -9.5q-68 0 -119 24.5t-79.5 73t-28.5 118.5q0 40 15 81t45 75.5t77 56t110 21.5q37 0 72.5 -9.5t64.5 -32.5t50 -62.5t29 -100.5l-353 -94l-18 65l291 80l-39 -14q-10 37 -37 59t-64 22q-43 0 -72 -19t-44 -50
t-15 -65q0 -49 19 -78.5t48 -42.5t60 -13zM373 521l-73 93l29 8l-98 -101h-101l192 183h1l151 -183h-101z" />
    <glyph glyph-name="edieresis" unicode="&#xeb;" horiz-adv-x="535" 
d="M281 85q22 0 43.5 8t41.5 20l40 -87q-31 -17 -67 -26.5t-70 -9.5q-68 0 -119 24.5t-79.5 73t-28.5 118.5q0 40 15 81t45 75.5t77 56t110 21.5q37 0 72.5 -9.5t64.5 -32.5t50 -62.5t29 -100.5l-353 -94l-18 65l291 80l-39 -14q-10 37 -37 59t-64 22q-43 0 -72 -19t-44 -50
t-15 -65q0 -49 19 -78.5t48 -42.5t60 -13zM151 575q3 26 24 42.5t43 15.5q21 -1 38 -19.5t14 -45.5t-23.5 -42.5t-41.5 -14.5q-23 1 -40 19.5t-14 44.5v0zM343 575q3 26 23.5 42.5t42.5 15.5t38.5 -20t13.5 -45q-3 -27 -23.5 -42.5t-41.5 -14.5q-23 1 -39.5 19t-13.5 45v0z
" />
    <glyph glyph-name="igrave" unicode="&#xec;" horiz-adv-x="266" 
d="M103 423h112l-52 -423h-112zM133 621l65 -134h-70l-119 134h124z" />
    <glyph glyph-name="iacute" unicode="&#xed;" horiz-adv-x="266" 
d="M103 423h112l-52 -423h-112zM330 621l-139 -134h-69l84 134h124z" />
    <glyph glyph-name="icircumflex" unicode="&#xee;" horiz-adv-x="266" 
d="M103 423h112l-52 -423h-112zM239 487l-73 93l29 8l-98 -101h-101l192 183h1l151 -183h-101z" />
    <glyph glyph-name="idieresis" unicode="&#xef;" horiz-adv-x="266" 
d="M103 423h112l-52 -423h-112zM17 541q3 26 24 42.5t43 15.5q21 -1 38 -19.5t14 -45.5t-23.5 -42.5t-41.5 -14.5q-23 1 -40 19.5t-14 44.5v0zM209 541q3 26 23.5 42.5t42.5 15.5t38.5 -20t13.5 -45q-3 -27 -23.5 -42.5t-41.5 -14.5q-23 1 -39.5 19t-13.5 45v0z" />
    <glyph glyph-name="eth" unicode="&#xf0;" horiz-adv-x="556" 
d="M258 -9q-21 0 -49.5 5.5t-58.5 20.5t-54.5 42t-39 68.5t-12.5 100.5q2 39 16.5 77t42.5 69.5t68 50t93 18.5q32 0 64.5 -13t59 -39t41 -65.5t11.5 -93.5l-38 14q8 78 -2 142t-36 118.5t-65.5 104t-90.5 97.5l91 69q57 -49 99 -106.5t70 -119t41.5 -124.5t12.5 -122
q0 -56 -15 -112t-47 -102t-82 -73.5t-120 -26.5zM268 82q30 0 53.5 11.5t39.5 30.5t25.5 42.5t11.5 46.5q4 43 -8.5 69.5t-32.5 41t-41 20t-34 5.5q-35 1 -59 -13.5t-40 -36.5t-23.5 -46.5t-7.5 -46.5q0 -47 19.5 -74t47 -38.5t49.5 -11.5zM505 660l-271 -141l-28 77
l272 140z" />
    <glyph glyph-name="ntilde" unicode="&#xf1;" horiz-adv-x="570" 
d="M204 423l1 -91l-6 14q27 43 73.5 69t107.5 26t96 -35t29 -92l-38 -314h-112l33 274q3 32 -12.5 51.5t-52.5 19.5q-34 0 -63.5 -20.5t-48 -56t-24.5 -81.5l-23 -187h-112l51 423h101zM401 501q-39 2 -62 20.5t-42 37.5q-12 13 -23.5 23t-27.5 11q-14 1 -25.5 -9.5
t-18 -28.5t-8.5 -42l-69 6q2 45 20 82t48 58.5t71 18.5q29 -1 49.5 -18.5t37.5 -36.5q15 -16 28 -28t28 -13q16 -1 25.5 10.5t14.5 31t7 42.5l69 -5q1 -49 -16 -86t-45.5 -56t-60.5 -18z" />
    <glyph glyph-name="ograve" unicode="&#xf2;" horiz-adv-x="557" 
d="M270 -11q-39 0 -79.5 13t-74 38.5t-54 65t-20.5 92.5q0 39 13 81.5t42 79t76.5 59t115.5 22.5q58 0 109.5 -24t84.5 -70.5t33 -113.5q0 -26 -7.5 -58.5t-24 -65t-45 -59.5t-70.5 -43.5t-99 -16.5zM273 82q48 0 76 23.5t40.5 57.5t12.5 64q0 35 -11.5 58.5t-30 37.5
t-39 20t-36.5 6q-46 0 -75 -23t-42 -57t-13 -66q0 -45 19 -71.5t46.5 -38t52.5 -11.5zM266 631l65 -134h-70l-119 134h124z" />
    <glyph glyph-name="oacute" unicode="&#xf3;" horiz-adv-x="557" 
d="M270 -11q-39 0 -79.5 13t-74 38.5t-54 65t-20.5 92.5q0 39 13 81.5t42 79t76.5 59t115.5 22.5q58 0 109.5 -24t84.5 -70.5t33 -113.5q0 -26 -7.5 -58.5t-24 -65t-45 -59.5t-70.5 -43.5t-99 -16.5zM273 82q48 0 76 23.5t40.5 57.5t12.5 64q0 35 -11.5 58.5t-30 37.5
t-39 20t-36.5 6q-46 0 -75 -23t-42 -57t-13 -66q0 -45 19 -71.5t46.5 -38t52.5 -11.5zM463 631l-139 -134h-69l84 134h124z" />
    <glyph glyph-name="ocircumflex" unicode="&#xf4;" horiz-adv-x="557" 
d="M270 -11q-39 0 -79.5 13t-74 38.5t-54 65t-20.5 92.5q0 39 13 81.5t42 79t76.5 59t115.5 22.5q58 0 109.5 -24t84.5 -70.5t33 -113.5q0 -26 -7.5 -58.5t-24 -65t-45 -59.5t-70.5 -43.5t-99 -16.5zM273 82q48 0 76 23.5t40.5 57.5t12.5 64q0 35 -11.5 58.5t-30 37.5
t-39 20t-36.5 6q-46 0 -75 -23t-42 -57t-13 -66q0 -45 19 -71.5t46.5 -38t52.5 -11.5zM372 497l-73 93l29 8l-98 -101h-101l192 183h1l151 -183h-101z" />
    <glyph glyph-name="otilde" unicode="&#xf5;" horiz-adv-x="557" 
d="M270 -11q-39 0 -79.5 13t-74 38.5t-54 65t-20.5 92.5q0 39 13 81.5t42 79t76.5 59t115.5 22.5q58 0 109.5 -24t84.5 -70.5t33 -113.5q0 -26 -7.5 -58.5t-24 -65t-45 -59.5t-70.5 -43.5t-99 -16.5zM273 82q48 0 76 23.5t40.5 57.5t12.5 64q0 35 -11.5 58.5t-30 37.5
t-39 20t-36.5 6q-46 0 -75 -23t-42 -57t-13 -66q0 -45 19 -71.5t46.5 -38t52.5 -11.5zM373 462q-39 2 -62 20.5t-42 37.5q-12 13 -23.5 23t-27.5 11q-14 1 -25.5 -9.5t-18 -28.5t-8.5 -42l-69 6q2 45 20 82t48 58.5t71 18.5q29 -1 49.5 -18.5t37.5 -36.5q15 -16 28 -28
t28 -13q16 -1 25.5 10.5t14.5 31t7 42.5l69 -5q1 -49 -16 -86t-45.5 -56t-60.5 -18z" />
    <glyph glyph-name="odieresis" unicode="&#xf6;" horiz-adv-x="557" 
d="M270 -11q-39 0 -79.5 13t-74 38.5t-54 65t-20.5 92.5q0 39 13 81.5t42 79t76.5 59t115.5 22.5q58 0 109.5 -24t84.5 -70.5t33 -113.5q0 -26 -7.5 -58.5t-24 -65t-45 -59.5t-70.5 -43.5t-99 -16.5zM273 82q48 0 76 23.5t40.5 57.5t12.5 64q0 35 -11.5 58.5t-30 37.5
t-39 20t-36.5 6q-46 0 -75 -23t-42 -57t-13 -66q0 -45 19 -71.5t46.5 -38t52.5 -11.5zM150 551q3 26 24 42.5t43 15.5q21 -1 38 -19.5t14 -45.5t-23.5 -42.5t-41.5 -14.5q-23 1 -40 19.5t-14 44.5v0zM342 551q3 26 23.5 42.5t42.5 15.5t38.5 -20t13.5 -45
q-3 -27 -23.5 -42.5t-41.5 -14.5q-23 1 -39.5 19t-13.5 45v0z" />
    <glyph glyph-name="divide" unicode="&#xf7;" horiz-adv-x="508" 
d="M208 102q0 30 22 49t46 19q19 0 35.5 -16t16.5 -39q0 -20 -10.5 -35t-25.5 -23.5t-30 -8.5q-22 0 -38 15t-16 39v0zM245 403q0 29 22 48.5t46 19.5q20 0 36 -16t16 -39q0 -30 -22 -48.5t-45 -18.5q-21 0 -37 15t-16 39v0zM107 306h365l-12 -98h-365z" />
    <glyph glyph-name="oslash" unicode="&#xf8;" horiz-adv-x="529" 
d="M526 413q-12 -13 -39 -40t-63.5 -63t-77.5 -77l-82 -82l-77 -77l-63 -63t-39 -40l-41 42q12 13 38.5 39.5l62.5 62.5t76.5 77t81.5 81.5t77 76.5t62.5 63t38.5 39zM270 -11q-39 0 -79.5 13t-74 38.5t-54 65t-20.5 92.5q0 39 13 81.5t42 79t76.5 59t115.5 22.5
q58 0 109.5 -24t84.5 -70.5t33 -113.5q0 -26 -7.5 -58.5t-24 -65t-45 -59.5t-70.5 -43.5t-99 -16.5zM273 82q48 0 76 23.5t40.5 57.5t12.5 64q0 35 -11.5 58.5t-30 37.5t-39 20t-36.5 6q-46 0 -75 -23t-42 -57t-13 -66q0 -45 19 -71.5t46.5 -38t52.5 -11.5z" />
    <glyph glyph-name="ugrave" unicode="&#xf9;" horiz-adv-x="561" 
d="M185 -18q-58 0 -92 35t-28 91l38 315h112l-34 -275q-2 -31 12 -50.5t48 -19.5t62.5 20.5t47.5 56.5t24 81l23 187h112l-52 -423h-101l2 94l4 -15q-17 -27 -44 -49.5t-61 -35t-73 -12.5zM290 670l65 -134h-70l-119 134h124z" />
    <glyph glyph-name="uacute" unicode="&#xfa;" horiz-adv-x="561" 
d="M185 -18q-58 0 -92 35t-28 91l38 315h112l-34 -275q-2 -31 12 -50.5t48 -19.5t62.5 20.5t47.5 56.5t24 81l23 187h112l-52 -423h-101l2 94l4 -15q-17 -27 -44 -49.5t-61 -35t-73 -12.5zM487 626l-139 -134h-69l84 134h124z" />
    <glyph glyph-name="ucircumflex" unicode="&#xfb;" horiz-adv-x="561" 
d="M185 -18q-58 0 -92 35t-28 91l38 315h112l-34 -275q-2 -31 12 -50.5t48 -19.5t62.5 20.5t47.5 56.5t24 81l23 187h112l-52 -423h-101l2 94l4 -15q-17 -27 -44 -49.5t-61 -35t-73 -12.5zM395 536l-73 93l29 8l-98 -101h-101l192 183h1l151 -183h-101z" />
    <glyph glyph-name="udieresis" unicode="&#xfc;" horiz-adv-x="561" 
d="M185 -18q-58 0 -92 35t-28 91l38 315h112l-34 -275q-2 -31 12 -50.5t48 -19.5t62.5 20.5t47.5 56.5t24 81l23 187h112l-52 -423h-101l2 94l4 -15q-17 -27 -44 -49.5t-61 -35t-73 -12.5zM173 590q3 26 24 42.5t43 15.5q21 -1 38 -19.5t14 -45.5t-23.5 -42.5t-41.5 -14.5
q-23 1 -40 19.5t-14 44.5v0zM365 590q3 26 23.5 42.5t42.5 15.5t38.5 -20t13.5 -45q-3 -27 -23.5 -42.5t-41.5 -14.5q-23 1 -39.5 19t-13.5 45v0z" />
    <glyph glyph-name="yacute" unicode="&#xfd;" horiz-adv-x="546" 
d="M73 -203l357 626h103l-350 -626h-110zM207 -3l-153 426h126l120 -369zM464 621l-139 -134h-69l84 134h124z" />
    <glyph glyph-name="thorn" unicode="&#xfe;" horiz-adv-x="574" 
d="M241 780l-53 -435l-1 23q12 15 34 30t52.5 25.5t66.5 10.5q59 0 102.5 -23t67 -66.5t23.5 -103.5q0 -82 -33.5 -138.5t-90.5 -85t-128 -28.5q-50 0 -85.5 19t-47.5 41l4 6l-32 -258h-94l121 983h94zM430 230q0 32 -13 57.5t-37.5 40.5t-59.5 15q-42 0 -76 -19.5t-54 -52
t-20 -73.5q0 -32 14.5 -59t41.5 -42.5t62 -15.5q43 0 75 18.5t49.5 52t17.5 78.5z" />
    <glyph glyph-name="ydieresis" unicode="&#xff;" horiz-adv-x="481" 
d="M73 -203l357 626h103l-350 -626h-110zM207 -3l-153 426h126l120 -369zM142 541q3 26 24 42.5t43 15.5q21 -1 38 -19.5t14 -45.5t-23.5 -42.5t-41.5 -14.5q-23 1 -40 19.5t-14 44.5v0zM334 541q3 26 23.5 42.5t42.5 15.5t38.5 -20t13.5 -45q-3 -27 -23.5 -42.5
t-41.5 -14.5q-23 1 -39.5 19t-13.5 45v0z" />
    <glyph glyph-name="Amacron" unicode="&#x100;" horiz-adv-x="699" 
d="M109 0h-114l415 758h7l229 -758h-134l-157 574l91 56zM230 271h250l27 -100h-324zM310 863h234l-7 -63h-234z" />
    <glyph glyph-name="amacron" unicode="&#x101;" horiz-adv-x="601" 
d="M221 -9q-45 0 -86.5 24.5t-67 71t-25.5 110.5q0 45 16 88t47 78.5t75 57t99 21.5q44 0 74 -11.5t49 -30t31 -41.5l-9 -19l22 83h103l-51 -423h-112l12 101l7 -27q-4 -5 -18 -18.5t-37 -28.5t-55.5 -25.5t-73.5 -10.5zM283 81q26 0 49.5 10.5t42.5 30t31 46.5l11 92
q-5 27 -21 47.5t-41 31.5t-56 11q-39 0 -65.5 -13.5t-43.5 -35t-24.5 -45.5t-7.5 -46q0 -38 15.5 -67t44 -45.5t65.5 -16.5zM234 571h234l-7 -63h-234z" />
    <glyph glyph-name="Abreve" unicode="&#x102;" horiz-adv-x="699" 
d="M109 0h-114l415 758h7l229 -758h-134l-157 574l91 56zM230 271h250l27 -100h-324zM413 786q-29 1 -53.5 13t-43 34.5t-28.5 57t-11 83.5h75q1 -38 10 -62.5t24.5 -36.5t36.5 -14q25 0 42.5 13t29.5 39t20 61h75q-12 -67 -37 -109.5t-60 -61.5t-80 -17z" />
    <glyph glyph-name="abreve" unicode="&#x103;" horiz-adv-x="601" 
d="M221 -9q-45 0 -86.5 24.5t-67 71t-25.5 110.5q0 45 16 88t47 78.5t75 57t99 21.5q44 0 74 -11.5t49 -30t31 -41.5l-9 -19l22 83h103l-51 -423h-112l12 101l7 -27q-4 -5 -18 -18.5t-37 -28.5t-55.5 -25.5t-73.5 -10.5zM283 81q26 0 49.5 10.5t42.5 30t31 46.5l11 92
q-5 27 -21 47.5t-41 31.5t-56 11q-39 0 -65.5 -13.5t-43.5 -35t-24.5 -45.5t-7.5 -46q0 -38 15.5 -67t44 -45.5t65.5 -16.5zM337 494q-29 1 -53.5 13t-43 34.5t-28.5 57t-11 83.5h75q1 -38 10 -62.5t24.5 -36.5t36.5 -14q25 0 42.5 13t29.5 39t20 61h75q-12 -67 -37 -109.5
t-60 -61.5t-80 -17z" />
    <glyph glyph-name="Aogonek" unicode="&#x104;" horiz-adv-x="699" 
d="M109 0h-114l415 758h7l229 -758h-134l-157 574l91 56zM230 271h250l27 -100h-324zM540 -217q-49 3 -82.5 33t-33.5 78q0 20 9.5 44t31.5 45.5t58 34.5l123 -18q-56 -20 -90.5 -40.5t-37.5 -49.5q-3 -25 10.5 -36t31.5 -12q20 -1 38.5 10.5t35.5 33.5l35 -59
q-23 -29 -59.5 -47t-69.5 -17z" />
    <glyph glyph-name="aogonek" unicode="&#x105;" horiz-adv-x="601" 
d="M221 -9q-45 0 -86.5 24.5t-67 71t-25.5 110.5q0 45 16 88t47 78.5t75 57t99 21.5q44 0 74 -11.5t49 -30t31 -41.5l-9 -19l22 83h103l-51 -423h-112l12 101l7 -27q-4 -5 -18 -18.5t-37 -28.5t-55.5 -25.5t-73.5 -10.5zM283 81q26 0 49.5 10.5t42.5 30t31 46.5l11 92
q-5 27 -21 47.5t-41 31.5t-56 11q-39 0 -65.5 -13.5t-43.5 -35t-24.5 -45.5t-7.5 -46q0 -38 15.5 -67t44 -45.5t65.5 -16.5zM422 -219q-49 3 -82.5 33t-33.5 78q0 20 9.5 44t31.5 45.5t58 34.5l123 -18q-56 -20 -90.5 -40.5t-37.5 -49.5q-3 -25 10.5 -36t31.5 -12
q20 -1 38.5 10.5t35.5 33.5l35 -59q-23 -29 -59.5 -47t-69.5 -17z" />
    <glyph glyph-name="Cacute" unicode="&#x106;" horiz-adv-x="699" 
d="M622 40q-15 -9 -45 -21.5t-69.5 -22t-85.5 -9.5q-60 0 -121.5 19t-113 59t-82.5 105t-31 156q0 59 13.5 117.5t42.5 110.5t74 92t107.5 63t142.5 23q77 0 136 -23.5t96 -50.5l-60 -106q-25 22 -66.5 43t-94.5 25q-65 2 -115 -19.5t-84.5 -61t-52.5 -92t-18 -112.5
q0 -52 16.5 -95.5t47 -74.5t73.5 -48t95 -17q40 0 70 8.5t52 19.5t37 19zM625 920l-139 -134h-69l84 134h124z" />
    <glyph glyph-name="cacute" unicode="&#x107;" horiz-adv-x="448" 
d="M407 28q-29 -18 -67.5 -29t-77.5 -11q-30 0 -67.5 10t-73 33t-58 62.5t-22.5 98.5q0 43 15.5 85.5t45 77.5t73.5 56t102 21q61 0 104 -18t71 -47l-64 -68q-15 15 -41.5 28t-62.5 13q-33 0 -63 -18.5t-48.5 -50t-18.5 -71.5q0 -34 16 -61t44.5 -43.5t67.5 -16.5
q22 0 41.5 6t35.5 17zM417 621l-139 -134h-69l84 134h124z" />
    <glyph glyph-name="Ccircumflex" unicode="&#x108;" horiz-adv-x="699" 
d="M622 40q-15 -9 -45 -21.5t-69.5 -22t-85.5 -9.5q-60 0 -121.5 19t-113 59t-82.5 105t-31 156q0 59 13.5 117.5t42.5 110.5t74 92t107.5 63t142.5 23q77 0 136 -23.5t96 -50.5l-60 -106q-25 22 -66.5 43t-94.5 25q-65 2 -115 -19.5t-84.5 -61t-52.5 -92t-18 -112.5
q0 -52 16.5 -95.5t47 -74.5t73.5 -48t95 -17q40 0 70 8.5t52 19.5t37 19zM534 786l-73 93l29 8l-98 -101h-101l192 183h1l151 -183h-101z" />
    <glyph glyph-name="ccircumflex" unicode="&#x109;" horiz-adv-x="470" 
d="M407 28q-29 -18 -67.5 -29t-77.5 -11q-30 0 -67.5 10t-73 33t-58 62.5t-22.5 98.5q0 43 15.5 85.5t45 77.5t73.5 56t102 21q61 0 104 -18t71 -47l-64 -68q-15 15 -41.5 28t-62.5 13q-33 0 -63 -18.5t-48.5 -50t-18.5 -71.5q0 -34 16 -61t44.5 -43.5t67.5 -16.5
q22 0 41.5 6t35.5 17zM348 497l-73 93l29 8l-98 -101h-101l192 183h1l151 -183h-101z" />
    <glyph glyph-name="Cdotaccent" unicode="&#x10a;" horiz-adv-x="699" 
d="M622 40q-15 -9 -45 -21.5t-69.5 -22t-85.5 -9.5q-60 0 -121.5 19t-113 59t-82.5 105t-31 156q0 59 13.5 117.5t42.5 110.5t74 92t107.5 63t142.5 23q77 0 136 -23.5t96 -50.5l-60 -106q-25 22 -66.5 43t-94.5 25q-65 2 -115 -19.5t-84.5 -61t-52.5 -92t-18 -112.5
q0 -52 16.5 -95.5t47 -74.5t73.5 -48t95 -17q40 0 70 8.5t52 19.5t37 19zM406 867q1 26 20 44.5t48 18.5q22 0 42 -13t20 -42q-1 -27 -20 -45.5t-48 -18.5q-21 0 -41.5 13.5t-20.5 42.5z" />
    <glyph glyph-name="cdotaccent" unicode="&#x10b;" horiz-adv-x="470" 
d="M407 28q-29 -18 -67.5 -29t-77.5 -11q-30 0 -67.5 10t-73 33t-58 62.5t-22.5 98.5q0 43 15.5 85.5t45 77.5t73.5 56t102 21q61 0 104 -18t71 -47l-64 -68q-15 15 -41.5 28t-62.5 13q-33 0 -63 -18.5t-48.5 -50t-18.5 -71.5q0 -34 16 -61t44.5 -43.5t67.5 -16.5
q22 0 41.5 6t35.5 17zM220 579q1 26 20 44.5t48 18.5q22 0 42 -13t20 -42q-1 -27 -20 -45.5t-48 -18.5q-21 0 -41.5 13.5t-20.5 42.5z" />
    <glyph glyph-name="Ccaron" unicode="&#x10c;" horiz-adv-x="699" 
d="M622 40q-15 -9 -45 -21.5t-69.5 -22t-85.5 -9.5q-60 0 -121.5 19t-113 59t-82.5 105t-31 156q0 59 13.5 117.5t42.5 110.5t74 92t107.5 63t142.5 23q77 0 136 -23.5t96 -50.5l-60 -106q-25 22 -66.5 43t-94.5 25q-65 2 -115 -19.5t-84.5 -61t-52.5 -92t-18 -112.5
q0 -52 16.5 -95.5t47 -74.5t73.5 -48t95 -17q40 0 70 8.5t52 19.5t37 19zM414 960l74 -93l-30 -8l98 101h102l-193 -183h-1l-151 183h101z" />
    <glyph glyph-name="ccaron" unicode="&#x10d;" horiz-adv-x="448" 
d="M407 28q-29 -18 -67.5 -29t-77.5 -11q-30 0 -67.5 10t-73 33t-58 62.5t-22.5 98.5q0 43 15.5 85.5t45 77.5t73.5 56t102 21q61 0 104 -18t71 -47l-64 -68q-15 15 -41.5 28t-62.5 13q-33 0 -63 -18.5t-48.5 -50t-18.5 -71.5q0 -34 16 -61t44.5 -43.5t67.5 -16.5
q22 0 41.5 6t35.5 17zM257 670l74 -93l-30 -8l98 101h102l-193 -183h-1l-151 183h101z" />
    <glyph glyph-name="Dcaron" unicode="&#x10e;" horiz-adv-x="758" 
d="M72 0l89 728h231q100 0 166.5 -31.5t104 -83.5t51 -117.5t6.5 -133.5q-7 -84 -40.5 -151.5t-87 -114.5t-120 -71.5t-139.5 -24.5h-261zM202 112h126q56 0 104 16.5t84.5 48.5t58.5 80.5t27 112.5q7 69 -10.5 116t-50.5 76t-74 42t-81 13h-123zM359 938l74 -93l-30 -8
l98 101h102l-193 -183h-1l-151 183h101z" />
    <glyph glyph-name="dcaron" unicode="&#x10f;" horiz-adv-x="663" 
d="M247 -10q-60 1 -107.5 29.5t-73.5 76.5t-24 104q1 46 18 89t50 78t79 55.5t105 19.5q56 -1 98 -24.5t63 -56.5l-21 -27l54 446h112l-96 -780h-112l11 93l8 -26q-35 -34 -75.5 -56t-88.5 -21zM281 85q29 -1 54 9.5t45.5 30t33.5 47.5l10 90q-4 27 -20.5 47.5t-41.5 32
t-57 12.5q-42 0 -75 -16.5t-52 -47.5t-21 -74q-1 -38 14 -67.5t43.5 -46t66.5 -17.5zM680 574q-11 6 -22.5 12.5t-23.5 12.5q24 20 37 50.5t11 65.5q14 2 30 4t31 3q3 -42 -14 -81t-49 -67v0z" />
    <glyph glyph-name="Dcroat" unicode="&#x110;" horiz-adv-x="758" 
d="M72 0l89 728h231q100 0 166.5 -31.5t104 -83.5t51 -117.5t6.5 -133.5q-7 -84 -40.5 -151.5t-87 -114.5t-120 -71.5t-139.5 -24.5h-261zM202 112h126q56 0 104 16.5t84.5 48.5t58.5 80.5t27 112.5q7 69 -10.5 116t-50.5 76t-74 42t-81 13h-123zM51 407h265l-15 -113h-265z
" />
    <glyph glyph-name="dcroat" unicode="&#x111;" horiz-adv-x="575" 
d="M334 685h302l-10 -81h-302zM247 -10q-60 1 -107.5 29.5t-73.5 76.5t-24 104q1 46 18 89t50 78t79 55.5t105 19.5q56 -1 98 -24.5t63 -56.5l-21 -27l54 446h112l-96 -780h-112l11 93l8 -26q-35 -34 -75.5 -56t-88.5 -21zM281 85q29 -1 54 9.5t45.5 30t33.5 47.5l10 90
q-4 27 -20.5 47.5t-41.5 32t-57 12.5q-42 0 -75 -16.5t-52 -47.5t-21 -74q-1 -38 14 -67.5t43.5 -46t66.5 -17.5z" />
    <glyph glyph-name="Emacron" unicode="&#x112;" horiz-adv-x="659" 
d="M161 728h483l-13 -108h-363l-24 -200h322l-14 -110h-322l-24 -199h377l-14 -111h-497zM290 845h234l-7 -63h-234z" />
    <glyph glyph-name="emacron" unicode="&#x113;" horiz-adv-x="535" 
d="M281 85q22 0 43.5 8t41.5 20l40 -87q-31 -17 -67 -26.5t-70 -9.5q-68 0 -119 24.5t-79.5 73t-28.5 118.5q0 40 15 81t45 75.5t77 56t110 21.5q37 0 72.5 -9.5t64.5 -32.5t50 -62.5t29 -100.5l-353 -94l-18 65l291 80l-39 -14q-10 37 -37 59t-64 22q-43 0 -72 -19t-44 -50
t-15 -65q0 -49 19 -78.5t48 -42.5t60 -13zM188 579h234l-7 -63h-234z" />
    <glyph glyph-name="Ebreve" unicode="&#x114;" horiz-adv-x="659" 
d="M161 728h483l-13 -108h-363l-24 -200h322l-14 -110h-322l-24 -199h377l-14 -111h-497zM394 768q-29 1 -53.5 13t-43 34.5t-28.5 57t-11 83.5h75q1 -38 10 -62.5t24.5 -36.5t36.5 -14q25 0 42.5 13t29.5 39t20 61h75q-12 -67 -37 -109.5t-60 -61.5t-80 -17z" />
    <glyph glyph-name="ebreve" unicode="&#x115;" horiz-adv-x="535" 
d="M281 85q22 0 43.5 8t41.5 20l40 -87q-31 -17 -67 -26.5t-70 -9.5q-68 0 -119 24.5t-79.5 73t-28.5 118.5q0 40 15 81t45 75.5t77 56t110 21.5q37 0 72.5 -9.5t64.5 -32.5t50 -62.5t29 -100.5l-353 -94l-18 65l291 80l-39 -14q-10 37 -37 59t-64 22q-43 0 -72 -19t-44 -50
t-15 -65q0 -49 19 -78.5t48 -42.5t60 -13zM292 502q-29 1 -53.5 13t-43 34.5t-28.5 57t-11 83.5h75q1 -38 10 -62.5t24.5 -36.5t36.5 -14q25 0 42.5 13t29.5 39t20 61h75q-12 -67 -37 -109.5t-60 -61.5t-80 -17z" />
    <glyph glyph-name="Edotaccent" unicode="&#x116;" horiz-adv-x="659" 
d="M161 728h483l-13 -108h-363l-24 -200h322l-14 -110h-322l-24 -199h377l-14 -111h-497zM347 869q1 26 20 44.5t48 18.5q22 0 42 -13t20 -42q-1 -27 -20 -45.5t-48 -18.5q-21 0 -41.5 13.5t-20.5 42.5z" />
    <glyph glyph-name="edotaccent" unicode="&#x117;" horiz-adv-x="535" 
d="M281 85q22 0 43.5 8t41.5 20l40 -87q-31 -17 -67 -26.5t-70 -9.5q-68 0 -119 24.5t-79.5 73t-28.5 118.5q0 40 15 81t45 75.5t77 56t110 21.5q37 0 72.5 -9.5t64.5 -32.5t50 -62.5t29 -100.5l-353 -94l-18 65l291 80l-39 -14q-10 37 -37 59t-64 22q-43 0 -72 -19t-44 -50
t-15 -65q0 -49 19 -78.5t48 -42.5t60 -13zM245 602q1 26 20 44.5t48 18.5q22 0 42 -13t20 -42q-1 -27 -20 -45.5t-48 -18.5q-21 0 -41.5 13.5t-20.5 42.5z" />
    <glyph glyph-name="Eogonek" unicode="&#x118;" horiz-adv-x="659" 
d="M161 728h483l-13 -108h-363l-24 -200h322l-14 -110h-322l-24 -199h377l-14 -111h-497zM462 -217q-49 3 -82.5 33t-33.5 78q0 20 9.5 44t31.5 45.5t58 34.5l123 -18q-56 -20 -90.5 -40.5t-37.5 -49.5q-3 -25 10.5 -36t31.5 -12q20 -1 38.5 10.5t35.5 33.5l35 -59
q-23 -29 -59.5 -47t-69.5 -17z" />
    <glyph glyph-name="eogonek" unicode="&#x119;" horiz-adv-x="529" 
d="M292 -199q-49 3 -82.5 33t-33.5 78q0 21 10 46t32.5 47t59.5 36l51 -22q-15 -8 -31 -15.5t-31 -13.5q-68 0 -119 24.5t-79.5 73t-28.5 118.5q0 40 15 81t45 75.5t76.5 56t110.5 21.5q37 0 72.5 -9.5t64.5 -32.5t50 -62.5t29 -100.5l-353 -94l-18 64l291 80l-39 -13
q-10 37 -37 59t-63 22q-44 0 -73 -19t-44 -50t-15 -65q0 -49 19 -78.5t48.5 -42.5t59.5 -13q23 0 44 8t41 20l40 -87q-18 -6 -34.5 -12t-31.5 -13q-31 -16 -49 -34t-19 -39q-3 -23 10.5 -35.5t31.5 -13.5q20 0 38.5 11.5t35.5 33.5l35 -59q-23 -30 -59.5 -48t-69.5 -16z" />
    <glyph glyph-name="Ecaron" unicode="&#x11a;" horiz-adv-x="659" 
d="M161 728h483l-13 -108h-363l-24 -200h322l-14 -110h-322l-24 -199h377l-14 -111h-497zM355 962l74 -93l-30 -8l98 101h102l-193 -183h-1l-151 183h101z" />
    <glyph glyph-name="ecaron" unicode="&#x11b;" horiz-adv-x="495" 
d="M281 85q22 0 43.5 8t41.5 20l40 -87q-31 -17 -67 -26.5t-70 -9.5q-68 0 -119 24.5t-79.5 73t-28.5 118.5q0 40 15 81t45 75.5t77 56t110 21.5q37 0 72.5 -9.5t64.5 -32.5t50 -62.5t29 -100.5l-353 -94l-18 65l291 80l-39 -14q-10 37 -37 59t-64 22q-43 0 -72 -19t-44 -50
t-15 -65q0 -49 19 -78.5t48 -42.5t60 -13zM247 670l74 -93l-30 -8l98 101h102l-193 -183h-1l-151 183h101z" />
    <glyph glyph-name="Gcircumflex" unicode="&#x11c;" horiz-adv-x="764" 
d="M664 50q-20 -16 -59.5 -30t-85.5 -22.5t-88 -8.5q-29 0 -66.5 7.5t-78 23t-78.5 41t-69 63t-49 88.5t-17 117q1 52 15.5 108t44.5 109t76.5 94.5t111.5 66.5t150 24q61 -1 124 -17.5t114 -49.5l-52 -105q-38 26 -89.5 41t-98.5 14q-63 0 -109 -18t-77.5 -48t-50.5 -66.5
t-28 -75.5t-10 -74q0 -51 17 -88.5t45 -64t61.5 -42.5t67.5 -24t61 -9q29 -1 58 3.5t51 14.5l15 130h-137l14 111h255zM554 795l-73 93l29 8l-98 -101h-101l192 183h1l151 -183h-101z" />
    <glyph glyph-name="gcircumflex" unicode="&#x11d;" horiz-adv-x="615" 
d="M258 -211q-56 0 -95 12t-68 32t-54 43l76 76q19 -20 40.5 -34.5t49 -22.5t61.5 -8q36 0 64 13.5t46 38t21 58.5l13 106l6 -20q-20 -40 -63.5 -66.5t-105.5 -26.5q-58 0 -105 26t-74.5 74.5t-27.5 117.5q0 35 14.5 75.5t44.5 76.5t76 59t109 23q60 0 102.5 -21t59.5 -53
l-11 -19l24 74h103l-56 -445q-7 -59 -41 -101.5t-88 -65t-121 -22.5zM306 350q-41 0 -69.5 -14t-46 -36t-25.5 -46.5t-8 -45.5q0 -39 16 -67.5t45.5 -44t69.5 -15.5q27 0 52.5 11t46 30t33.5 46l11 92q-5 27 -22.5 47.5t-43.5 31.5t-59 11zM411 536l-73 93l29 8l-98 -101
h-101l192 183h1l151 -183h-101z" />
    <glyph glyph-name="Gbreve" unicode="&#x11e;" horiz-adv-x="764" 
d="M664 50q-20 -16 -59.5 -30t-85.5 -22.5t-88 -8.5q-29 0 -66.5 7.5t-78 23t-78.5 41t-69 63t-49 88.5t-17 117q1 52 15.5 108t44.5 109t76.5 94.5t111.5 66.5t150 24q61 -1 124 -17.5t114 -49.5l-52 -105q-38 26 -89.5 41t-98.5 14q-63 0 -109 -18t-77.5 -48t-50.5 -66.5
t-28 -75.5t-10 -74q0 -51 17 -88.5t45 -64t61.5 -42.5t67.5 -24t61 -9q29 -1 58 3.5t51 14.5l15 130h-137l14 111h255zM474 776q-29 1 -53.5 13t-43 34.5t-28.5 57t-11 83.5h75q1 -38 10 -62.5t24.5 -36.5t36.5 -14q25 0 42.5 13t29.5 39t20 61h75q-12 -67 -37 -109.5
t-60 -61.5t-80 -17z" />
    <glyph glyph-name="gbreve" unicode="&#x11f;" horiz-adv-x="615" 
d="M258 -211q-56 0 -95 12t-68 32t-54 43l76 76q19 -20 40.5 -34.5t49 -22.5t61.5 -8q36 0 64 13.5t46 38t21 58.5l13 106l6 -20q-20 -40 -63.5 -66.5t-105.5 -26.5q-58 0 -105 26t-74.5 74.5t-27.5 117.5q0 35 14.5 75.5t44.5 76.5t76 59t109 23q60 0 102.5 -21t59.5 -53
l-11 -19l24 74h103l-56 -445q-7 -59 -41 -101.5t-88 -65t-121 -22.5zM306 350q-41 0 -69.5 -14t-46 -36t-25.5 -46.5t-8 -45.5q0 -39 16 -67.5t45.5 -44t69.5 -15.5q27 0 52.5 11t46 30t33.5 46l11 92q-5 27 -22.5 47.5t-43.5 31.5t-59 11zM330 517q-29 1 -53.5 13t-43 34.5
t-28.5 57t-11 83.5h75q1 -38 10 -62.5t24.5 -36.5t36.5 -14q25 0 42.5 13t29.5 39t20 61h75q-12 -67 -37 -109.5t-60 -61.5t-80 -17z" />
    <glyph glyph-name="Gdotaccent" unicode="&#x120;" horiz-adv-x="764" 
d="M664 50q-20 -16 -59.5 -30t-85.5 -22.5t-88 -8.5q-29 0 -66.5 7.5t-78 23t-78.5 41t-69 63t-49 88.5t-17 117q1 52 15.5 108t44.5 109t76.5 94.5t111.5 66.5t150 24q61 -1 124 -17.5t114 -49.5l-52 -105q-38 26 -89.5 41t-98.5 14q-63 0 -109 -18t-77.5 -48t-50.5 -66.5
t-28 -75.5t-10 -74q0 -51 17 -88.5t45 -64t61.5 -42.5t67.5 -24t61 -9q29 -1 58 3.5t51 14.5l15 130h-137l14 111h255zM426 877q1 26 20 44.5t48 18.5q22 0 42 -13t20 -42q-1 -27 -20 -45.5t-48 -18.5q-21 0 -41.5 13.5t-20.5 42.5z" />
    <glyph glyph-name="gdotaccent" unicode="&#x121;" horiz-adv-x="615" 
d="M258 -211q-56 0 -95 12t-68 32t-54 43l76 76q19 -20 40.5 -34.5t49 -22.5t61.5 -8q36 0 64 13.5t46 38t21 58.5l13 106l6 -20q-20 -40 -63.5 -66.5t-105.5 -26.5q-58 0 -105 26t-74.5 74.5t-27.5 117.5q0 35 14.5 75.5t44.5 76.5t76 59t109 23q60 0 102.5 -21t59.5 -53
l-11 -19l24 74h103l-56 -445q-7 -59 -41 -101.5t-88 -65t-121 -22.5zM306 350q-41 0 -69.5 -14t-46 -36t-25.5 -46.5t-8 -45.5q0 -39 16 -67.5t45.5 -44t69.5 -15.5q27 0 52.5 11t46 30t33.5 46l11 92q-5 27 -22.5 47.5t-43.5 31.5t-59 11zM283 618q1 26 20 44.5t48 18.5
q22 0 42 -13t20 -42q-1 -27 -20 -45.5t-48 -18.5q-21 0 -41.5 13.5t-20.5 42.5z" />
    <glyph glyph-name="uni0122" unicode="&#x122;" horiz-adv-x="764" 
d="M664 50q-20 -16 -59.5 -30t-85.5 -22.5t-88 -8.5q-29 0 -66.5 7.5t-78 23t-78.5 41t-69 63t-49 88.5t-17 117q1 52 15.5 108t44.5 109t76.5 94.5t111.5 66.5t150 24q61 -1 124 -17.5t114 -49.5l-52 -105q-38 26 -89.5 41t-98.5 14q-63 0 -109 -18t-77.5 -48t-50.5 -66.5
t-28 -75.5t-10 -74q0 -51 17 -88.5t45 -64t61.5 -42.5t67.5 -24t61 -9q29 -1 58 3.5t51 14.5l15 130h-137l14 111h255zM356 -215l-57 39q24 20 34.5 58.5t5.5 75.5l98 -1q5 -28 -3.5 -61t-28 -63t-49.5 -48z" />
    <glyph glyph-name="uni0123" unicode="&#x123;" horiz-adv-x="615" 
d="M365 688l57 -39q-23 -20 -34 -58.5t-6 -75.5l-98 1q-4 28 4.5 61.5t28 63.5t48.5 47zM258 -211q-56 0 -95 12t-68 32t-54 43l76 76q19 -20 40.5 -34.5t49 -22.5t61.5 -8q36 0 64 13.5t46 38t21 58.5l13 106l6 -20q-20 -40 -63.5 -66.5t-105.5 -26.5q-58 0 -105 26
t-74.5 74.5t-27.5 117.5q0 35 14.5 75.5t44.5 76.5t76 59t109 23q60 0 102.5 -21t59.5 -53l-11 -19l24 74h103l-56 -445q-7 -59 -41 -101.5t-88 -65t-121 -22.5zM306 350q-41 0 -69.5 -14t-46 -36t-25.5 -46.5t-8 -45.5q0 -39 16 -67.5t45.5 -44t69.5 -15.5q27 0 52.5 11
t46 30t33.5 46l11 92q-5 27 -22.5 47.5t-43.5 31.5t-59 11z" />
    <glyph glyph-name="Hcircumflex" unicode="&#x124;" horiz-adv-x="793" 
d="M752 728l-89 -728h-120l39 310h-352l-38 -310h-120l89 728h120l-37 -305h351l37 305h120zM529 795l-73 93l29 8l-98 -101h-101l192 183h1l151 -183h-101z" />
    <glyph glyph-name="hcircumflex" unicode="&#x125;" horiz-adv-x="570" 
d="M200 348q28 41 74.5 67t106.5 26q61 0 95 -35t29 -92l-38 -314h-112l33 275q2 31 -12 50.5t-50 19.5q-35 0 -65 -20.5t-49 -56t-25 -81.5l-23 -187h-112l95 780h110l-55 -455zM274 779l-73 93l29 8l-98 -101h-101l192 183h1l151 -183h-101z" />
    <glyph glyph-name="Hbar" unicode="&#x126;" horiz-adv-x="950" 
d="M144 584h747l-7 -63h-748zM821 728l-89 -728h-120l39 310h-352l-38 -310h-120l89 728h120l-37 -305h351l37 305h120z" />
    <glyph glyph-name="hbar" unicode="&#x127;" horiz-adv-x="570" 
d="M200 348q28 41 74.5 67t106.5 26q61 0 95 -35t29 -92l-38 -314h-112l33 275q2 31 -12 50.5t-50 19.5q-35 0 -65 -20.5t-49 -56t-25 -81.5l-23 -187h-112l95 780h110l-55 -455zM49 671h265l-15 -113h-265z" />
    <glyph glyph-name="Itilde" unicode="&#x128;" horiz-adv-x="322" 
d="M161 728h120l-89 -728h-120zM302 752q-39 2 -62 20.5t-42 37.5q-12 13 -23.5 23t-27.5 11q-14 1 -25.5 -9.5t-18 -28.5t-8.5 -42l-69 6q2 45 20 82t48 58.5t71 18.5q29 -1 49.5 -18.5t37.5 -36.5q15 -16 28 -28t28 -13q16 -1 25.5 10.5t14.5 31t7 42.5l69 -5
q1 -49 -16 -86t-45.5 -56t-60.5 -18z" />
    <glyph glyph-name="itilde" unicode="&#x129;" horiz-adv-x="266" 
d="M103 423h112l-52 -423h-112zM240 452q-39 2 -62 20.5t-42 37.5q-12 13 -23.5 23t-27.5 11q-14 1 -25.5 -9.5t-18 -28.5t-8.5 -42l-69 6q2 45 20 82t48 58.5t71 18.5q29 -1 49.5 -18.5t37.5 -36.5q15 -16 28 -28t28 -13q16 -1 25.5 10.5t14.5 31t7 42.5l69 -5
q1 -49 -16 -86t-45.5 -56t-60.5 -18z" />
    <glyph glyph-name="Imacron" unicode="&#x12a;" horiz-adv-x="322" 
d="M161 728h120l-89 -728h-120zM117 845h234l-7 -63h-234z" />
    <glyph glyph-name="imacron" unicode="&#x12b;" horiz-adv-x="266" 
d="M103 423h112l-52 -423h-112zM55 545h234l-7 -63h-234z" />
    <glyph glyph-name="Ibreve" unicode="&#x12c;" horiz-adv-x="322" 
d="M161 728h120l-89 -728h-120zM220 768q-29 1 -53.5 13t-43 34.5t-28.5 57t-11 83.5h75q1 -38 10 -62.5t24.5 -36.5t36.5 -14q25 0 42.5 13t29.5 39t20 61h75q-12 -67 -37 -109.5t-60 -61.5t-80 -17z" />
    <glyph glyph-name="ibreve" unicode="&#x12d;" horiz-adv-x="266" 
d="M103 423h112l-52 -423h-112zM158 468q-29 1 -53.5 13t-43 34.5t-28.5 57t-11 83.5h75q1 -38 10 -62.5t24.5 -36.5t36.5 -14q25 0 42.5 13t29.5 39t20 61h75q-12 -67 -37 -109.5t-60 -61.5t-80 -17z" />
    <glyph glyph-name="Iogonek" unicode="&#x12e;" horiz-adv-x="313" 
d="M92 -221q-49 3 -82.5 33t-33.5 77q0 22 10.5 47.5t33.5 49.5t59 37l-7 -23l89 728h120l-89 -728q-53 -20 -86 -41.5t-36 -52.5q-3 -26 10.5 -37t31.5 -12q20 -1 38.5 10.5t35.5 33.5l35 -58q-23 -30 -59.5 -48t-69.5 -16z" />
    <glyph glyph-name="iogonek" unicode="&#x12f;" horiz-adv-x="253" 
d="M79 -221q-50 3 -83.5 33t-33.5 77q0 20 9.5 44t31.5 46t58 34l91 -11l-102 -2l52 423h112l-52 -423q-47 -20 -75.5 -42.5t-30.5 -51.5q-3 -26 10.5 -37t31.5 -12q20 -1 38.5 10.5t35.5 33.5l35 -58q-23 -30 -59.5 -48t-68.5 -16zM106 547q1 27 20 45.5t48 17.5
q22 0 42 -13t20 -42q-1 -26 -20 -45t-48 -19q-21 1 -41.5 14t-20.5 42z" />
    <glyph glyph-name="Idotaccent" unicode="&#x130;" horiz-adv-x="322" 
d="M161 728h120l-89 -728h-120zM173 869q1 26 20 44.5t48 18.5q22 0 42 -13t20 -42q-1 -27 -20 -45.5t-48 -18.5q-21 0 -41.5 13.5t-20.5 42.5z" />
    <glyph glyph-name="dotlessi" unicode="&#x131;" horiz-adv-x="266" 
d="M103 423h112l-52 -423h-112z" />
    <glyph glyph-name="IJ" unicode="&#x132;" horiz-adv-x="704" 
d="M161 728h120l-89 -728h-120zM592 141q-11 -91 -54 -155.5t-109 -99t-147 -37.5v0l14 113q46 3 84 22.5t63.5 58.5t32.5 101l71 584h117z" />
    <glyph glyph-name="ij" unicode="&#x133;" horiz-adv-x="545" 
d="M103 423h112l-52 -423h-112zM111 569q1 26 20 44.5t48 18.5q22 0 42 -13t20 -42q-1 -27 -20 -45.5t-48 -18.5q-21 0 -41.5 13.5t-20.5 42.5zM244 -138q35 23 57 56.5t28 81.5l53 423h112l-53 -423q-9 -72 -43 -124.5t-99 -82.5zM386 569q1 26 20 44.5t48 18.5
q22 0 42 -13t20 -42q-1 -27 -20 -45.5t-48 -18.5q-21 0 -41.5 13.5t-20.5 42.5z" />
    <glyph glyph-name="Jcircumflex" unicode="&#x134;" horiz-adv-x="382" 
d="M270 141q-11 -91 -54 -155.5t-109 -99t-147 -37.5v0l14 113q46 3 84 22.5t63.5 58.5t32.5 101l71 584h117zM358 792l-73 93l29 8l-98 -101h-101l192 183h1l151 -183h-101z" />
    <glyph glyph-name="jcircumflex" unicode="&#x135;" horiz-adv-x="279" 
d="M-22 -138q35 23 57 56.5t28 81.5l53 423h112l-53 -423q-9 -72 -43 -124.5t-99 -82.5zM248 487l-73 93l29 8l-98 -101h-101l192 183h1l151 -183h-101z" />
    <glyph glyph-name="uni0136" unicode="&#x136;" horiz-adv-x="687" 
d="M244 449l-8 -37l20 23l309 293h151l-340 -318l261 -410h-147l-209 336l-56 -50l-35 -286h-118l89 728h118zM282 -215l-57 39q24 20 34.5 58.5t5.5 75.5l98 -1q5 -28 -3.5 -61t-28 -63t-49.5 -48z" />
    <glyph glyph-name="uni0137" unicode="&#x137;" horiz-adv-x="485" 
d="M52 0l95 780h112l-95 -780h-112zM303 284l159 -284h-131l-110 220zM145 127v107l281 199l63 -60zM196 -315l-57 39q24 20 34.5 58.5t5.5 75.5l98 -1q5 -28 -3.5 -61t-28 -63t-49.5 -48z" />
    <glyph glyph-name="kgreenlandic" unicode="&#x138;" horiz-adv-x="529" 
d="M170 122l-5 99l213 202h136zM163 0h-112l52 423h112zM295 244l166 -244h-130l-127 195z" />
    <glyph glyph-name="Lacute" unicode="&#x139;" horiz-adv-x="620" 
d="M161 728h116l-75 -616h359l-14 -112h-475zM391 942l-139 -134h-69l84 134h124z" />
    <glyph glyph-name="lacute" unicode="&#x13a;" horiz-adv-x="267" 
d="M147 780h112l-95 -780h-112zM368 968l-139 -134h-69l84 134h124z" />
    <glyph glyph-name="uni013B" unicode="&#x13b;" horiz-adv-x="620" 
d="M161 728h116l-75 -616h359l-14 -112h-475zM263 -215l-57 39q24 20 34.5 58.5t5.5 75.5l98 -1q5 -28 -3.5 -61t-28 -63t-49.5 -48z" />
    <glyph glyph-name="uni013C" unicode="&#x13c;" horiz-adv-x="267" 
d="M147 780h112l-95 -780h-112zM75 -215l-57 39q24 20 34.5 58.5t5.5 75.5l98 -1q5 -28 -3.5 -61t-28 -63t-49.5 -48z" />
    <glyph glyph-name="Lcaron" unicode="&#x13d;" horiz-adv-x="620" 
d="M161 728h116l-75 -616h359l-14 -112h-475zM566 556l-57 39q24 20 34.5 58.5t5.5 75.5l98 -1q5 -28 -3.5 -61t-28 -63t-49.5 -48z" />
    <glyph glyph-name="lcaron" unicode="&#x13e;" horiz-adv-x="267" 
d="M147 780h112l-95 -780h-112zM357 606l-57 39q24 20 34.5 58.5t5.5 75.5l98 -1q5 -28 -3.5 -61t-28 -63t-49.5 -48z" />
    <glyph glyph-name="Ldot" unicode="&#x13f;" horiz-adv-x="600" 
d="M161 728h116l-75 -616h359l-14 -112h-475zM546 365q0 29 22.5 48.5t46.5 19.5q19 0 35 -16t16 -40q0 -19 -10 -34t-25.5 -23.5t-30.5 -8.5q-21 0 -37.5 15t-16.5 39v0z" />
    <glyph glyph-name="ldot" unicode="&#x140;" horiz-adv-x="548" 
d="M147 780h112l-95 -780h-112zM361 279q0 29 22.5 48.5t46.5 19.5q19 0 35 -16t16 -40q0 -19 -10 -34t-25.5 -23.5t-30.5 -8.5q-21 0 -37.5 15t-16.5 39v0z" />
    <glyph glyph-name="Lslash" unicode="&#x141;" horiz-adv-x="620" 
d="M474 458l-12 -97l-416 -124l12 97zM161 728h116l-75 -616h359l-14 -112h-475z" />
    <glyph glyph-name="lslash" unicode="&#x142;" horiz-adv-x="285" 
d="M300 399l-11 -97l-263 -65l11 97zM157 780h112l-95 -780h-112z" />
    <glyph glyph-name="Nacute" unicode="&#x143;" horiz-adv-x="844" 
d="M711 -26h-3l-492 543l32 -15l-60 -502h-116l92 753h5l483 -543l-25 9l60 509h116zM646 898l-139 -134h-69l84 134h124z" />
    <glyph glyph-name="nacute" unicode="&#x144;" horiz-adv-x="580" 
d="M204 423l1 -91l-6 14q27 43 73.5 69t107.5 26t96 -35t29 -92l-38 -314h-112l33 274q3 32 -12.5 51.5t-52.5 19.5q-34 0 -63.5 -20.5t-48 -56t-24.5 -81.5l-23 -187h-112l51 423h101zM468 621l-139 -134h-69l84 134h124z" />
    <glyph glyph-name="uni0145" unicode="&#x145;" horiz-adv-x="844" 
d="M711 -26h-3l-492 543l32 -15l-60 -502h-116l92 753h5l483 -543l-25 9l60 509h116zM369 -215l-57 39q24 20 34.5 58.5t5.5 75.5l98 -1q5 -28 -3.5 -61t-28 -63t-49.5 -48z" />
    <glyph glyph-name="uni0146" unicode="&#x146;" horiz-adv-x="570" 
d="M204 423l1 -91l-6 14q27 43 73.5 69t107.5 26t96 -35t29 -92l-38 -314h-112l33 274q3 32 -12.5 51.5t-52.5 19.5q-34 0 -63.5 -20.5t-48 -56t-24.5 -81.5l-23 -187h-112l51 423h101zM223 -215l-57 39q24 20 34.5 58.5t5.5 75.5l98 -1q5 -28 -3.5 -61t-28 -63t-49.5 -48z
" />
    <glyph glyph-name="Ncaron" unicode="&#x147;" horiz-adv-x="844" 
d="M711 -26h-3l-492 543l32 -15l-60 -502h-116l92 753h5l483 -543l-25 9l60 509h116zM434 938l74 -93l-30 -8l98 101h102l-193 -183h-1l-151 183h101z" />
    <glyph glyph-name="ncaron" unicode="&#x148;" horiz-adv-x="580" 
d="M204 423l1 -91l-6 14q27 43 73.5 69t107.5 26t96 -35t29 -92l-38 -314h-112l33 274q3 32 -12.5 51.5t-52.5 19.5q-34 0 -63.5 -20.5t-48 -56t-24.5 -81.5l-23 -187h-112l51 423h101zM289 670l74 -93l-30 -8l98 101h102l-193 -183h-1l-151 183h101z" />
    <glyph glyph-name="napostrophe" unicode="&#x149;" horiz-adv-x="600" 
d="M121 714q-8 -63 -17.5 -125.5t-17.5 -126.5h-97l31 252h101zM204 423l1 -91l-6 14q27 43 73.5 69t107.5 26t96 -35t29 -92l-38 -314h-112l33 274q3 32 -12.5 51.5t-52.5 19.5q-34 0 -63.5 -20.5t-48 -56t-24.5 -81.5l-23 -187h-112l51 423h101z" />
    <glyph glyph-name="Eng" unicode="&#x14a;" horiz-adv-x="804" 
d="M564 -204l-56 69q32 23 53 57.5t25 81.5l15 126l88 -153l-490 542l32 -17l-58 -502h-118l93 753h4l484 -545l-26 11l60 509h117l-90 -730q-9 -68 -41 -119.5t-92 -82.5z" />
    <glyph glyph-name="eng" unicode="&#x14b;" horiz-adv-x="570" 
d="M467 4q-8 -69 -41 -123t-92 -85l-56 69q32 23 51.5 57.5t25.5 81.5l33 270q3 32 -12.5 51.5t-52.5 19.5q-34 0 -63.5 -20.5t-48 -56t-24.5 -81.5l-23 -187h-112l51 423h101l2 -93l-3 16q27 43 72 69t105 26q61 0 96 -35t29 -92z" />
    <glyph glyph-name="Omacron" unicode="&#x14c;" horiz-adv-x="856" 
d="M423 -7q-64 0 -126.5 21t-112.5 64t-80 108t-30 152q0 66 24.5 136t74 129t124 95.5t173.5 36.5q65 0 127 -21t112.5 -64t80 -108t29.5 -153q0 -66 -24.5 -135.5t-74 -128.5t-123.5 -95.5t-174 -36.5zM425 105q72 0 124 26t85 67.5t49 90t16 94.5q0 49 -17.5 92t-49 76.5
t-74 52.5t-93.5 19q-72 0 -123.5 -25.5t-84.5 -67.5t-48 -90.5t-15 -94.5q0 -48 17 -91.5t47.5 -77t73 -52.5t93.5 -19zM369 845h234l-7 -63h-234z" />
    <glyph glyph-name="omacron" unicode="&#x14d;" horiz-adv-x="557" 
d="M270 -11q-39 0 -79.5 13t-74 38.5t-54 65t-20.5 92.5q0 39 13 81.5t42 79t76.5 59t115.5 22.5q58 0 109.5 -24t84.5 -70.5t33 -113.5q0 -26 -7.5 -58.5t-24 -65t-45 -59.5t-70.5 -43.5t-99 -16.5zM273 82q48 0 76 23.5t40.5 57.5t12.5 64q0 35 -11.5 58.5t-30 37.5
t-39 20t-36.5 6q-46 0 -75 -23t-42 -57t-13 -66q0 -45 19 -71.5t46.5 -38t52.5 -11.5zM188 555h234l-7 -63h-234z" />
    <glyph glyph-name="Obreve" unicode="&#x14e;" horiz-adv-x="856" 
d="M423 -7q-64 0 -126.5 21t-112.5 64t-80 108t-30 152q0 66 24.5 136t74 129t124 95.5t173.5 36.5q65 0 127 -21t112.5 -64t80 -108t29.5 -153q0 -66 -24.5 -135.5t-74 -128.5t-123.5 -95.5t-174 -36.5zM425 105q72 0 124 26t85 67.5t49 90t16 94.5q0 49 -17.5 92t-49 76.5
t-74 52.5t-93.5 19q-72 0 -123.5 -25.5t-84.5 -67.5t-48 -90.5t-15 -94.5q0 -48 17 -91.5t47.5 -77t73 -52.5t93.5 -19zM472 768q-29 1 -53.5 13t-43 34.5t-28.5 57t-11 83.5h75q1 -38 10 -62.5t24.5 -36.5t36.5 -14q25 0 42.5 13t29.5 39t20 61h75q-12 -67 -37 -109.5
t-60 -61.5t-80 -17z" />
    <glyph glyph-name="obreve" unicode="&#x14f;" horiz-adv-x="557" 
d="M270 -11q-39 0 -79.5 13t-74 38.5t-54 65t-20.5 92.5q0 39 13 81.5t42 79t76.5 59t115.5 22.5q58 0 109.5 -24t84.5 -70.5t33 -113.5q0 -26 -7.5 -58.5t-24 -65t-45 -59.5t-70.5 -43.5t-99 -16.5zM273 82q48 0 76 23.5t40.5 57.5t12.5 64q0 35 -11.5 58.5t-30 37.5
t-39 20t-36.5 6q-46 0 -75 -23t-42 -57t-13 -66q0 -45 19 -71.5t46.5 -38t52.5 -11.5zM291 478q-29 1 -53.5 13t-43 34.5t-28.5 57t-11 83.5h75q1 -38 10 -62.5t24.5 -36.5t36.5 -14q25 0 42.5 13t29.5 39t20 61h75q-12 -67 -37 -109.5t-60 -61.5t-80 -17z" />
    <glyph glyph-name="Ohungarumlaut" unicode="&#x150;" horiz-adv-x="856" 
d="M423 -7q-64 0 -126.5 21t-112.5 64t-80 108t-30 152q0 66 24.5 136t74 129t124 95.5t173.5 36.5q65 0 127 -21t112.5 -64t80 -108t29.5 -153q0 -66 -24.5 -135.5t-74 -128.5t-123.5 -95.5t-174 -36.5zM425 105q72 0 124 26t85 67.5t49 90t16 94.5q0 49 -17.5 92t-49 76.5
t-74 52.5t-93.5 19q-72 0 -123.5 -25.5t-84.5 -67.5t-48 -90.5t-15 -94.5q0 -48 17 -91.5t47.5 -77t73 -52.5t93.5 -19zM528 921q-35 -33 -70 -67t-70 -67h-69q26 33 53 67t55 67h101zM724 921q-34 -33 -69 -67t-70 -67h-70q27 33 54 67t55 67h100z" />
    <glyph glyph-name="ohungarumlaut" unicode="&#x151;" horiz-adv-x="557" 
d="M270 -11q-39 0 -79.5 13t-74 38.5t-54 65t-20.5 92.5q0 39 13 81.5t42 79t76.5 59t115.5 22.5q58 0 109.5 -24t84.5 -70.5t33 -113.5q0 -26 -7.5 -58.5t-24 -65t-45 -59.5t-70.5 -43.5t-99 -16.5zM273 82q48 0 76 23.5t40.5 57.5t12.5 64q0 35 -11.5 58.5t-30 37.5
t-39 20t-36.5 6q-46 0 -75 -23t-42 -57t-13 -66q0 -45 19 -71.5t46.5 -38t52.5 -11.5zM347 631q-35 -33 -70 -67t-70 -67h-69q26 33 53 67t55 67h101zM543 631q-34 -33 -69 -67t-70 -67h-70q27 33 54 67t55 67h100z" />
    <glyph glyph-name="OE" unicode="&#x152;" horiz-adv-x="1014" 
d="M563 614q-13 3 -26.5 5t-27.5 2q-61 0 -113 -21.5t-91 -60.5t-60 -90.5t-21 -112.5q0 -48 16.5 -90t47 -74t71.5 -49.5t89 -17.5q15 0 29 1.5t28 5.5l19 -108q-23 -6 -46 -9t-47 -3q-71 0 -130.5 25.5t-104 71t-69 106.5t-24.5 130q0 86 32.5 160t90 130.5t133.5 88.5
t164 32q24 0 47.5 -3.5t44.5 -9.5zM570 728h453l-13 -108h-333l-25 -200h292l-13 -110h-292l-24 -199h347l-14 -111h-467z" />
    <glyph glyph-name="oe" unicode="&#x153;" horiz-adv-x="814" 
d="M262 -12q-30 0 -67.5 10t-73 33t-58 62.5t-22.5 98.5q0 43 15.5 85.5t45 77.5t73.5 56t102 21q60 0 102 -17.5t70 -44.5l-65 -68q-15 13 -40 25.5t-60 12.5q-33 0 -63 -18.5t-48.5 -50t-18.5 -71.5q0 -34 16 -61t44.5 -43.5t67.5 -16.5q22 0 41.5 6t35.5 17l48 -74
q-29 -18 -67.5 -29t-77.5 -11zM559 85q23 0 44.5 8t41.5 20l40 -87q-31 -17 -67 -26.5t-70 -9.5q-68 0 -119 24.5t-79.5 73t-28.5 118.5q0 40 15 81t45 75.5t76.5 56t110.5 21.5q37 0 72.5 -9.5t64.5 -32.5t50 -62.5t29 -100.5l-353 -94l-18 65l291 80l-40 -14q-9 37 -36 59
t-64 22q-43 0 -72 -19t-44 -50t-15 -65q0 -49 19 -78.5t48 -42.5t59 -13z" />
    <glyph glyph-name="Racute" unicode="&#x154;" horiz-adv-x="671" 
d="M366 728q60 0 107.5 -15.5t79.5 -45.5t46 -73.5t7 -99.5q-6 -43 -24 -86t-52 -77.5t-84 -56t-121 -21.5h-106l-31 -253h-116l89 728h205zM337 365q52 0 83.5 20.5t47 50t17.5 54.5q3 18 -0.5 39.5t-15.5 41t-35.5 32.5t-61.5 13h-109l-30 -251h104zM454 296l151 -296
h-136l-154 293zM541 921l-139 -134h-69l84 134h124z" />
    <glyph glyph-name="racute" unicode="&#x155;" horiz-adv-x="393" 
d="M204 423l-6 -99q22 38 54 64.5t67 40t62 13.5l-19 -112q-47 4 -85.5 -17t-62 -56.5t-28.5 -74.5l-23 -182h-111l51 423h101zM396 626l-139 -134h-69l84 134h124z" />
    <glyph glyph-name="uni0156" unicode="&#x156;" horiz-adv-x="671" 
d="M366 728q60 0 107.5 -15.5t79.5 -45.5t46 -73.5t7 -99.5q-6 -43 -24 -86t-52 -77.5t-84 -56t-121 -21.5h-106l-31 -253h-116l89 728h205zM337 365q52 0 83.5 20.5t47 50t17.5 54.5q3 18 -0.5 39.5t-15.5 41t-35.5 32.5t-61.5 13h-109l-30 -251h104zM454 296l151 -296
h-136l-154 293zM288 -215l-57 39q24 20 34.5 58.5t5.5 75.5l98 -1q5 -28 -3.5 -61t-28 -63t-49.5 -48z" />
    <glyph glyph-name="uni0157" unicode="&#x157;" horiz-adv-x="393" 
d="M204 423l-6 -99q22 38 54 64.5t67 40t62 13.5l-19 -112q-47 4 -85.5 -17t-62 -56.5t-28.5 -74.5l-23 -182h-111l51 423h101zM129 -215l-57 39q24 20 34.5 58.5t5.5 75.5l98 -1q5 -28 -3.5 -61t-28 -63t-49.5 -48z" />
    <glyph glyph-name="Rcaron" unicode="&#x158;" horiz-adv-x="671" 
d="M366 728q60 0 107.5 -15.5t79.5 -45.5t46 -73.5t7 -99.5q-6 -43 -24 -86t-52 -77.5t-84 -56t-121 -21.5h-106l-31 -253h-116l89 728h205zM337 365q52 0 83.5 20.5t47 50t17.5 54.5q3 18 -0.5 39.5t-15.5 41t-35.5 32.5t-61.5 13h-109l-30 -251h104zM454 296l151 -296
h-136l-154 293zM329 962l74 -93l-30 -8l98 101h102l-193 -183h-1l-151 183h101z" />
    <glyph glyph-name="rcaron" unicode="&#x159;" horiz-adv-x="393" 
d="M204 423l-6 -99q22 38 54 64.5t67 40t62 13.5l-19 -112q-47 4 -85.5 -17t-62 -56.5t-28.5 -74.5l-23 -182h-111l51 423h101zM150 711l74 -93l-30 -8l98 101h102l-193 -183h-1l-151 183h101z" />
    <glyph glyph-name="Sacute" unicode="&#x15a;" horiz-adv-x="574" 
d="M522 567q-37 23 -80 40t-83 19q-31 1 -53.5 -5.5t-38 -18.5t-23.5 -28t-10 -34q-2 -29 16.5 -52t50.5 -41.5t67 -34.5q42 -18 80 -44.5t60 -68t15 -107.5q-4 -39 -23 -76t-52 -65.5t-80.5 -44t-109.5 -12.5q-45 2 -87.5 13.5t-80 31t-69.5 47.5l62 87q23 -20 52.5 -37
t62 -27.5t63.5 -12.5q36 0 66.5 11t51 34t23.5 57q3 29 -13 51t-42 39.5t-57 31.5q-32 15 -65 33t-60.5 42.5t-42 59.5t-9.5 82q7 61 39 104.5t84.5 66t117.5 21.5q52 -2 92.5 -13.5t72.5 -27.5t58 -36zM507 898l-139 -134h-69l84 134h124z" />
    <glyph glyph-name="sacute" unicode="&#x15b;" horiz-adv-x="424" 
d="M190 -9q-19 0 -50 5.5t-63.5 22.5t-57.5 50l55 59q23 -26 44 -38.5t39.5 -16t32.5 -3.5q34 0 47 16.5t13 31.5q0 18 -13 29t-33 19t-42 16q-47 19 -70 49t-23 69q0 20 7.5 43.5t25 45t48 36t76.5 14.5q24 0 51.5 -4t55.5 -16t53 -35l-51 -65q-20 23 -44 33t-49 10
q-21 0 -34 -7t-19 -17.5t-6 -21.5q1 -18 14.5 -29t34 -19t41.5 -17q29 -11 50.5 -27.5t32.5 -40t8 -56.5q-2 -25 -14 -49t-32.5 -44t-52.5 -31.5t-75 -11.5zM426 626l-139 -134h-69l84 134h124z" />
    <glyph glyph-name="Scircumflex" unicode="&#x15c;" horiz-adv-x="574" 
d="M522 567q-37 23 -80 40t-83 19q-31 1 -53.5 -5.5t-38 -18.5t-23.5 -28t-10 -34q-2 -29 16.5 -52t50.5 -41.5t67 -34.5q42 -18 80 -44.5t60 -68t15 -107.5q-4 -39 -23 -76t-52 -65.5t-80.5 -44t-109.5 -12.5q-45 2 -87.5 13.5t-80 31t-69.5 47.5l62 87q23 -20 52.5 -37
t62 -27.5t63.5 -12.5q36 0 66.5 11t51 34t23.5 57q3 29 -13 51t-42 39.5t-57 31.5q-32 15 -65 33t-60.5 42.5t-42 59.5t-9.5 82q7 61 39 104.5t84.5 66t117.5 21.5q52 -2 92.5 -13.5t72.5 -27.5t58 -36zM415 764l-73 93l29 8l-98 -101h-101l192 183h1l151 -183h-101z" />
    <glyph glyph-name="scircumflex" unicode="&#x15d;" horiz-adv-x="424" 
d="M190 -9q-19 0 -50 5.5t-63.5 22.5t-57.5 50l55 59q23 -26 44 -38.5t39.5 -16t32.5 -3.5q34 0 47 16.5t13 31.5q0 18 -13 29t-33 19t-42 16q-47 19 -70 49t-23 69q0 20 7.5 43.5t25 45t48 36t76.5 14.5q24 0 51.5 -4t55.5 -16t53 -35l-51 -65q-20 23 -44 33t-49 10
q-21 0 -34 -7t-19 -17.5t-6 -21.5q1 -18 14.5 -29t34 -19t41.5 -17q29 -11 50.5 -27.5t32.5 -40t8 -56.5q-2 -25 -14 -49t-32.5 -44t-52.5 -31.5t-75 -11.5zM335 536l-73 93l29 8l-98 -101h-101l192 183h1l151 -183h-101z" />
    <glyph glyph-name="Scedilla" unicode="&#x15e;" horiz-adv-x="574" 
d="M522 567q-37 23 -80 40t-83 19q-31 1 -53.5 -5.5t-38 -18.5t-23.5 -28t-10 -34q-2 -29 16.5 -52t50.5 -41.5t67 -34.5q42 -18 80 -44.5t60 -68t15 -107.5q-4 -39 -23 -76t-52 -65.5t-80.5 -44t-109.5 -12.5q-45 2 -87.5 13.5t-80 31t-69.5 47.5l62 87q23 -20 52.5 -37
t62 -27.5t63.5 -12.5q36 0 66.5 11t51 34t23.5 57q3 29 -13 51t-42 39.5t-57 31.5q-32 15 -65 33t-60.5 42.5t-42 59.5t-9.5 82q7 61 39 104.5t84.5 66t117.5 21.5q52 -2 92.5 -13.5t72.5 -27.5t58 -36zM180 -141q9 -12 24.5 -20.5t36.5 -10.5q22 -1 43 8.5t24 30.5
q2 14 -9 27.5t-46 15.5q-16 1 -33 -1.5t-31 -6.5l-11 55l68 46l85 -2l-77 -77l-19 29q11 3 25 4.5t27 1.5q54 -2 87 -26.5t27 -70.5q-4 -35 -27.5 -56t-57.5 -30.5t-71 -7.5q-40 3 -65.5 16.5t-39.5 30.5z" />
    <glyph glyph-name="scedilla" unicode="&#x15f;" horiz-adv-x="424" 
d="M190 -9q-19 0 -50 5.5t-63.5 22.5t-57.5 50l55 59q23 -26 44 -38.5t39.5 -16t32.5 -3.5q34 0 47 16.5t13 31.5q0 18 -13 29t-33 19t-42 16q-47 19 -70 49t-23 69q0 20 7.5 43.5t25 45t48 36t76.5 14.5q24 0 51.5 -4t55.5 -16t53 -35l-51 -65q-20 23 -44 33t-49 10
q-21 0 -34 -7t-19 -17.5t-6 -21.5q1 -18 14.5 -29t34 -19t41.5 -17q29 -11 50.5 -27.5t32.5 -40t8 -56.5q-2 -25 -14 -49t-32.5 -44t-52.5 -31.5t-75 -11.5zM66 -141q9 -12 24.5 -20.5t36.5 -10.5q22 -1 43 8.5t24 30.5q2 14 -9 27.5t-46 15.5q-16 1 -33 -1.5t-31 -6.5
l-11 55l68 46l85 -2l-77 -77l-19 29q11 3 25 4.5t27 1.5q54 -2 87 -26.5t27 -70.5q-4 -35 -27.5 -56t-57.5 -30.5t-71 -7.5q-40 3 -65.5 16.5t-39.5 30.5z" />
    <glyph glyph-name="Scaron" unicode="&#x160;" horiz-adv-x="574" 
d="M522 567q-37 23 -80 40t-83 19q-31 1 -53.5 -5.5t-38 -18.5t-23.5 -28t-10 -34q-2 -29 16.5 -52t50.5 -41.5t67 -34.5q42 -18 80 -44.5t60 -68t15 -107.5q-4 -39 -23 -76t-52 -65.5t-80.5 -44t-109.5 -12.5q-45 2 -87.5 13.5t-80 31t-69.5 47.5l62 87q23 -20 52.5 -37
t62 -27.5t63.5 -12.5q36 0 66.5 11t51 34t23.5 57q3 29 -13 51t-42 39.5t-57 31.5q-32 15 -65 33t-60.5 42.5t-42 59.5t-9.5 82q7 61 39 104.5t84.5 66t117.5 21.5q52 -2 92.5 -13.5t72.5 -27.5t58 -36zM295 938l74 -93l-30 -8l98 101h102l-193 -183h-1l-151 183h101z" />
    <glyph glyph-name="scaron" unicode="&#x161;" horiz-adv-x="424" 
d="M190 -9q-19 0 -50 5.5t-63.5 22.5t-57.5 50l55 59q23 -26 44 -38.5t39.5 -16t32.5 -3.5q34 0 47 16.5t13 31.5q0 18 -13 29t-33 19t-42 16q-47 19 -70 49t-23 69q0 20 7.5 43.5t25 45t48 36t76.5 14.5q24 0 51.5 -4t55.5 -16t53 -35l-51 -65q-20 23 -44 33t-49 10
q-21 0 -34 -7t-19 -17.5t-6 -21.5q1 -18 14.5 -29t34 -19t41.5 -17q29 -11 50.5 -27.5t32.5 -40t8 -56.5q-2 -25 -14 -49t-32.5 -44t-52.5 -31.5t-75 -11.5zM215 711l74 -93l-30 -8l98 101h102l-193 -183h-1l-151 183h101z" />
    <glyph glyph-name="uni0162" unicode="&#x162;" horiz-adv-x="583" 
d="M109 728h487l-15 -114h-185l-76 -614h-120l76 614h-181zM158 -141q9 -12 24.5 -20.5t36.5 -10.5q22 -1 43 8.5t24 30.5q2 14 -9 27.5t-46 15.5q-16 1 -33 -1.5t-31 -6.5l-11 55l68 46l85 -2l-77 -77l-19 29q11 3 25 4.5t27 1.5q54 -2 87 -26.5t27 -70.5q-4 -35 -27.5 -56
t-57.5 -30.5t-71 -7.5q-40 3 -65.5 16.5t-39.5 30.5z" />
    <glyph glyph-name="uni0163" unicode="&#x163;" horiz-adv-x="373" 
d="M163 609h112l-22 -186h110l-10 -88h-111l-41 -335h-112l41 335h-73l11 88h73zM59 -141q9 -12 24.5 -20.5t36.5 -10.5q22 -1 43 8.5t24 30.5q2 14 -9 27.5t-46 15.5q-16 1 -33 -1.5t-31 -6.5l-11 55l68 46l85 -2l-77 -77l-19 29q11 3 25 4.5t27 1.5q54 -2 87 -26.5
t27 -70.5q-4 -35 -27.5 -56t-57.5 -30.5t-71 -7.5q-40 3 -65.5 16.5t-39.5 30.5z" />
    <glyph glyph-name="Tcaron" unicode="&#x164;" horiz-adv-x="583" 
d="M109 728h487l-15 -114h-185l-76 -614h-120l76 614h-181zM311 938l74 -93l-30 -8l98 101h102l-193 -183h-1l-151 183h101z" />
    <glyph glyph-name="tcaron" unicode="&#x165;" horiz-adv-x="373" 
d="M163 609h112l-22 -186h110l-10 -88h-111l-41 -335h-112l41 335h-73l11 88h73zM194 834l74 -93l-30 -8l98 101h102l-193 -183h-1l-151 183h101z" />
    <glyph glyph-name="Tbar" unicode="&#x166;" horiz-adv-x="583" 
d="M109 728h487l-15 -114h-185l-76 -614h-120l76 614h-181zM175 407h265l-15 -113h-265z" />
    <glyph glyph-name="tbar" unicode="&#x167;" horiz-adv-x="373" 
d="M163 609h112l-22 -186h110l-10 -88h-111l-41 -335h-112l41 335h-73l11 88h73zM44 255h265l-15 -113h-265z" />
    <glyph glyph-name="Utilde" unicode="&#x168;" horiz-adv-x="766" 
d="M224 262q-5 -43 11.5 -79t50.5 -57t80 -21q47 0 86 21t65 57t31 79l57 466h120l-57 -469q-10 -79 -54.5 -139.5t-112.5 -94t-149 -33.5v0q-78 0 -138 33.5t-90 94t-20 139.5l57 469h120zM528 752q-39 2 -62 20.5t-42 37.5q-12 13 -23.5 23t-27.5 11q-14 1 -25.5 -9.5
t-18 -28.5t-8.5 -42l-69 6q2 45 20 82t48 58.5t71 18.5q29 -1 49.5 -18.5t37.5 -36.5q15 -16 28 -28t28 -13q16 -1 25.5 10.5t14.5 31t7 42.5l69 -5q1 -49 -16 -86t-45.5 -56t-60.5 -18z" />
    <glyph glyph-name="utilde" unicode="&#x169;" horiz-adv-x="561" 
d="M185 -18q-58 0 -92 35t-28 91l38 315h112l-34 -275q-2 -31 12 -50.5t48 -19.5t62.5 20.5t47.5 56.5t24 81l23 187h112l-52 -423h-101l2 94l4 -15q-17 -27 -44 -49.5t-61 -35t-73 -12.5zM396 501q-39 2 -62 20.5t-42 37.5q-12 13 -23.5 23t-27.5 11q-14 1 -25.5 -9.5
t-18 -28.5t-8.5 -42l-69 6q2 45 20 82t48 58.5t71 18.5q29 -1 49.5 -18.5t37.5 -36.5q15 -16 28 -28t28 -13q16 -1 25.5 10.5t14.5 31t7 42.5l69 -5q1 -49 -16 -86t-45.5 -56t-60.5 -18z" />
    <glyph glyph-name="Umacron" unicode="&#x16a;" horiz-adv-x="766" 
d="M224 262q-5 -43 11.5 -79t50.5 -57t80 -21q47 0 86 21t65 57t31 79l57 466h120l-57 -469q-10 -79 -54.5 -139.5t-112.5 -94t-149 -33.5v0q-78 0 -138 33.5t-90 94t-20 139.5l57 469h120zM343 845h234l-7 -63h-234z" />
    <glyph glyph-name="umacron" unicode="&#x16b;" horiz-adv-x="561" 
d="M185 -18q-58 0 -92 35t-28 91l38 315h112l-34 -275q-2 -31 12 -50.5t48 -19.5t62.5 20.5t47.5 56.5t24 81l23 187h112l-52 -423h-101l2 94l4 -15q-17 -27 -44 -49.5t-61 -35t-73 -12.5zM211 594h234l-7 -63h-234z" />
    <glyph glyph-name="Ubreve" unicode="&#x16c;" horiz-adv-x="766" 
d="M224 262q-5 -43 11.5 -79t50.5 -57t80 -21q47 0 86 21t65 57t31 79l57 466h120l-57 -469q-10 -79 -54.5 -139.5t-112.5 -94t-149 -33.5v0q-78 0 -138 33.5t-90 94t-20 139.5l57 469h120zM447 768q-29 1 -53.5 13t-43 34.5t-28.5 57t-11 83.5h75q1 -38 10 -62.5
t24.5 -36.5t36.5 -14q25 0 42.5 13t29.5 39t20 61h75q-12 -67 -37 -109.5t-60 -61.5t-80 -17z" />
    <glyph glyph-name="ubreve" unicode="&#x16d;" horiz-adv-x="561" 
d="M185 -18q-58 0 -92 35t-28 91l38 315h112l-34 -275q-2 -31 12 -50.5t48 -19.5t62.5 20.5t47.5 56.5t24 81l23 187h112l-52 -423h-101l2 94l4 -15q-17 -27 -44 -49.5t-61 -35t-73 -12.5zM314 517q-29 1 -53.5 13t-43 34.5t-28.5 57t-11 83.5h75q1 -38 10 -62.5t24.5 -36.5
t36.5 -14q25 0 42.5 13t29.5 39t20 61h75q-12 -67 -37 -109.5t-60 -61.5t-80 -17z" />
    <glyph glyph-name="Uring" unicode="&#x16e;" horiz-adv-x="766" 
d="M224 262q-5 -43 11.5 -79t50.5 -57t80 -21q47 0 86 21t65 57t31 79l57 466h120l-57 -469q-10 -79 -54.5 -139.5t-112.5 -94t-149 -33.5v0q-78 0 -138 33.5t-90 94t-20 139.5l57 469h120zM365 849q4 44 35.5 68.5t75.5 22.5q43 -3 68.5 -30t20.5 -70q-3 -43 -35 -68
t-75 -23t-69 30t-21 70zM424 844q-1 -19 9 -30.5t28 -13.5q19 -1 31.5 10.5t14.5 31.5q1 21 -8.5 32.5t-28.5 11.5q-18 1 -31 -9.5t-15 -32.5z" />
    <glyph glyph-name="uring" unicode="&#x16f;" horiz-adv-x="564" 
d="M263 544q0 25 14.5 47t37 35.5t47.5 13.5q33 0 55 -23t22 -56q0 -25 -14 -47.5t-36.5 -36t-47.5 -13.5q-33 0 -55.5 23.5t-22.5 56.5v0zM318 548q0 -12 8 -21t22 -9q15 0 26 11t11 26q0 13 -8 21.5t-21 8.5q-15 0 -26.5 -11t-11.5 -26v0zM185 -18q-58 0 -92 35t-28 91
l38 315h112l-34 -275q-2 -31 12 -50.5t48 -19.5t62.5 20.5t47.5 56.5t24 81l23 187h112l-52 -423h-101l2 94l4 -15q-17 -27 -44 -49.5t-61 -35t-73 -12.5z" />
    <glyph glyph-name="Uhungarumlaut" unicode="&#x170;" horiz-adv-x="766" 
d="M224 262q-5 -43 11.5 -79t50.5 -57t80 -21q47 0 86 21t65 57t31 79l57 466h120l-57 -469q-10 -79 -54.5 -139.5t-112.5 -94t-149 -33.5v0q-78 0 -138 33.5t-90 94t-20 139.5l57 469h120zM503 921q-35 -33 -70 -67t-70 -67h-69q26 33 53 67t55 67h101zM699 921
q-34 -33 -69 -67t-70 -67h-70q27 33 54 67t55 67h100z" />
    <glyph glyph-name="uhungarumlaut" unicode="&#x171;" horiz-adv-x="561" 
d="M185 -18q-58 0 -92 35t-28 91l38 315h112l-34 -275q-2 -31 12 -50.5t48 -19.5t62.5 20.5t47.5 56.5t24 81l23 187h112l-52 -423h-101l2 94l4 -15q-17 -27 -44 -49.5t-61 -35t-73 -12.5zM371 670q-35 -33 -70 -67t-70 -67h-69q26 33 53 67t55 67h101zM567 670
q-34 -33 -69 -67t-70 -67h-70q27 33 54 67t55 67h100z" />
    <glyph glyph-name="Uogonek" unicode="&#x172;" horiz-adv-x="766" 
d="M352 -8q-81 0 -140.5 34t-88.5 94t-19 139l57 469h120l-57 -466q-5 -43 11.5 -79t50.5 -57t80 -21q47 0 86 21t65 57t31 79l57 466h120l-57 -469q-7 -58 -35.5 -106t-70 -83t-90.5 -57q-40 -18 -58 -43.5t-18 -56.5q0 -20 12.5 -35t30.5 -16q20 -1 38.5 10.5t35.5 33.5
l34 -59q-23 -29 -59 -46.5t-69 -17.5q-39 0 -65 16t-39 43t-13 58q0 43 26.5 76.5t80.5 56.5l54 -18q-29 -11 -52.5 -17t-58.5 -6z" />
    <glyph glyph-name="uogonek" unicode="&#x173;" horiz-adv-x="561" 
d="M390 -218q-50 3 -83.5 33t-33.5 78q0 34 22.5 68.5t76.5 56.5l80 -17l-98 -1l2 79q-17 -27 -43 -49.5t-59 -35t-72 -12.5q-58 0 -92 35t-28 91l38 315h112l-34 -275q-2 -31 12 -50.5t48 -19.5t62.5 20.5t47.5 56.5t24 81l23 187h112l-52 -423q-38 -19 -62.5 -41.5
t-25.5 -49.5q-3 -26 11 -37t31 -11q20 -1 38.5 10.5t36.5 33.5l34 -59q-23 -30 -59.5 -48t-68.5 -16z" />
    <glyph glyph-name="Wcircumflex" unicode="&#x174;" horiz-adv-x="1017" 
d="M102 724h135l117 -515l-18 8l184 358l35 -159l-255 -450zM458 724h116l138 -505l-22 4l227 501h124l-377 -756zM675 792l-73 93l29 8l-98 -101h-101l192 183h1l151 -183h-101z" />
    <glyph glyph-name="wcircumflex" unicode="&#x175;" horiz-adv-x="679" 
d="M436 -13l-99 280l-154 -279h-7l-138 435h110l86 -265l-39 7l114 196l-21 62h96l81 -250l-22 -2l133 252h110l-243 -436h-7zM445 487l-73 93l29 8l-98 -101h-101l192 183h1l151 -183h-101z" />
    <glyph glyph-name="Ycircumflex" unicode="&#x176;" horiz-adv-x="704" 
d="M295 236l-208 492h142l157 -392l-35 -2l250 394h144l-333 -492l-29 -236h-117zM486 792l-73 93l29 8l-98 -101h-101l192 183h1l151 -183h-101z" />
    <glyph glyph-name="ycircumflex" unicode="&#x177;" horiz-adv-x="600" 
d="M73 -203l357 626h103l-350 -626h-110zM207 -3l-153 426h126l120 -369zM346 487l-73 93l29 8l-98 -101h-101l192 183h1l151 -183h-101z" />
    <glyph glyph-name="Ydieresis" unicode="&#x178;" horiz-adv-x="704" 
d="M295 236l-208 492h142l157 -392l-35 -2l250 394h144l-333 -492l-29 -236h-117zM265 846q3 26 24 42.5t43 15.5q21 -1 38 -19.5t14 -45.5t-23.5 -42.5t-41.5 -14.5q-23 1 -40 19.5t-14 44.5v0zM457 846q3 26 23.5 42.5t42.5 15.5t38.5 -20t13.5 -45q-3 -27 -23.5 -42.5
t-41.5 -14.5q-23 1 -39.5 19t-13.5 45v0z" />
    <glyph glyph-name="Zacute" unicode="&#x179;" horiz-adv-x="665" 
d="M2 0l500 648l15 -32h-306q-20 0 -39.5 8t-31 23t-9.5 35l10 83h107l-1 -14q-1 -12 5 -17.5t24 -5.5h423l-489 -630l-10 14h430l-13 -112h-615zM597 926l-139 -134h-69l84 134h124z" />
    <glyph glyph-name="zacute" unicode="&#x17a;" horiz-adv-x="498" 
d="M142 331q-34 0 -55.5 22.5t-16.5 62.5l5 48h85l-1 -14q-2 -18 5 -22.5t25 -4.5h270l-289 -355l-19 24h264l-11 -92h-407l296 364l13 -33h-164zM429 621l-139 -134h-69l84 134h124z" />
    <glyph glyph-name="Zdotaccent" unicode="&#x17b;" horiz-adv-x="665" 
d="M2 0l500 648l15 -32h-306q-20 0 -39.5 8t-31 23t-9.5 35l10 83h107l-1 -14q-1 -12 5 -17.5t24 -5.5h423l-489 -630l-10 14h430l-13 -112h-615zM378 874q1 26 20 44.5t48 18.5q22 0 42 -13t20 -42q-1 -27 -20 -45.5t-48 -18.5q-21 0 -41.5 13.5t-20.5 42.5z" />
    <glyph glyph-name="zdotaccent" unicode="&#x17c;" horiz-adv-x="498" 
d="M142 331q-34 0 -55.5 22.5t-16.5 62.5l5 48h85l-1 -14q-2 -18 5 -22.5t25 -4.5h270l-289 -355l-19 24h264l-11 -92h-407l296 364l13 -33h-164zM238 584q1 26 20 44.5t48 18.5q22 0 42 -13t20 -42q-1 -27 -20 -45.5t-48 -18.5q-21 0 -41.5 13.5t-20.5 42.5z" />
    <glyph glyph-name="Zcaron" unicode="&#x17d;" horiz-adv-x="665" 
d="M2 0l500 648l15 -32h-306q-20 0 -39.5 8t-31 23t-9.5 35l10 83h107l-1 -14q-1 -12 5 -17.5t24 -5.5h423l-489 -630l-10 14h430l-13 -112h-615zM386 967l74 -93l-30 -8l98 101h102l-193 -183h-1l-151 183h101z" />
    <glyph glyph-name="zcaron" unicode="&#x17e;" horiz-adv-x="498" 
d="M142 331q-34 0 -55.5 22.5t-16.5 62.5l5 48h85l-1 -14q-2 -18 5 -22.5t25 -4.5h270l-289 -355l-19 24h264l-11 -92h-407l296 364l13 -33h-164zM253 670l74 -93l-30 -8l98 101h102l-193 -183h-1l-151 183h101z" />
    <glyph glyph-name="uni018F" unicode="&#x18f;" horiz-adv-x="795" 
d="M438 735q44 0 89.5 -13t86.5 -39t74 -67t52 -96.5t19 -126.5q0 -51 -15 -106.5t-45.5 -106.5t-76.5 -92t-109 -65t-143 -24q-23 0 -58.5 5.5t-76.5 24t-78.5 54t-64 95t-33.5 149.5l606 165l15 -86l-530 -150l41 33q9 -45 26 -78.5t41 -57t53.5 -36.5t62.5 -14
q52 -2 94 14.5t73.5 47t52.5 69t31 79t10 77.5q0 52 -13.5 90.5t-37 65.5t-52.5 44t-60 24.5t-60 7.5q-52 1 -106.5 -20.5t-88.5 -54.5l-46 98q31 26 76 46.5t95.5 32.5t95.5 11z" />
    <glyph glyph-name="florin" unicode="&#x192;" horiz-adv-x="347" 
d="M130 519q12 88 52 144.5t103 82t140 24.5l-13 -112q-53 0 -87.5 -18t-53.5 -51t-25 -80l-11 -89l131 -6l-13 -107l-131 7l-27 -219q-10 -88 -46.5 -144t-97.5 -82t-150 -24l13 111q52 0 87 17.5t54 51t24 81.5l27 214l-72 4l13 107l72 -4z" />
    <glyph glyph-name="uni019D" unicode="&#x19d;" horiz-adv-x="811" 
d="M675 -26l-492 543l32 -15l-59 -502h-117l92 753h5l484 -542l-26 8l60 509h117l-90 -728zM161 37l-5 -39q-9 -68 -41 -119t-91 -83l-63 69q32 24 52 58t26 81l17 137z" />
    <glyph glyph-name="Ohorn" unicode="&#x1a0;" horiz-adv-x="856" 
d="M423 -7q-64 0 -126.5 21t-112.5 64t-80 108t-30 152q0 66 24.5 136t74 129t124 95.5t173.5 36.5q65 0 127 -21t112.5 -64t80 -108t29.5 -153q0 -66 -24.5 -135.5t-74 -128.5t-123.5 -95.5t-174 -36.5zM425 105q72 0 124 26t85 67.5t49 90t16 94.5q0 49 -17.5 92t-49 76.5
t-74 52.5t-93.5 19q-72 0 -123.5 -25.5t-84.5 -67.5t-48 -90.5t-15 -94.5q0 -48 17 -91.5t47.5 -77t73 -52.5t93.5 -19zM719 620q39 -3 63 17t37 66h83q-16 -63 -44.5 -97t-65.5 -45.5t-81 -8.5z" />
    <glyph glyph-name="ohorn" unicode="&#x1a1;" horiz-adv-x="589" 
d="M268 -11q-39 0 -79.5 13t-74 38.5t-54 65t-20.5 92.5q0 39 13 81.5t42 79t76.5 59t115.5 22.5q58 0 109.5 -24t84 -70.5t32.5 -113.5q0 -26 -7 -58.5t-24 -65t-45 -59.5t-70 -43.5t-99 -16.5zM271 82q48 0 76 23.5t40.5 57.5t12.5 64q0 35 -12 58.5t-30 37.5t-38.5 20
t-36.5 6q-46 0 -75 -23t-42 -57t-13 -66q0 -45 19 -71.5t46.5 -38t52.5 -11.5zM434 365q33 -3 54.5 16.5t33.5 62.5h83q-16 -61 -42.5 -94t-61 -44.5t-75.5 -8.5z" />
    <glyph glyph-name="Uhorn" unicode="&#x1af;" horiz-adv-x="838" 
d="M224 262q-5 -43 11.5 -79t50.5 -57t80 -21q47 0 86 21t65 57t31 79l57 466h120l-57 -469q-10 -79 -54.5 -139.5t-112.5 -94t-149 -33.5v0q-78 0 -138 33.5t-90 94t-20 139.5l57 469h120zM711 645q39 -3 63 17t37 66h83q-16 -63 -44.5 -97t-65.5 -45.5t-81 -8.5z" />
    <glyph glyph-name="uhorn" unicode="&#x1b0;" horiz-adv-x="579" 
d="M185 -18q-58 0 -92 35t-28 91l38 315h112l-34 -275q-2 -31 12 -50.5t48 -19.5t62.5 20.5t47.5 56.5t24 81l23 187h112l-52 -423h-101l2 94l4 -15q-17 -27 -44 -49.5t-61 -35t-73 -12.5zM477 340q39 -3 63 17t37 66h83q-16 -63 -44.5 -97t-65.5 -45.5t-81 -8.5z" />
    <glyph glyph-name="uni01C4" unicode="&#x1c4;" horiz-adv-x="1424" 
d="M72 0l89 728h231q100 0 166.5 -31.5t104 -83.5t51 -117.5t6.5 -133.5q-7 -84 -40.5 -151.5t-87 -114.5t-120 -71.5t-139.5 -24.5h-261zM202 112h126q56 0 104 16.5t84.5 48.5t58.5 80.5t27 112.5q7 69 -10.5 116t-50.5 76t-74 42t-81 13h-123zM760 0l500 648l15 -32h-306
q-20 0 -39.5 8t-31 23t-9.5 35l10 83h107l-1 -14q-1 -12 5 -17.5t24 -5.5h423l-489 -630l-10 14h430l-13 -112h-615zM1144 967l74 -93l-30 -8l98 101h102l-193 -183h-1l-151 183h101z" />
    <glyph glyph-name="uni01C5" unicode="&#x1c5;" horiz-adv-x="1257" 
d="M72 0l89 728h231q100 0 166.5 -31.5t104 -83.5t51 -117.5t6.5 -133.5q-7 -84 -40.5 -151.5t-87 -114.5t-120 -71.5t-139.5 -24.5h-261zM202 112h126q56 0 104 16.5t84.5 48.5t58.5 80.5t27 112.5q7 69 -10.5 116t-50.5 76t-74 42t-81 13h-123zM900 331q-34 0 -55.5 22.5
t-16.5 62.5l5 48h85l-1 -14q-2 -18 5 -22.5t25 -4.5h270l-289 -355l-19 24h264l-11 -92h-407l296 364l13 -33h-164zM1011 670l74 -93l-30 -8l98 101h102l-193 -183h-1l-151 183h101z" />
    <glyph glyph-name="uni01C6" unicode="&#x1c6;" horiz-adv-x="1106" 
d="M247 -10q-60 1 -107.5 29.5t-73.5 76.5t-24 104q1 46 18 89t50 78t79 55.5t105 19.5q56 -1 98 -24.5t63 -56.5l-21 -27l54 446h112l-96 -780h-112l11 93l8 -26q-35 -34 -75.5 -56t-88.5 -21zM281 85q29 -1 54 9.5t45.5 30t33.5 47.5l10 90q-4 27 -20.5 47.5t-41.5 32
t-57 12.5q-42 0 -75 -16.5t-52 -47.5t-21 -74q-1 -38 14 -67.5t43.5 -46t66.5 -17.5zM749 331q-34 0 -55.5 22.5t-16.5 62.5l5 48h85l-1 -14q-2 -18 5 -22.5t25 -4.5h270l-289 -355l-19 24h264l-11 -92h-407l296 364l13 -33h-164zM860 670l74 -93l-30 -8l98 101h102
l-193 -183h-1l-151 183h101z" />
    <glyph glyph-name="uni01C7" unicode="&#x1c7;" horiz-adv-x="1002" 
d="M161 728h116l-75 -616h359l-14 -112h-475zM890 141q-11 -91 -54 -155.5t-109 -99t-147 -37.5v0l14 113q46 3 84 22.5t63.5 58.5t32.5 101l71 584h117z" />
    <glyph glyph-name="uni01C8" unicode="&#x1c8;" horiz-adv-x="899" 
d="M161 728h116l-75 -616h359l-14 -112h-475zM598 -138q35 23 57 56.5t28 81.5l53 423h112l-53 -423q-9 -72 -43 -124.5t-99 -82.5zM740 569q1 26 20 44.5t48 18.5q22 0 42 -13t20 -42q-1 -27 -20 -45.5t-48 -18.5q-21 0 -41.5 13.5t-20.5 42.5z" />
    <glyph glyph-name="uni01C9" unicode="&#x1c9;" horiz-adv-x="546" 
d="M147 780h112l-95 -780h-112zM245 -138q35 23 57 56.5t28 81.5l53 423h112l-53 -423q-9 -72 -43 -124.5t-99 -82.5zM387 569q1 26 20 44.5t48 18.5q22 0 42 -13t20 -42q-1 -27 -20 -45.5t-48 -18.5q-21 0 -41.5 13.5t-20.5 42.5z" />
    <glyph glyph-name="uni01CA" unicode="&#x1ca;" horiz-adv-x="1227" 
d="M711 -26h-3l-492 543l32 -15l-60 -502h-116l92 753h5l483 -543l-25 9l60 509h116zM1114 141q-11 -91 -54 -155.5t-109 -99t-147 -37.5v0l14 113q46 3 84 22.5t63.5 58.5t32.5 101l71 584h117z" />
    <glyph glyph-name="uni01CB" unicode="&#x1cb;" horiz-adv-x="1123" 
d="M711 -26h-3l-492 543l32 -15l-60 -502h-116l92 753h5l483 -543l-25 9l60 509h116zM822 -138q35 23 57 56.5t28 81.5l53 423h112l-53 -423q-9 -72 -43 -124.5t-99 -82.5zM964 569q1 26 20 44.5t48 18.5q22 0 42 -13t20 -42q-1 -27 -20 -45.5t-48 -18.5q-21 0 -41.5 13.5
t-20.5 42.5z" />
    <glyph glyph-name="uni01CC" unicode="&#x1cc;" horiz-adv-x="849" 
d="M204 423l1 -91l-6 14q27 43 73.5 69t107.5 26t96 -35t29 -92l-38 -314h-112l33 274q3 32 -12.5 51.5t-52.5 19.5q-34 0 -63.5 -20.5t-48 -56t-24.5 -81.5l-23 -187h-112l51 423h101zM548 -138q35 23 57 56.5t28 81.5l53 423h112l-53 -423q-9 -72 -43 -124.5t-99 -82.5z
M690 569q1 26 20 44.5t48 18.5q22 0 42 -13t20 -42q-1 -27 -20 -45.5t-48 -18.5q-21 0 -41.5 13.5t-20.5 42.5z" />
    <glyph glyph-name="uni01D3" unicode="&#x1d3;" horiz-adv-x="766" 
d="M224 262q-5 -43 11.5 -79t50.5 -57t80 -21q47 0 86 21t65 57t31 79l57 466h120l-57 -469q-10 -79 -54.5 -139.5t-112.5 -94t-149 -33.5v0q-78 0 -138 33.5t-90 94t-20 139.5l57 469h120zM407 962l74 -93l-30 -8l98 101h102l-193 -183h-1l-151 183h101z" />
    <glyph glyph-name="Gcaron" unicode="&#x1e6;" horiz-adv-x="764" 
d="M664 50q-20 -16 -59.5 -30t-85.5 -22.5t-88 -8.5q-29 0 -66.5 7.5t-78 23t-78.5 41t-69 63t-49 88.5t-17 117q1 52 15.5 108t44.5 109t76.5 94.5t111.5 66.5t150 24q61 -1 124 -17.5t114 -49.5l-52 -105q-38 26 -89.5 41t-98.5 14q-63 0 -109 -18t-77.5 -48t-50.5 -66.5
t-28 -75.5t-10 -74q0 -51 17 -88.5t45 -64t61.5 -42.5t67.5 -24t61 -9q29 -1 58 3.5t51 14.5l15 130h-137l14 111h255zM434 970l74 -93l-30 -8l98 101h102l-193 -183h-1l-151 183h101z" />
    <glyph glyph-name="gcaron" unicode="&#x1e7;" horiz-adv-x="615" 
d="M258 -211q-56 0 -95 12t-68 32t-54 43l76 76q19 -20 40.5 -34.5t49 -22.5t61.5 -8q36 0 64 13.5t46 38t21 58.5l13 106l6 -20q-20 -40 -63.5 -66.5t-105.5 -26.5q-58 0 -105 26t-74.5 74.5t-27.5 117.5q0 35 14.5 75.5t44.5 76.5t76 59t109 23q60 0 102.5 -21t59.5 -53
l-11 -19l24 74h103l-56 -445q-7 -59 -41 -101.5t-88 -65t-121 -22.5zM306 350q-41 0 -69.5 -14t-46 -36t-25.5 -46.5t-8 -45.5q0 -39 16 -67.5t45.5 -44t69.5 -15.5q27 0 52.5 11t46 30t33.5 46l11 92q-5 27 -22.5 47.5t-43.5 31.5t-59 11zM291 711l74 -93l-30 -8l98 101
h102l-193 -183h-1l-151 183h101z" />
    <glyph glyph-name="uni01EA" unicode="&#x1ea;" horiz-adv-x="856" 
d="M577 27q-34 -16 -70.5 -25t-83.5 -9q-64 0 -126.5 21t-112.5 64t-80 108t-30 152q0 66 24.5 136t74 129t124 95.5t173.5 36.5q65 0 127 -21t112.5 -64t80 -108t29.5 -153q0 -50 -16 -105.5t-48 -107t-78.5 -92.5t-107.5 -64q-42 -20 -66 -46.5t-27 -60.5
q-3 -27 10.5 -39.5t31.5 -13.5q20 -1 38.5 10.5t35.5 33.5l35 -59q-23 -30 -59.5 -47.5t-69.5 -16.5q-49 3 -82.5 33t-33.5 78q0 20 9.5 44t31.5 46.5t58 34.5zM425 105q72 0 124 26t85 67.5t49 90t16 94.5q0 49 -17.5 92t-49 76.5t-74 52.5t-93.5 19q-72 0 -123.5 -25.5
t-84.5 -67.5t-48 -90.5t-15 -94.5q0 -48 17 -91.5t47.5 -77t73 -52.5t93.5 -19z" />
    <glyph glyph-name="uni01EB" unicode="&#x1eb;" horiz-adv-x="557" 
d="M385 28q-24 -17 -49 -28t-68 -11q-39 0 -79.5 13t-74 38.5t-54 65t-20.5 92.5q0 39 13 81.5t42 79t76.5 59t115.5 22.5q58 0 109.5 -24t84 -70.5t32.5 -113.5q0 -33 -10 -71.5t-34.5 -74.5t-65.5 -60q-31 -21 -60 -37.5t-47.5 -35.5t-22.5 -46q-2 -23 11.5 -35.5
t31.5 -12.5q20 -1 38.5 10.5t35.5 33.5l35 -59q-24 -30 -60 -48t-69 -16q-49 3 -82.5 33t-33.5 78q0 25 11.5 51t35 49.5t58.5 36.5h100zM271 82q48 0 76 23.5t40.5 57.5t12.5 64q0 35 -12 58.5t-30 37.5t-38.5 20t-36.5 6q-46 0 -75 -23t-42 -57t-13 -66q0 -45 19 -71.5
t46.5 -38t52.5 -11.5z" />
    <glyph glyph-name="uni01F3" unicode="&#x1f3;" horiz-adv-x="1094" 
d="M247 -10q-60 1 -107.5 29.5t-73.5 76.5t-24 104q1 46 18 89t50 78t79 55.5t105 19.5q56 -1 98 -24.5t63 -56.5l-21 -27l54 446h112l-96 -780h-112l11 93l8 -26q-35 -34 -75.5 -56t-88.5 -21zM281 85q29 -1 54 9.5t45.5 30t33.5 47.5l10 90q-4 27 -20.5 47.5t-41.5 32
t-57 12.5q-42 0 -75 -16.5t-52 -47.5t-21 -74q-1 -38 14 -67.5t43.5 -46t66.5 -17.5zM749 331q-34 0 -55.5 22.5t-16.5 62.5l5 48h85l-1 -14q-2 -18 5 -22.5t25 -4.5h270l-289 -355l-19 24h264l-11 -92h-407l296 364l13 -33h-164z" />
    <glyph glyph-name="Aringacute" unicode="&#x1fa;" horiz-adv-x="699" 
d="M109 0h-114l415 758h7l229 -758h-134l-157 574l91 56zM230 271h250l27 -100h-324zM332 867q4 44 35.5 68.5t75.5 22.5q43 -3 68.5 -30t20.5 -70q-3 -43 -35 -68t-75 -23t-69 30t-21 70zM391 862q-1 -19 9 -30.5t28 -13.5q19 -1 31.5 10.5t14.5 31.5q1 21 -8.5 32.5
t-28.5 11.5q-18 1 -31 -9.5t-15 -32.5zM612 1155l-139 -134h-69l84 134h124z" />
    <glyph glyph-name="aringacute" unicode="&#x1fb;" horiz-adv-x="601" 
d="M221 -9q-45 0 -86.5 24.5t-67 71t-25.5 110.5q0 45 16 88t47 78.5t75 57t99 21.5q44 0 74 -11.5t49 -30t31 -41.5l-9 -19l22 83h103l-51 -423h-112l12 101l7 -27q-4 -5 -18 -18.5t-37 -28.5t-55.5 -25.5t-73.5 -10.5zM283 81q26 0 49.5 10.5t42.5 30t31 46.5l11 92
q-5 27 -21 47.5t-41 31.5t-56 11q-39 0 -65.5 -13.5t-43.5 -35t-24.5 -45.5t-7.5 -46q0 -38 15.5 -67t44 -45.5t65.5 -16.5zM256 575q4 44 35.5 68.5t75.5 22.5q43 -3 68.5 -30t20.5 -70q-3 -43 -35 -68t-75 -23t-69 30t-21 70zM315 570q-1 -19 9 -30.5t28 -13.5
q19 -1 31.5 10.5t14.5 31.5q1 21 -8.5 32.5t-28.5 11.5q-18 1 -31 -9.5t-15 -32.5zM536 863l-139 -134h-69l84 134h124z" />
    <glyph glyph-name="AEacute" unicode="&#x1fc;" horiz-adv-x="960" 
d="M544 728h401l-13 -112h-286l-24 -196h245l-14 -112h-245l-24 -196h300l-14 -112h-416zM542 595q-4 -10 -9.5 -25t-5.5 -16l-410 -554h-134l561 728zM254 264h248l-11 -92h-283zM870 926l-139 -134h-69l84 134h124z" />
    <glyph glyph-name="aeacute" unicode="&#x1fd;" horiz-adv-x="818" 
d="M545 -11q-23 1 -54.5 7.5t-62.5 22t-56 42.5t-37.5 68.5t-5.5 99.5q7 62 43.5 110t92.5 75.5t120 26.5q31 0 64 -9t63 -32t50.5 -63t26.5 -102l-386 -70l-5 63l296 56l-24 -12q-7 28 -22 46t-35.5 26.5t-43.5 8.5q-33 1 -60.5 -14.5t-45.5 -43.5t-23 -67q-6 -41 5 -68.5
t30.5 -43.5t42 -23t39.5 -8q24 -1 47.5 6.5t45.5 20.5l40 -86q-33 -17 -71.5 -27t-73.5 -10zM197 -11q-40 0 -78 14t-63 42t-25 71q0 31 18 63t58.5 53.5t108.5 20.5q27 0 48.5 -3.5t40.5 -10.5t36 -17.5t34 -26.5l-26 -65q-18 17 -37.5 27t-39.5 14.5t-39 4.5
q-45 1 -61.5 -18.5t-16.5 -39.5q1 -19 12 -31t29 -16.5t38 -4.5q27 2 54 13.5t44 29.5l8 68l45 -18l-13 -102q-22 -23 -49.5 -38t-59.5 -22.5t-66 -7.5zM318 218l5 40q4 30 -4 48.5t-22.5 27.5t-31 12t-30.5 4q-36 0 -67 -17t-53 -40l-48 74q36 31 84.5 53t110.5 21
q18 -1 42 -5t49 -14t45 -28t31 -45.5t6 -66.5l-3 -20zM609 621l-139 -134h-69l84 134h124z" />
    <glyph glyph-name="Oslashacute" unicode="&#x1fe;" horiz-adv-x="853" 
d="M842 682l-687 -700l-51 51l688 701zM423 -7q-64 0 -126.5 21t-112.5 64t-80 108t-30 152q0 66 24.5 136t74 129t124 95.5t173.5 36.5q65 0 127 -21t112.5 -64t80 -108t29.5 -153q0 -66 -24.5 -135.5t-74 -128.5t-123.5 -95.5t-174 -36.5zM425 105q72 0 124 26t85 67.5
t49 90t16 94.5q0 49 -17.5 92t-49 76.5t-74 52.5t-93.5 19q-72 0 -123.5 -25.5t-84.5 -67.5t-48 -90.5t-15 -94.5q0 -48 17 -91.5t47.5 -77t73 -52.5t93.5 -19zM664 926l-139 -134h-69l84 134h124z" />
    <glyph glyph-name="oslashacute" unicode="&#x1ff;" horiz-adv-x="529" 
d="M526 413q-12 -13 -39 -40t-63.5 -63t-77.5 -77l-82 -82l-77 -77l-63 -63t-39 -40l-41 42q12 13 38.5 39.5l62.5 62.5t76.5 77t81.5 81.5t77 76.5t62.5 63t38.5 39zM270 -11q-39 0 -79.5 13t-74 38.5t-54 65t-20.5 92.5q0 39 13 81.5t42 79t76.5 59t115.5 22.5
q58 0 109.5 -24t84.5 -70.5t33 -113.5q0 -26 -7.5 -58.5t-24 -65t-45 -59.5t-70.5 -43.5t-99 -16.5zM273 82q48 0 76 23.5t40.5 57.5t12.5 64q0 35 -11.5 58.5t-30 37.5t-39 20t-36.5 6q-46 0 -75 -23t-42 -57t-13 -66q0 -45 19 -71.5t46.5 -38t52.5 -11.5zM463 631
l-139 -134h-69l84 134h124z" />
    <glyph glyph-name="uni0200" unicode="&#x200;" horiz-adv-x="699" 
d="M109 0h-114l415 758h7l229 -758h-134l-157 574l91 56zM230 271h250l27 -100h-324zM333 939l65 -134h-70l-119 134h124zM480 939l65 -134h-70l-119 134h124z" />
    <glyph glyph-name="uni0201" unicode="&#x201;" horiz-adv-x="601" 
d="M221 -9q-45 0 -86.5 24.5t-67 71t-25.5 110.5q0 45 16 88t47 78.5t75 57t99 21.5q44 0 74 -11.5t49 -30t31 -41.5l-9 -19l22 83h103l-51 -423h-112l12 101l7 -27q-4 -5 -18 -18.5t-37 -28.5t-55.5 -25.5t-73.5 -10.5zM283 81q26 0 49.5 10.5t42.5 30t31 46.5l11 92
q-5 27 -21 47.5t-41 31.5t-56 11q-39 0 -65.5 -13.5t-43.5 -35t-24.5 -45.5t-7.5 -46q0 -38 15.5 -67t44 -45.5t65.5 -16.5zM257 647l65 -134h-70l-119 134h124zM404 647l65 -134h-70l-119 134h124z" />
    <glyph glyph-name="uni0202" unicode="&#x202;" horiz-adv-x="699" 
d="M109 0h-114l415 758h7l229 -758h-134l-157 574l91 56zM230 271h250l27 -100h-324zM440 964q29 -1 53.5 -12.5t43 -34t28.5 -57.5t11 -84h-75q0 39 -9.5 63t-24.5 36.5t-37 13.5q-25 2 -42.5 -11.5t-29 -39t-20.5 -62.5h-75q12 68 36.5 110.5t60.5 61.5t80 16z" />
    <glyph glyph-name="uni0203" unicode="&#x203;" horiz-adv-x="601" 
d="M221 -9q-45 0 -86.5 24.5t-67 71t-25.5 110.5q0 45 16 88t47 78.5t75 57t99 21.5q44 0 74 -11.5t49 -30t31 -41.5l-9 -19l22 83h103l-51 -423h-112l12 101l7 -27q-4 -5 -18 -18.5t-37 -28.5t-55.5 -25.5t-73.5 -10.5zM283 81q26 0 49.5 10.5t42.5 30t31 46.5l11 92
q-5 27 -21 47.5t-41 31.5t-56 11q-39 0 -65.5 -13.5t-43.5 -35t-24.5 -45.5t-7.5 -46q0 -38 15.5 -67t44 -45.5t65.5 -16.5zM364 672q29 -1 53.5 -12.5t43 -34t28.5 -57.5t11 -84h-75q0 39 -9.5 63t-24.5 36.5t-37 13.5q-25 2 -42.5 -11.5t-29 -39t-20.5 -62.5h-75
q12 68 36.5 110.5t60.5 61.5t80 16z" />
    <glyph glyph-name="uni0204" unicode="&#x204;" horiz-adv-x="659" 
d="M161 728h483l-13 -108h-363l-24 -200h322l-14 -110h-322l-24 -199h377l-14 -111h-497zM314 921l65 -134h-70l-119 134h124zM461 921l65 -134h-70l-119 134h124z" />
    <glyph glyph-name="uni0205" unicode="&#x205;" horiz-adv-x="535" 
d="M281 85q22 0 43.5 8t41.5 20l40 -87q-31 -17 -67 -26.5t-70 -9.5q-68 0 -119 24.5t-79.5 73t-28.5 118.5q0 40 15 81t45 75.5t77 56t110 21.5q37 0 72.5 -9.5t64.5 -32.5t50 -62.5t29 -100.5l-353 -94l-18 65l291 80l-39 -14q-10 37 -37 59t-64 22q-43 0 -72 -19t-44 -50
t-15 -65q0 -49 19 -78.5t48 -42.5t60 -13zM212 655l65 -134h-70l-119 134h124zM359 655l65 -134h-70l-119 134h124z" />
    <glyph glyph-name="uni0206" unicode="&#x206;" horiz-adv-x="659" 
d="M161 728h483l-13 -108h-363l-24 -200h322l-14 -110h-322l-24 -199h377l-14 -111h-497zM421 947q29 -1 53.5 -12.5t43 -34t28.5 -57.5t11 -84h-75q0 39 -9.5 63t-24.5 36.5t-37 13.5q-25 2 -42.5 -11.5t-29 -39t-20.5 -62.5h-75q12 68 36.5 110.5t60.5 61.5t80 16z" />
    <glyph glyph-name="uni0207" unicode="&#x207;" horiz-adv-x="535" 
d="M281 85q22 0 43.5 8t41.5 20l40 -87q-31 -17 -67 -26.5t-70 -9.5q-68 0 -119 24.5t-79.5 73t-28.5 118.5q0 40 15 81t45 75.5t77 56t110 21.5q37 0 72.5 -9.5t64.5 -32.5t50 -62.5t29 -100.5l-353 -94l-18 65l291 80l-39 -14q-10 37 -37 59t-64 22q-43 0 -72 -19t-44 -50
t-15 -65q0 -49 19 -78.5t48 -42.5t60 -13zM319 680q29 -1 53.5 -12.5t43 -34t28.5 -57.5t11 -84h-75q0 39 -9.5 63t-24.5 36.5t-37 13.5q-25 2 -42.5 -11.5t-29 -39t-20.5 -62.5h-75q12 68 36.5 110.5t60.5 61.5t80 16z" />
    <glyph glyph-name="uni0208" unicode="&#x208;" horiz-adv-x="322" 
d="M161 728h120l-89 -728h-120zM140 921l65 -134h-70l-119 134h124zM287 921l65 -134h-70l-119 134h124z" />
    <glyph glyph-name="uni0209" unicode="&#x209;" horiz-adv-x="266" 
d="M103 423h112l-52 -423h-112zM78 621l65 -134h-70l-119 134h124zM225 621l65 -134h-70l-119 134h124z" />
    <glyph glyph-name="uni020A" unicode="&#x20a;" horiz-adv-x="322" 
d="M161 728h120l-89 -728h-120zM247 947q29 -1 53.5 -12.5t43 -34t28.5 -57.5t11 -84h-75q0 39 -9.5 63t-24.5 36.5t-37 13.5q-25 2 -42.5 -11.5t-29 -39t-20.5 -62.5h-75q12 68 36.5 110.5t60.5 61.5t80 16z" />
    <glyph glyph-name="uni020B" unicode="&#x20b;" horiz-adv-x="266" 
d="M103 423h112l-52 -423h-112zM185 646q29 -1 53.5 -12.5t43 -34t28.5 -57.5t11 -84h-75q0 39 -9.5 63t-24.5 36.5t-37 13.5q-25 2 -42.5 -11.5t-29 -39t-20.5 -62.5h-75q12 68 36.5 110.5t60.5 61.5t80 16z" />
    <glyph glyph-name="uni020C" unicode="&#x20c;" horiz-adv-x="856" 
d="M423 -7q-64 0 -126.5 21t-112.5 64t-80 108t-30 152q0 66 24.5 136t74 129t124 95.5t173.5 36.5q65 0 127 -21t112.5 -64t80 -108t29.5 -153q0 -66 -24.5 -135.5t-74 -128.5t-123.5 -95.5t-174 -36.5zM425 105q72 0 124 26t85 67.5t49 90t16 94.5q0 49 -17.5 92t-49 76.5
t-74 52.5t-93.5 19q-72 0 -123.5 -25.5t-84.5 -67.5t-48 -90.5t-15 -94.5q0 -48 17 -91.5t47.5 -77t73 -52.5t93.5 -19zM392 921l65 -134h-70l-119 134h124zM539 921l65 -134h-70l-119 134h124z" />
    <glyph glyph-name="uni020D" unicode="&#x20d;" horiz-adv-x="557" 
d="M270 -11q-39 0 -79.5 13t-74 38.5t-54 65t-20.5 92.5q0 39 13 81.5t42 79t76.5 59t115.5 22.5q58 0 109.5 -24t84.5 -70.5t33 -113.5q0 -26 -7.5 -58.5t-24 -65t-45 -59.5t-70.5 -43.5t-99 -16.5zM273 82q48 0 76 23.5t40.5 57.5t12.5 64q0 35 -11.5 58.5t-30 37.5
t-39 20t-36.5 6q-46 0 -75 -23t-42 -57t-13 -66q0 -45 19 -71.5t46.5 -38t52.5 -11.5zM211 631l65 -134h-70l-119 134h124zM358 631l65 -134h-70l-119 134h124z" />
    <glyph glyph-name="uni020E" unicode="&#x20e;" horiz-adv-x="856" 
d="M423 -7q-64 0 -126.5 21t-112.5 64t-80 108t-30 152q0 66 24.5 136t74 129t124 95.5t173.5 36.5q65 0 127 -21t112.5 -64t80 -108t29.5 -153q0 -66 -24.5 -135.5t-74 -128.5t-123.5 -95.5t-174 -36.5zM425 105q72 0 124 26t85 67.5t49 90t16 94.5q0 49 -17.5 92t-49 76.5
t-74 52.5t-93.5 19q-72 0 -123.5 -25.5t-84.5 -67.5t-48 -90.5t-15 -94.5q0 -48 17 -91.5t47.5 -77t73 -52.5t93.5 -19zM499 947q29 -1 53.5 -12.5t43 -34t28.5 -57.5t11 -84h-75q0 39 -9.5 63t-24.5 36.5t-37 13.5q-25 2 -42.5 -11.5t-29 -39t-20.5 -62.5h-75
q12 68 36.5 110.5t60.5 61.5t80 16z" />
    <glyph glyph-name="uni020F" unicode="&#x20f;" horiz-adv-x="557" 
d="M270 -11q-39 0 -79.5 13t-74 38.5t-54 65t-20.5 92.5q0 39 13 81.5t42 79t76.5 59t115.5 22.5q58 0 109.5 -24t84.5 -70.5t33 -113.5q0 -26 -7.5 -58.5t-24 -65t-45 -59.5t-70.5 -43.5t-99 -16.5zM273 82q48 0 76 23.5t40.5 57.5t12.5 64q0 35 -11.5 58.5t-30 37.5
t-39 20t-36.5 6q-46 0 -75 -23t-42 -57t-13 -66q0 -45 19 -71.5t46.5 -38t52.5 -11.5zM318 657q29 -1 53.5 -12.5t43 -34t28.5 -57.5t11 -84h-75q0 39 -9.5 63t-24.5 36.5t-37 13.5q-25 2 -42.5 -11.5t-29 -39t-20.5 -62.5h-75q12 68 36.5 110.5t60.5 61.5t80 16z" />
    <glyph glyph-name="uni0210" unicode="&#x210;" horiz-adv-x="671" 
d="M366 728q60 0 107.5 -15.5t79.5 -45.5t46 -73.5t7 -99.5q-6 -43 -24 -86t-52 -77.5t-84 -56t-121 -21.5h-106l-31 -253h-116l89 728h205zM337 365q52 0 83.5 20.5t47 50t17.5 54.5q3 18 -0.5 39.5t-15.5 41t-35.5 32.5t-61.5 13h-109l-30 -251h104zM454 296l151 -296
h-136l-154 293zM288 921l65 -134h-70l-119 134h124zM435 921l65 -134h-70l-119 134h124z" />
    <glyph glyph-name="uni0211" unicode="&#x211;" horiz-adv-x="393" 
d="M204 423l-6 -99q22 38 54 64.5t67 40t62 13.5l-19 -112q-47 4 -85.5 -17t-62 -56.5t-28.5 -74.5l-23 -182h-111l51 423h101zM109 670l65 -134h-70l-119 134h124zM256 670l65 -134h-70l-119 134h124z" />
    <glyph glyph-name="uni0212" unicode="&#x212;" horiz-adv-x="671" 
d="M366 728q60 0 107.5 -15.5t79.5 -45.5t46 -73.5t7 -99.5q-6 -43 -24 -86t-52 -77.5t-84 -56t-121 -21.5h-106l-31 -253h-116l89 728h205zM337 365q52 0 83.5 20.5t47 50t17.5 54.5q3 18 -0.5 39.5t-15.5 41t-35.5 32.5t-61.5 13h-109l-30 -251h104zM454 296l151 -296
h-136l-154 293zM395 947q29 -1 53.5 -12.5t43 -34t28.5 -57.5t11 -84h-75q0 39 -9.5 63t-24.5 36.5t-37 13.5q-25 2 -42.5 -11.5t-29 -39t-20.5 -62.5h-75q12 68 36.5 110.5t60.5 61.5t80 16z" />
    <glyph glyph-name="uni0213" unicode="&#x213;" horiz-adv-x="393" 
d="M204 423l-6 -99q22 38 54 64.5t67 40t62 13.5l-19 -112q-47 4 -85.5 -17t-62 -56.5t-28.5 -74.5l-23 -182h-111l51 423h101zM216 696q29 -1 53.5 -12.5t43 -34t28.5 -57.5t11 -84h-75q0 39 -9.5 63t-24.5 36.5t-37 13.5q-25 2 -42.5 -11.5t-29 -39t-20.5 -62.5h-75
q12 68 36.5 110.5t60.5 61.5t80 16z" />
    <glyph glyph-name="uni0214" unicode="&#x214;" horiz-adv-x="766" 
d="M224 262q-5 -43 11.5 -79t50.5 -57t80 -21q47 0 86 21t65 57t31 79l57 466h120l-57 -469q-10 -79 -54.5 -139.5t-112.5 -94t-149 -33.5v0q-78 0 -138 33.5t-90 94t-20 139.5l57 469h120zM367 921l65 -134h-70l-119 134h124zM514 921l65 -134h-70l-119 134h124z" />
    <glyph glyph-name="uni0215" unicode="&#x215;" horiz-adv-x="561" 
d="M185 -18q-58 0 -92 35t-28 91l38 315h112l-34 -275q-2 -31 12 -50.5t48 -19.5t62.5 20.5t47.5 56.5t24 81l23 187h112l-52 -423h-101l2 94l4 -15q-17 -27 -44 -49.5t-61 -35t-73 -12.5zM234 670l65 -134h-70l-119 134h124zM381 670l65 -134h-70l-119 134h124z" />
    <glyph glyph-name="uni0216" unicode="&#x216;" horiz-adv-x="766" 
d="M224 262q-5 -43 11.5 -79t50.5 -57t80 -21q47 0 86 21t65 57t31 79l57 466h120l-57 -469q-10 -79 -54.5 -139.5t-112.5 -94t-149 -33.5v0q-78 0 -138 33.5t-90 94t-20 139.5l57 469h120zM474 947q29 -1 53.5 -12.5t43 -34t28.5 -57.5t11 -84h-75q0 39 -9.5 63t-24.5 36.5
t-37 13.5q-25 2 -42.5 -11.5t-29 -39t-20.5 -62.5h-75q12 68 36.5 110.5t60.5 61.5t80 16z" />
    <glyph glyph-name="uni0217" unicode="&#x217;" horiz-adv-x="561" 
d="M185 -18q-58 0 -92 35t-28 91l38 315h112l-34 -275q-2 -31 12 -50.5t48 -19.5t62.5 20.5t47.5 56.5t24 81l23 187h112l-52 -423h-101l2 94l4 -15q-17 -27 -44 -49.5t-61 -35t-73 -12.5zM341 696q29 -1 53.5 -12.5t43 -34t28.5 -57.5t11 -84h-75q0 39 -9.5 63t-24.5 36.5
t-37 13.5q-25 2 -42.5 -11.5t-29 -39t-20.5 -62.5h-75q12 68 36.5 110.5t60.5 61.5t80 16z" />
    <glyph glyph-name="uni0218" unicode="&#x218;" horiz-adv-x="574" 
d="M522 567q-37 23 -80 40t-83 19q-31 1 -53.5 -5.5t-38 -18.5t-23.5 -28t-10 -34q-2 -29 16.5 -52t50.5 -41.5t67 -34.5q42 -18 80 -44.5t60 -68t15 -107.5q-4 -39 -23 -76t-52 -65.5t-80.5 -44t-109.5 -12.5q-45 2 -87.5 13.5t-80 31t-69.5 47.5l62 87q23 -20 52.5 -37
t62 -27.5t63.5 -12.5q36 0 66.5 11t51 34t23.5 57q3 29 -13 51t-42 39.5t-57 31.5q-32 15 -65 33t-60.5 42.5t-42 59.5t-9.5 82q7 61 39 104.5t84.5 66t117.5 21.5q52 -2 92.5 -13.5t72.5 -27.5t58 -36zM247 -215l-57 39q24 20 34.5 58.5t5.5 75.5l98 -1q5 -28 -3.5 -61
t-28 -63t-49.5 -48z" />
    <glyph glyph-name="uni0219" unicode="&#x219;" horiz-adv-x="424" 
d="M190 -9q-19 0 -50 5.5t-63.5 22.5t-57.5 50l55 59q23 -26 44 -38.5t39.5 -16t32.5 -3.5q34 0 47 16.5t13 31.5q0 18 -13 29t-33 19t-42 16q-47 19 -70 49t-23 69q0 20 7.5 43.5t25 45t48 36t76.5 14.5q24 0 51.5 -4t55.5 -16t53 -35l-51 -65q-20 23 -44 33t-49 10
q-21 0 -34 -7t-19 -17.5t-6 -21.5q1 -18 14.5 -29t34 -19t41.5 -17q29 -11 50.5 -27.5t32.5 -40t8 -56.5q-2 -25 -14 -49t-32.5 -44t-52.5 -31.5t-75 -11.5zM132 -215l-57 39q24 20 34.5 58.5t5.5 75.5l98 -1q5 -28 -3.5 -61t-28 -63t-49.5 -48z" />
    <glyph glyph-name="uni021A" unicode="&#x21a;" horiz-adv-x="583" 
d="M109 728h487l-15 -114h-185l-76 -614h-120l76 614h-181zM224 -215l-57 39q24 20 34.5 58.5t5.5 75.5l98 -1q5 -28 -3.5 -61t-28 -63t-49.5 -48z" />
    <glyph glyph-name="uni021B" unicode="&#x21b;" horiz-adv-x="373" 
d="M163 609h112l-22 -186h110l-10 -88h-111l-41 -335h-112l41 335h-73l11 88h73zM126 -215l-57 39q24 20 34.5 58.5t5.5 75.5l98 -1q5 -28 -3.5 -61t-28 -63t-49.5 -48z" />
    <glyph glyph-name="uni022A" unicode="&#x22a;" horiz-adv-x="856" 
d="M423 -7q-64 0 -126.5 21t-112.5 64t-80 108t-30 152q0 66 24.5 136t74 129t124 95.5t173.5 36.5q65 0 127 -21t112.5 -64t80 -108t29.5 -153q0 -66 -24.5 -135.5t-74 -128.5t-123.5 -95.5t-174 -36.5zM425 105q72 0 124 26t85 67.5t49 90t16 94.5q0 49 -17.5 92t-49 76.5
t-74 52.5t-93.5 19q-72 0 -123.5 -25.5t-84.5 -67.5t-48 -90.5t-15 -94.5q0 -48 17 -91.5t47.5 -77t73 -52.5t93.5 -19zM331 841q3 26 24 42.5t43 15.5q21 -1 38 -19.5t14 -45.5t-23.5 -42.5t-41.5 -14.5q-23 1 -40 19.5t-14 44.5v0zM523 841q3 26 23.5 42.5t42.5 15.5
t38.5 -20t13.5 -45q-3 -27 -23.5 -42.5t-41.5 -14.5q-23 1 -39.5 19t-13.5 45v0zM389 1016h234l-7 -63h-234z" />
    <glyph glyph-name="uni022B" unicode="&#x22b;" horiz-adv-x="557" 
d="M270 -11q-39 0 -79.5 13t-74 38.5t-54 65t-20.5 92.5q0 39 13 81.5t42 79t76.5 59t115.5 22.5q58 0 109.5 -24t84.5 -70.5t33 -113.5q0 -26 -7.5 -58.5t-24 -65t-45 -59.5t-70.5 -43.5t-99 -16.5zM273 82q48 0 76 23.5t40.5 57.5t12.5 64q0 35 -11.5 58.5t-30 37.5
t-39 20t-36.5 6q-46 0 -75 -23t-42 -57t-13 -66q0 -45 19 -71.5t46.5 -38t52.5 -11.5zM150 551q3 26 24 42.5t43 15.5q21 -1 38 -19.5t14 -45.5t-23.5 -42.5t-41.5 -14.5q-23 1 -40 19.5t-14 44.5v0zM342 551q3 26 23.5 42.5t42.5 15.5t38.5 -20t13.5 -45
q-3 -27 -23.5 -42.5t-41.5 -14.5q-23 1 -39.5 19t-13.5 45v0zM208 726h234l-7 -63h-234z" />
    <glyph glyph-name="uni022C" unicode="&#x22c;" horiz-adv-x="856" 
d="M423 -7q-64 0 -126.5 21t-112.5 64t-80 108t-30 152q0 66 24.5 136t74 129t124 95.5t173.5 36.5q65 0 127 -21t112.5 -64t80 -108t29.5 -153q0 -66 -24.5 -135.5t-74 -128.5t-123.5 -95.5t-174 -36.5zM425 105q72 0 124 26t85 67.5t49 90t16 94.5q0 49 -17.5 92t-49 76.5
t-74 52.5t-93.5 19q-72 0 -123.5 -25.5t-84.5 -67.5t-48 -90.5t-15 -94.5q0 -48 17 -91.5t47.5 -77t73 -52.5t93.5 -19zM554 752q-39 2 -62 20.5t-42 37.5q-12 13 -23.5 23t-27.5 11q-14 1 -25.5 -9.5t-18 -28.5t-8.5 -42l-69 6q2 45 20 82t48 58.5t71 18.5
q29 -1 49.5 -18.5t37.5 -36.5q15 -16 28 -28t28 -13q16 -1 25.5 10.5t14.5 31t7 42.5l69 -5q1 -49 -16 -86t-45.5 -56t-60.5 -18zM403 1034h234l-7 -63h-234z" />
    <glyph glyph-name="uni022D" unicode="&#x22d;" horiz-adv-x="557" 
d="M270 -11q-39 0 -79.5 13t-74 38.5t-54 65t-20.5 92.5q0 39 13 81.5t42 79t76.5 59t115.5 22.5q58 0 109.5 -24t84.5 -70.5t33 -113.5q0 -26 -7.5 -58.5t-24 -65t-45 -59.5t-70.5 -43.5t-99 -16.5zM273 82q48 0 76 23.5t40.5 57.5t12.5 64q0 35 -11.5 58.5t-30 37.5
t-39 20t-36.5 6q-46 0 -75 -23t-42 -57t-13 -66q0 -45 19 -71.5t46.5 -38t52.5 -11.5zM373 462q-39 2 -62 20.5t-42 37.5q-12 13 -23.5 23t-27.5 11q-14 1 -25.5 -9.5t-18 -28.5t-8.5 -42l-69 6q2 45 20 82t48 58.5t71 18.5q29 -1 49.5 -18.5t37.5 -36.5q15 -16 28 -28
t28 -13q16 -1 25.5 10.5t14.5 31t7 42.5l69 -5q1 -49 -16 -86t-45.5 -56t-60.5 -18zM222 744h234l-7 -63h-234z" />
    <glyph glyph-name="uni0230" unicode="&#x230;" horiz-adv-x="856" 
d="M423 -7q-64 0 -126.5 21t-112.5 64t-80 108t-30 152q0 66 24.5 136t74 129t124 95.5t173.5 36.5q65 0 127 -21t112.5 -64t80 -108t29.5 -153q0 -66 -24.5 -135.5t-74 -128.5t-123.5 -95.5t-174 -36.5zM425 105q72 0 124 26t85 67.5t49 90t16 94.5q0 49 -17.5 92t-49 76.5
t-74 52.5t-93.5 19q-72 0 -123.5 -25.5t-84.5 -67.5t-48 -90.5t-15 -94.5q0 -48 17 -91.5t47.5 -77t73 -52.5t93.5 -19zM425 869q1 26 20 44.5t48 18.5q22 0 42 -13t20 -42q-1 -27 -20 -45.5t-48 -18.5q-21 0 -41.5 13.5t-20.5 42.5zM396 1059h234l-7 -63h-234z" />
    <glyph glyph-name="uni0231" unicode="&#x231;" horiz-adv-x="557" 
d="M270 -11q-39 0 -79.5 13t-74 38.5t-54 65t-20.5 92.5q0 39 13 81.5t42 79t76.5 59t115.5 22.5q58 0 109.5 -24t84.5 -70.5t33 -113.5q0 -26 -7.5 -58.5t-24 -65t-45 -59.5t-70.5 -43.5t-99 -16.5zM273 82q48 0 76 23.5t40.5 57.5t12.5 64q0 35 -11.5 58.5t-30 37.5
t-39 20t-36.5 6q-46 0 -75 -23t-42 -57t-13 -66q0 -45 19 -71.5t46.5 -38t52.5 -11.5zM244 579q1 26 20 44.5t48 18.5q22 0 42 -13t20 -42q-1 -27 -20 -45.5t-48 -18.5q-21 0 -41.5 13.5t-20.5 42.5zM215 769h234l-7 -63h-234z" />
    <glyph glyph-name="uni0232" unicode="&#x232;" horiz-adv-x="704" 
d="M295 236l-208 492h142l157 -392l-35 -2l250 394h144l-333 -492l-29 -236h-117zM302 850h234l-7 -63h-234z" />
    <glyph glyph-name="uni0233" unicode="&#x233;" horiz-adv-x="513" 
d="M73 -203l357 626h103l-350 -626h-110zM207 -3l-153 426h126l120 -369zM198 545h234l-7 -63h-234z" />
    <glyph glyph-name="uni0237" unicode="&#x237;" horiz-adv-x="279" 
d="M-22 -138q35 23 57 56.5t28 81.5l53 423h112l-53 -423q-9 -72 -43 -124.5t-99 -82.5z" />
    <glyph glyph-name="uni0259" unicode="&#x259;" horiz-adv-x="535" 
d="M254 338q-22 0 -43 -7.5t-42 -19.5l-40 86q31 17 67 26.5t70 9.5q68 0 119 -24.5t79.5 -72.5t28.5 -119q0 -40 -15 -81t-45 -75.5t-77 -56t-110 -21.5q-38 0 -73 9.5t-64.5 32.5t-50 63t-29.5 100l354 94l18 -65l-291 -80l39 14q10 -37 36.5 -58.5t63.5 -21.5q44 0 73 19
t44 49.5t15 64.5q0 49 -19 78.5t-48.5 42.5t-59.5 13z" />
    <glyph glyph-name="uni0272" unicode="&#x272;" horiz-adv-x="571" 
d="M35 -204l-57 69q32 24 52 58t26 81l4 38h113l-6 -44q-8 -69 -44 -119.5t-88 -82.5zM205 423l-1 -91l-2 12q27 44 73.5 70.5t106.5 26.5t94.5 -35t29.5 -92l-38 -314h-112l33 274q3 32 -12 51.5t-52 20.5q-34 0 -63 -20.5t-48.5 -56t-25.5 -81.5l-23 -188h-112l51 423h101
z" />
    <glyph glyph-name="uni02BC" unicode="&#x2bc;" horiz-adv-x="204" 
d="M224 714q-8 -63 -17.5 -125.5t-17.5 -126.5h-97l31 252h101z" />
    <glyph glyph-name="circumflex" unicode="&#x2c6;" horiz-adv-x="470" 
d="M346 487l-73 93l29 8l-98 -101h-101l192 183h1l151 -183h-101z" />
    <glyph glyph-name="caron" unicode="&#x2c7;" horiz-adv-x="468" 
d="M235 670l74 -93l-30 -8l98 101h102l-193 -183h-1l-151 183h101z" />
    <glyph glyph-name="uni02C9" unicode="&#x2c9;" horiz-adv-x="406" 
d="M138 725h234l-7 -63h-234z" />
    <glyph glyph-name="breve" unicode="&#x2d8;" horiz-adv-x="450" 
d="M265 477q-29 1 -53.5 13t-43 34.5t-28.5 57t-11 83.5h75q1 -38 10 -62.5t24.5 -36.5t36.5 -14q25 0 42.5 13t29.5 39t20 61h75q-12 -67 -37 -109.5t-60 -61.5t-80 -17z" />
    <glyph glyph-name="dotaccent" unicode="&#x2d9;" horiz-adv-x="250" 
d="M116 584q1 26 20 44.5t48 18.5q22 0 42 -13t20 -42q-1 -27 -20 -45.5t-48 -18.5q-21 0 -41.5 13.5t-20.5 42.5z" />
    <glyph glyph-name="ring" unicode="&#x2da;" horiz-adv-x="345" 
d="M123 549q4 44 35.5 68.5t75.5 22.5q43 -3 68.5 -30t20.5 -70q-3 -43 -35 -68t-75 -23t-69 30t-21 70zM182 544q-1 -19 9 -30.5t28 -13.5q19 -1 31.5 10.5t14.5 31.5q1 21 -8.5 32.5t-28.5 11.5q-18 1 -31 -9.5t-15 -32.5z" />
    <glyph glyph-name="ogonek" unicode="&#x2db;" horiz-adv-x="390" 
d="M172 -222q-49 3 -82.5 33t-33.5 78q0 20 9.5 44t31.5 45.5t58 34.5l123 -18q-56 -20 -90.5 -40.5t-37.5 -49.5q-3 -25 10.5 -36t31.5 -12q20 -1 38.5 10.5t35.5 33.5l35 -59q-23 -29 -59.5 -47t-69.5 -17z" />
    <glyph glyph-name="tilde" unicode="&#x2dc;" horiz-adv-x="598" 
d="M365 452q-38 2 -61.5 20.5t-41.5 37.5q-12 13 -23.5 23.5t-27.5 11.5q-15 1 -26.5 -10t-17.5 -29t-8 -42l-69 6q2 45 19.5 82t48 58.5t70.5 18.5q30 -1 50.5 -18.5t37.5 -36.5q14 -16 27 -28t29 -13q15 -1 25 10.5t15 31t6 42.5l70 -5q0 -49 -17 -86t-45 -56t-61 -18z
" />
    <glyph glyph-name="hungarumlaut" unicode="&#x2dd;" horiz-adv-x="525" 
d="M332 621q-35 -33 -70 -67t-70 -67h-69q26 33 53 67t55 67h101zM528 621q-34 -33 -69 -67t-70 -67h-70q27 33 54 67t55 67h100z" />
    <glyph glyph-name="gravecomb" unicode="&#x300;" 
d="M161 621l65 -134h-70l-119 134h124z" />
    <glyph glyph-name="acutecomb" unicode="&#x301;" 
d="M358 621l-139 -134h-69l84 134h124z" />
    <glyph glyph-name="uni0302" unicode="&#x302;" 
d="M346 487l-73 93l29 8l-98 -101h-101l192 183h1l151 -183h-101z" />
    <glyph glyph-name="tildecomb" unicode="&#x303;" 
d="M399 452q-39 2 -62 20.5t-42 37.5q-12 13 -23.5 23t-27.5 11q-14 1 -25.5 -9.5t-18 -28.5t-8.5 -42l-69 6q2 45 20 82t48 58.5t71 18.5q29 -1 49.5 -18.5t37.5 -36.5q15 -16 28 -28t28 -13q16 -1 25.5 10.5t14.5 31t7 42.5l69 -5q1 -49 -16 -86t-45.5 -56t-60.5 -18z" />
    <glyph glyph-name="uni0304" unicode="&#x304;" 
d="M153 545h234l-7 -63h-234z" />
    <glyph glyph-name="uni0306" unicode="&#x306;" 
d="M298 477q-29 1 -53.5 13t-43 34.5t-28.5 57t-11 83.5h75q1 -38 10 -62.5t24.5 -36.5t36.5 -14q25 0 42.5 13t29.5 39t20 61h75q-12 -67 -37 -109.5t-60 -61.5t-80 -17z" />
    <glyph glyph-name="uni0307" unicode="&#x307;" 
d="M130 579q1 26 20 44.5t48 18.5q22 0 42 -13t20 -42q-1 -27 -20 -45.5t-48 -18.5q-21 0 -41.5 13.5t-20.5 42.5z" />
    <glyph glyph-name="uni0308" unicode="&#x308;" 
d="M71 541q3 26 24 42.5t43 15.5q21 -1 38 -19.5t14 -45.5t-23.5 -42.5t-41.5 -14.5q-23 1 -40 19.5t-14 44.5v0zM263 541q3 26 23.5 42.5t42.5 15.5t38.5 -20t13.5 -45q-3 -27 -23.5 -42.5t-41.5 -14.5q-23 1 -39.5 19t-13.5 45v0z" />
    <glyph glyph-name="hookabovecomb" unicode="&#x309;" 
d="M151 595q19 13 33 25.5t16 29.5t-4.5 27.5t-26.5 10.5q-13 0 -24 -7t-19 -19l-38 27q19 31 45.5 45.5t55.5 14.5q41 -1 59 -24t17 -53q0 -26 -21 -55t-73 -53z" />
    <glyph glyph-name="uni030A" unicode="&#x30a;" 
d="M123 549q4 44 35.5 68.5t75.5 22.5q43 -3 68.5 -30t20.5 -70q-3 -43 -35 -68t-75 -23t-69 30t-21 70zM182 544q-1 -19 9 -30.5t28 -13.5q19 -1 31.5 10.5t14.5 31.5q1 21 -8.5 32.5t-28.5 11.5q-18 1 -31 -9.5t-15 -32.5z" />
    <glyph glyph-name="uni030B" unicode="&#x30b;" 
d="M332 621q-35 -33 -70 -67t-70 -67h-69q26 33 53 67t55 67h101zM528 621q-34 -33 -69 -67t-70 -67h-70q27 33 54 67t55 67h100z" />
    <glyph glyph-name="uni030C" unicode="&#x30c;" 
d="M235 670l74 -93l-30 -8l98 101h102l-193 -183h-1l-151 183h101z" />
    <glyph glyph-name="uni030F" unicode="&#x30f;" 
d="M161 621l65 -134h-70l-119 134h124zM308 621l65 -134h-70l-119 134h124z" />
    <glyph glyph-name="uni0311" unicode="&#x311;" 
d="M416 680q29 -1 53.5 -12.5t43 -34t28.5 -57.5t11 -84h-75q0 39 -9.5 63t-24.5 36.5t-37 13.5q-25 2 -42.5 -11.5t-29 -39t-20.5 -62.5h-75q12 68 36.5 110.5t60.5 61.5t80 16z" />
    <glyph glyph-name="uni0312" unicode="&#x312;" 
d="M152 714l57 -39q-23 -20 -34 -58.5t-6 -75.5l-98 1q-4 28 4.5 61.5t28 63.5t48.5 47z" />
    <glyph glyph-name="uni031B" unicode="&#x31b;" 
d="M123 734q39 -3 63 17t37 66h83q-16 -63 -44.5 -97t-65.5 -45.5t-81 -8.5z" />
    <glyph glyph-name="dotbelowcomb" unicode="&#x323;" 
d="M-4 -102q1 26 20 44.5t48 18.5q22 0 42 -13t20 -42q-1 -27 -20 -45.5t-48 -18.5q-21 0 -41.5 13.5t-20.5 42.5z" />
    <glyph glyph-name="uni0324" unicode="&#x324;" 
d="M-43 -109q3 26 24 42.5t43 15.5q21 -1 38 -19.5t14 -45.5t-23.5 -42.5t-41.5 -14.5q-23 1 -40 19.5t-14 44.5v0zM149 -109q3 26 23.5 42.5t42.5 15.5t38.5 -20t13.5 -45q-3 -27 -23.5 -42.5t-41.5 -14.5q-23 1 -39.5 19t-13.5 45v0z" />
    <glyph glyph-name="uni0326" unicode="&#x326;" 
d="M81 -192l-57 39q24 20 34.5 58.5t5.5 75.5l98 -1q5 -28 -3.5 -61t-28 -63t-49.5 -48z" />
    <glyph glyph-name="uni0327" unicode="&#x327;" 
d="M101 -141q9 -12 24.5 -20.5t36.5 -10.5q22 -1 43 8.5t24 30.5q2 14 -9 27.5t-46 15.5q-16 1 -33 -1.5t-31 -6.5l-11 55l68 46l85 -2l-77 -77l-19 29q11 3 25 4.5t27 1.5q54 -2 87 -26.5t27 -70.5q-4 -35 -27.5 -56t-57.5 -30.5t-71 -7.5q-40 3 -65.5 16.5t-39.5 30.5z
" />
    <glyph glyph-name="uni0328" unicode="&#x328;" 
d="M172 -222q-49 3 -82.5 33t-33.5 78q0 20 9.5 44t31.5 45.5t58 34.5l123 -18q-56 -20 -90.5 -40.5t-37.5 -49.5q-3 -25 10.5 -36t31.5 -12q20 -1 38.5 10.5t35.5 33.5l35 -59q-23 -29 -59.5 -47t-69.5 -17z" />
    <glyph glyph-name="uni032E" unicode="&#x32e;" 
d="M172 -218q-29 1 -53.5 13t-43 34.5t-28.5 57t-11 83.5h75q1 -38 10 -62.5t24.5 -36.5t36.5 -14q25 0 42.5 13t29.5 39t20 61h75q-12 -67 -37 -109.5t-60 -61.5t-80 -17z" />
    <glyph glyph-name="uni0331" unicode="&#x331;" 
d="M46 -71h234l-7 -63h-234z" />
    <glyph glyph-name="uni0335" unicode="&#x335;" 
d="M59 320h265l-15 -113h-265z" />
    <glyph glyph-name="uni0394" unicode="&#x394;" horiz-adv-x="736" 
d="M-5 0l435 758h5l248 -758h-688zM544 60l-179 561l96 -15l-321 -559l-60 65h530z" />
    <glyph glyph-name="uni03BC" unicode="&#x3bc;" horiz-adv-x="561" 
d="M185 -18q-58 0 -92 35t-28 91l38 315h112l-34 -275q-2 -31 12 -50.5t48 -19.5t62.5 20.5t47.5 56.5t24 81l23 187h112l-52 -423h-101l2 94l4 -15q-17 -27 -44 -49.5t-61 -35t-73 -12.5zM97 373h101l-75 -609h-101z" />
    <glyph glyph-name="pi" unicode="&#x3c0;" horiz-adv-x="405" 
d="M51 357h387l-12 -97h-57l-32 -260h-100l32 260h-73l-32 -260h-101l32 260h-56z" />
    <glyph glyph-name="Wgrave" unicode="&#x1e80;" horiz-adv-x="1017" 
d="M102 724h135l117 -515l-18 8l184 358l35 -159l-255 -450zM458 724h116l138 -505l-22 4l227 501h124l-377 -756zM570 926l65 -134h-70l-119 134h124z" />
    <glyph glyph-name="wgrave" unicode="&#x1e81;" horiz-adv-x="679" 
d="M436 -13l-99 280l-154 -279h-7l-138 435h110l86 -265l-39 7l114 196l-21 62h96l81 -250l-22 -2l133 252h110l-243 -436h-7zM340 621l65 -134h-70l-119 134h124z" />
    <glyph glyph-name="Wacute" unicode="&#x1e82;" horiz-adv-x="1017" 
d="M102 724h135l117 -515l-18 8l184 358l35 -159l-255 -450zM458 724h116l138 -505l-22 4l227 501h124l-377 -756zM767 926l-139 -134h-69l84 134h124z" />
    <glyph glyph-name="wacute" unicode="&#x1e83;" horiz-adv-x="679" 
d="M436 -13l-99 280l-154 -279h-7l-138 435h110l86 -265l-39 7l114 196l-21 62h96l81 -250l-22 -2l133 252h110l-243 -436h-7zM544 621l-139 -134h-69l84 134h124z" />
    <glyph glyph-name="Wdieresis" unicode="&#x1e84;" horiz-adv-x="1017" 
d="M102 724h135l117 -515l-18 8l184 358l35 -159l-255 -450zM458 724h116l138 -505l-22 4l227 501h124l-377 -756zM454 846q3 26 24 42.5t43 15.5q21 -1 38 -19.5t14 -45.5t-23.5 -42.5t-41.5 -14.5q-23 1 -40 19.5t-14 44.5v0zM646 846q3 26 23.5 42.5t42.5 15.5t38.5 -20
t13.5 -45q-3 -27 -23.5 -42.5t-41.5 -14.5q-23 1 -39.5 19t-13.5 45v0z" />
    <glyph glyph-name="wdieresis" unicode="&#x1e85;" horiz-adv-x="679" 
d="M436 -13l-99 280l-154 -279h-7l-138 435h110l86 -265l-39 7l114 196l-21 62h96l81 -250l-22 -2l133 252h110l-243 -436h-7zM223 541q3 26 24 42.5t43 15.5q21 -1 38 -19.5t14 -45.5t-23.5 -42.5t-41.5 -14.5q-23 1 -40 19.5t-14 44.5v0zM415 541q3 26 23.5 42.5
t42.5 15.5t38.5 -20t13.5 -45q-3 -27 -23.5 -42.5t-41.5 -14.5q-23 1 -39.5 19t-13.5 45v0z" />
    <glyph glyph-name="uni1E9E" unicode="&#x1e9e;" horiz-adv-x="830" 
d="M540 -8q-63 0 -121.5 18t-104.5 53l62 91q34 -26 80 -43t87 -17q24 0 50 9.5t46 30.5t25 56q3 26 -10 45t-36.5 34.5t-49.5 31.5q-34 19 -68 45.5t-54.5 64.5t-14.5 89q6 53 32 92t68 62.5t97 26.5q27 0 42.5 -6.5t25.5 -17.5l-43 -57q-34 39 -81.5 57.5t-100.5 18.5
q-61 0 -109 -28.5t-80.5 -90t-43.5 -157.5l-50 -400h-116l49 404q14 108 55 190.5t113.5 128.5t181.5 46q55 0 108 -15t94.5 -38t61.5 -49l-42 -86q-6 6 -20 13.5t-36 7.5q-23 0 -41.5 -11t-31 -29t-15.5 -42q-4 -30 10.5 -51.5t38 -38t48.5 -33.5q27 -16 53.5 -33.5
t48 -40.5t32 -55t4.5 -78q-5 -53 -36.5 -98t-84 -72.5t-123.5 -27.5z" />
    <glyph glyph-name="uni1EA0" unicode="&#x1ea0;" horiz-adv-x="699" 
d="M109 0h-114l415 758h7l229 -758h-134l-157 574l91 56zM230 271h250l27 -100h-324zM242 -102q1 26 20 44.5t48 18.5q22 0 42 -13t20 -42q-1 -27 -20 -45.5t-48 -18.5q-21 0 -41.5 13.5t-20.5 42.5z" />
    <glyph glyph-name="uni1EA1" unicode="&#x1ea1;" horiz-adv-x="601" 
d="M221 -9q-45 0 -86.5 24.5t-67 71t-25.5 110.5q0 45 16 88t47 78.5t75 57t99 21.5q44 0 74 -11.5t49 -30t31 -41.5l-9 -19l22 83h103l-51 -423h-112l12 101l7 -27q-4 -5 -18 -18.5t-37 -28.5t-55.5 -25.5t-73.5 -10.5zM283 81q26 0 49.5 10.5t42.5 30t31 46.5l11 92
q-5 27 -21 47.5t-41 31.5t-56 11q-39 0 -65.5 -13.5t-43.5 -35t-24.5 -45.5t-7.5 -46q0 -38 15.5 -67t44 -45.5t65.5 -16.5zM189 -117q1 26 20 44.5t48 18.5q22 0 42 -13t20 -42q-1 -27 -20 -45.5t-48 -18.5q-21 0 -41.5 13.5t-20.5 42.5z" />
    <glyph glyph-name="uni1EA2" unicode="&#x1ea2;" horiz-adv-x="699" 
d="M109 0h-114l415 758h7l229 -758h-134l-157 574l91 56zM230 271h250l27 -100h-324zM398 818q19 13 33 25.5t16 29.5t-4.5 27.5t-26.5 10.5q-13 0 -24 -7t-19 -19l-38 27q19 31 45.5 45.5t55.5 14.5q41 -1 59 -24t17 -53q0 -26 -21 -55t-73 -53z" />
    <glyph glyph-name="uni1EA3" unicode="&#x1ea3;" horiz-adv-x="601" 
d="M221 -9q-45 0 -86.5 24.5t-67 71t-25.5 110.5q0 45 16 88t47 78.5t75 57t99 21.5q44 0 74 -11.5t49 -30t31 -41.5l-9 -19l22 83h103l-51 -423h-112l12 101l7 -27q-4 -5 -18 -18.5t-37 -28.5t-55.5 -25.5t-73.5 -10.5zM283 81q26 0 49.5 10.5t42.5 30t31 46.5l11 92
q-5 27 -21 47.5t-41 31.5t-56 11q-39 0 -65.5 -13.5t-43.5 -35t-24.5 -45.5t-7.5 -46q0 -38 15.5 -67t44 -45.5t65.5 -16.5zM322 526q19 13 33 25.5t16 29.5t-4.5 27.5t-26.5 10.5q-13 0 -24 -7t-19 -19l-38 27q19 31 45.5 45.5t55.5 14.5q41 -1 59 -24t17 -53
q0 -26 -21 -55t-73 -53z" />
    <glyph glyph-name="uni1EA4" unicode="&#x1ea4;" horiz-adv-x="699" 
d="M109 0h-114l415 758h7l229 -758h-134l-157 574l91 56zM230 271h250l27 -100h-324zM461 805l-73 93l29 8l-98 -101h-101l192 183h1l151 -183h-101zM702 1064l-139 -134h-69l84 134h124z" />
    <glyph glyph-name="uni1EA5" unicode="&#x1ea5;" horiz-adv-x="601" 
d="M221 -9q-45 0 -86.5 24.5t-67 71t-25.5 110.5q0 45 16 88t47 78.5t75 57t99 21.5q44 0 74 -11.5t49 -30t31 -41.5l-9 -19l22 83h103l-51 -423h-112l12 101l7 -27q-4 -5 -18 -18.5t-37 -28.5t-55.5 -25.5t-73.5 -10.5zM283 81q26 0 49.5 10.5t42.5 30t31 46.5l11 92
q-5 27 -21 47.5t-41 31.5t-56 11q-39 0 -65.5 -13.5t-43.5 -35t-24.5 -45.5t-7.5 -46q0 -38 15.5 -67t44 -45.5t65.5 -16.5zM386 513l-73 93l29 8l-98 -101h-101l192 183h1l151 -183h-101zM627 772l-139 -134h-69l84 134h124z" />
    <glyph glyph-name="uni1EA6" unicode="&#x1ea6;" horiz-adv-x="699" 
d="M109 0h-114l415 758h7l229 -758h-134l-157 574l91 56zM230 271h250l27 -100h-324zM492 791l-73 93l29 8l-98 -101h-101l192 183h1l151 -183h-101zM268 1035l65 -134h-70l-119 134h124z" />
    <glyph glyph-name="uni1EA7" unicode="&#x1ea7;" horiz-adv-x="601" 
d="M221 -9q-45 0 -86.5 24.5t-67 71t-25.5 110.5q0 45 16 88t47 78.5t75 57t99 21.5q44 0 74 -11.5t49 -30t31 -41.5l-9 -19l22 83h103l-51 -423h-112l12 101l7 -27q-4 -5 -18 -18.5t-37 -28.5t-55.5 -25.5t-73.5 -10.5zM283 81q26 0 49.5 10.5t42.5 30t31 46.5l11 92
q-5 27 -21 47.5t-41 31.5t-56 11q-39 0 -65.5 -13.5t-43.5 -35t-24.5 -45.5t-7.5 -46q0 -38 15.5 -67t44 -45.5t65.5 -16.5zM416 499l-73 93l29 8l-98 -101h-101l192 183h1l151 -183h-101zM192 743l65 -134h-70l-119 134h124z" />
    <glyph glyph-name="uni1EA8" unicode="&#x1ea8;" horiz-adv-x="699" 
d="M109 0h-114l415 758h7l229 -758h-134l-157 574l91 56zM230 271h250l27 -100h-324zM482 791l-73 93l29 8l-98 -101h-101l192 183h1l151 -183h-101zM550 926q19 13 33 25.5t16 29.5t-4.5 27.5t-26.5 10.5q-13 0 -24 -7t-19 -19l-38 27q19 31 45.5 45.5t55.5 14.5
q41 -1 59 -24t17 -53q0 -26 -21 -55t-73 -53z" />
    <glyph glyph-name="uni1EA9" unicode="&#x1ea9;" horiz-adv-x="601" 
d="M221 -9q-45 0 -86.5 24.5t-67 71t-25.5 110.5q0 45 16 88t47 78.5t75 57t99 21.5q44 0 74 -11.5t49 -30t31 -41.5l-9 -19l22 83h103l-51 -423h-112l12 101l7 -27q-4 -5 -18 -18.5t-37 -28.5t-55.5 -25.5t-73.5 -10.5zM283 81q26 0 49.5 10.5t42.5 30t31 46.5l11 92
q-5 27 -21 47.5t-41 31.5t-56 11q-39 0 -65.5 -13.5t-43.5 -35t-24.5 -45.5t-7.5 -46q0 -38 15.5 -67t44 -45.5t65.5 -16.5zM406 499l-73 93l29 8l-98 -101h-101l192 183h1l151 -183h-101zM474 634q19 13 33 25.5t16 29.5t-4.5 27.5t-26.5 10.5q-13 0 -24 -7t-19 -19l-38 27
q19 31 45.5 45.5t55.5 14.5q41 -1 59 -24t17 -53q0 -26 -21 -55t-73 -53z" />
    <glyph glyph-name="uni1EAA" unicode="&#x1eaa;" horiz-adv-x="699" 
d="M109 0h-114l415 758h7l229 -758h-134l-157 574l91 56zM230 271h250l27 -100h-324zM524 998q-34 2 -53.5 17.5t-35.5 32.5q-10 12 -20.5 21t-23.5 9q-13 1 -22.5 -8t-15.5 -25t-8 -36l-58 4q2 39 17 71t41.5 50t59.5 16q26 -1 43.5 -16.5t32.5 -31.5q12 -14 23 -24.5
t26 -10.5q19 -2 28.5 19.5t11.5 52.5l59 -4q0 -42 -14.5 -73.5t-38.5 -48.5t-52 -15zM499 789l-73 93l29 8l-98 -101h-101l192 183h1l151 -183h-101z" />
    <glyph glyph-name="uni1EAB" unicode="&#x1eab;" horiz-adv-x="601" 
d="M221 -9q-45 0 -86.5 24.5t-67 71t-25.5 110.5q0 45 16 88t47 78.5t75 57t99 21.5q44 0 74 -11.5t49 -30t31 -41.5l-9 -19l22 83h103l-51 -423h-112l12 101l7 -27q-4 -5 -18 -18.5t-37 -28.5t-55.5 -25.5t-73.5 -10.5zM283 81q26 0 49.5 10.5t42.5 30t31 46.5l11 92
q-5 27 -21 47.5t-41 31.5t-56 11q-39 0 -65.5 -13.5t-43.5 -35t-24.5 -45.5t-7.5 -46q0 -38 15.5 -67t44 -45.5t65.5 -16.5zM448 706q-34 2 -53.5 17.5t-35.5 32.5q-10 12 -20.5 21t-23.5 9q-13 1 -22.5 -8t-15.5 -25t-8 -36l-58 4q2 39 17 71t41.5 50t59.5 16
q26 -1 43.5 -16.5t32.5 -31.5q12 -14 23 -24.5t26 -10.5q19 -2 28.5 19.5t11.5 52.5l59 -4q0 -42 -14.5 -73.5t-38.5 -48.5t-52 -15zM423 497l-73 93l29 8l-98 -101h-101l192 183h1l151 -183h-101z" />
    <glyph glyph-name="uni1EAC" unicode="&#x1eac;" horiz-adv-x="699" 
d="M109 0h-114l415 758h7l229 -758h-134l-157 574l91 56zM230 271h250l27 -100h-324zM242 -102q1 26 20 44.5t48 18.5q22 0 42 -13t20 -42q-1 -27 -20 -45.5t-48 -18.5q-21 0 -41.5 13.5t-20.5 42.5zM494 805l-73 93l29 8l-98 -101h-101l192 183h1l151 -183h-101z" />
    <glyph glyph-name="uni1EAD" unicode="&#x1ead;" horiz-adv-x="601" 
d="M221 -9q-45 0 -86.5 24.5t-67 71t-25.5 110.5q0 45 16 88t47 78.5t75 57t99 21.5q44 0 74 -11.5t49 -30t31 -41.5l-9 -19l22 83h103l-51 -423h-112l12 101l7 -27q-4 -5 -18 -18.5t-37 -28.5t-55.5 -25.5t-73.5 -10.5zM283 81q26 0 49.5 10.5t42.5 30t31 46.5l11 92
q-5 27 -21 47.5t-41 31.5t-56 11q-39 0 -65.5 -13.5t-43.5 -35t-24.5 -45.5t-7.5 -46q0 -38 15.5 -67t44 -45.5t65.5 -16.5zM189 -117q1 26 20 44.5t48 18.5q22 0 42 -13t20 -42q-1 -27 -20 -45.5t-48 -18.5q-21 0 -41.5 13.5t-20.5 42.5zM418 513l-73 93l29 8l-98 -101
h-101l192 183h1l151 -183h-101z" />
    <glyph glyph-name="uni1EAE" unicode="&#x1eae;" horiz-adv-x="699" 
d="M109 0h-114l415 758h7l229 -758h-134l-157 574l91 56zM230 271h250l27 -100h-324zM416 795q-29 1 -53.5 13t-43 34.5t-28.5 57t-11 83.5h75q1 -38 10 -62.5t24.5 -36.5t36.5 -14q25 0 42.5 13t29.5 39t20 61h75q-12 -67 -37 -109.5t-60 -61.5t-80 -17zM615 1166
l-139 -134h-69l84 134h124z" />
    <glyph glyph-name="uni1EAF" unicode="&#x1eaf;" horiz-adv-x="601" 
d="M221 -9q-45 0 -86.5 24.5t-67 71t-25.5 110.5q0 45 16 88t47 78.5t75 57t99 21.5q44 0 74 -11.5t49 -30t31 -41.5l-9 -19l22 83h103l-51 -423h-112l12 101l7 -27q-4 -5 -18 -18.5t-37 -28.5t-55.5 -25.5t-73.5 -10.5zM283 81q26 0 49.5 10.5t42.5 30t31 46.5l11 92
q-5 27 -21 47.5t-41 31.5t-56 11q-39 0 -65.5 -13.5t-43.5 -35t-24.5 -45.5t-7.5 -46q0 -38 15.5 -67t44 -45.5t65.5 -16.5zM340 503q-29 1 -53.5 13t-43 34.5t-28.5 57t-11 83.5h75q1 -38 10 -62.5t24.5 -36.5t36.5 -14q25 0 42.5 13t29.5 39t20 61h75q-12 -67 -37 -109.5
t-60 -61.5t-80 -17zM539 874l-139 -134h-69l84 134h124z" />
    <glyph glyph-name="uni1EB0" unicode="&#x1eb0;" horiz-adv-x="699" 
d="M109 0h-114l415 758h7l229 -758h-134l-157 574l91 56zM230 271h250l27 -100h-324zM411 795q-29 1 -53.5 13t-43 34.5t-28.5 57t-11 83.5h75q1 -38 10 -62.5t24.5 -36.5t36.5 -14q25 0 42.5 13t29.5 39t20 61h75q-12 -67 -37 -109.5t-60 -61.5t-80 -17zM413 1146l65 -134
h-70l-119 134h124z" />
    <glyph glyph-name="uni1EB1" unicode="&#x1eb1;" horiz-adv-x="601" 
d="M221 -9q-45 0 -86.5 24.5t-67 71t-25.5 110.5q0 45 16 88t47 78.5t75 57t99 21.5q44 0 74 -11.5t49 -30t31 -41.5l-9 -19l22 83h103l-51 -423h-112l12 101l7 -27q-4 -5 -18 -18.5t-37 -28.5t-55.5 -25.5t-73.5 -10.5zM283 81q26 0 49.5 10.5t42.5 30t31 46.5l11 92
q-5 27 -21 47.5t-41 31.5t-56 11q-39 0 -65.5 -13.5t-43.5 -35t-24.5 -45.5t-7.5 -46q0 -38 15.5 -67t44 -45.5t65.5 -16.5zM335 503q-29 1 -53.5 13t-43 34.5t-28.5 57t-11 83.5h75q1 -38 10 -62.5t24.5 -36.5t36.5 -14q25 0 42.5 13t29.5 39t20 61h75q-12 -67 -37 -109.5
t-60 -61.5t-80 -17zM337 854l65 -134h-70l-119 134h124z" />
    <glyph glyph-name="uni1EB2" unicode="&#x1eb2;" horiz-adv-x="699" 
d="M109 0h-114l415 758h7l229 -758h-134l-157 574l91 56zM230 271h250l27 -100h-324zM413 786q-29 1 -53.5 13t-43 34.5t-28.5 57t-11 83.5h75q1 -38 10 -62.5t24.5 -36.5t36.5 -14q25 0 42.5 13t29.5 39t20 61h75q-12 -67 -37 -109.5t-60 -61.5t-80 -17zM425 1041
q19 13 33 25.5t16 29.5t-4.5 27.5t-26.5 10.5q-13 0 -24 -7t-19 -19l-38 27q19 31 45.5 45.5t55.5 14.5q41 -1 59 -24t17 -53q0 -26 -21 -55t-73 -53z" />
    <glyph glyph-name="uni1EB3" unicode="&#x1eb3;" horiz-adv-x="601" 
d="M221 -9q-45 0 -86.5 24.5t-67 71t-25.5 110.5q0 45 16 88t47 78.5t75 57t99 21.5q44 0 74 -11.5t49 -30t31 -41.5l-9 -19l22 83h103l-51 -423h-112l12 101l7 -27q-4 -5 -18 -18.5t-37 -28.5t-55.5 -25.5t-73.5 -10.5zM283 81q26 0 49.5 10.5t42.5 30t31 46.5l11 92
q-5 27 -21 47.5t-41 31.5t-56 11q-39 0 -65.5 -13.5t-43.5 -35t-24.5 -45.5t-7.5 -46q0 -38 15.5 -67t44 -45.5t65.5 -16.5zM337 494q-29 1 -53.5 13t-43 34.5t-28.5 57t-11 83.5h75q1 -38 10 -62.5t24.5 -36.5t36.5 -14q25 0 42.5 13t29.5 39t20 61h75q-12 -67 -37 -109.5
t-60 -61.5t-80 -17zM349 749q19 13 33 25.5t16 29.5t-4.5 27.5t-26.5 10.5q-13 0 -24 -7t-19 -19l-38 27q19 31 45.5 45.5t55.5 14.5q41 -1 59 -24t17 -53q0 -26 -21 -55t-73 -53z" />
    <glyph glyph-name="uni1EB4" unicode="&#x1eb4;" horiz-adv-x="699" 
d="M109 0h-114l415 758h7l229 -758h-134l-157 574l91 56zM230 271h250l27 -100h-324zM509 1020q-34 2 -53.5 17.5t-35.5 32.5q-10 12 -20.5 21t-23.5 9q-13 1 -22.5 -8t-15.5 -25t-8 -37l-58 5q2 38 17 70.5t41.5 50t59.5 15.5q26 -1 43.5 -16t32.5 -31q12 -14 23 -24.5
t26 -10.5q19 -2 28.5 19.5t11.5 52.5l59 -4q0 -43 -14.5 -74t-38.5 -48t-52 -15zM405 795q-30 1 -54.5 13t-42.5 34.5t-28.5 57t-11.5 83.5h75q2 -38 10.5 -62.5t24.5 -36.5t36 -14q25 0 42.5 13t29.5 39t20 61h75q-12 -67 -36.5 -109.5t-60 -61.5t-79.5 -17z" />
    <glyph glyph-name="uni1EB5" unicode="&#x1eb5;" horiz-adv-x="601" 
d="M221 -9q-45 0 -86.5 24.5t-67 71t-25.5 110.5q0 45 16 88t47 78.5t75 57t99 21.5q44 0 74 -11.5t49 -30t31 -41.5l-9 -19l22 83h103l-51 -423h-112l12 101l7 -27q-4 -5 -18 -18.5t-37 -28.5t-55.5 -25.5t-73.5 -10.5zM283 81q26 0 49.5 10.5t42.5 30t31 46.5l11 92
q-5 27 -21 47.5t-41 31.5t-56 11q-39 0 -65.5 -13.5t-43.5 -35t-24.5 -45.5t-7.5 -46q0 -38 15.5 -67t44 -45.5t65.5 -16.5zM434 728q-34 2 -53.5 17.5t-35.5 32.5q-10 12 -20.5 21t-23.5 9q-13 1 -22.5 -8t-15.5 -25t-8 -37l-58 5q2 38 17 70.5t41.5 50t59.5 15.5
q26 -1 43.5 -16t32.5 -31q12 -14 23 -24.5t26 -10.5q19 -2 28.5 19.5t11.5 52.5l59 -4q0 -43 -14.5 -74t-38.5 -48t-52 -15zM330 503q-30 1 -54.5 13t-42.5 34.5t-28.5 57t-11.5 83.5h75q2 -38 10.5 -62.5t24.5 -36.5t36 -14q25 0 42.5 13t29.5 39t20 61h75
q-12 -67 -36.5 -109.5t-60 -61.5t-79.5 -17z" />
    <glyph glyph-name="uni1EB6" unicode="&#x1eb6;" horiz-adv-x="699" 
d="M109 0h-114l415 758h7l229 -758h-134l-157 574l91 56zM230 271h250l27 -100h-324zM242 -102q1 26 20 44.5t48 18.5q22 0 42 -13t20 -42q-1 -27 -20 -45.5t-48 -18.5q-21 0 -41.5 13.5t-20.5 42.5zM413 786q-29 1 -53.5 13t-43 34.5t-28.5 57t-11 83.5h75q1 -38 10 -62.5
t24.5 -36.5t36.5 -14q25 0 42.5 13t29.5 39t20 61h75q-12 -67 -37 -109.5t-60 -61.5t-80 -17z" />
    <glyph glyph-name="uni1EB7" unicode="&#x1eb7;" horiz-adv-x="601" 
d="M221 -9q-45 0 -86.5 24.5t-67 71t-25.5 110.5q0 45 16 88t47 78.5t75 57t99 21.5q44 0 74 -11.5t49 -30t31 -41.5l-9 -19l22 83h103l-51 -423h-112l12 101l7 -27q-4 -5 -18 -18.5t-37 -28.5t-55.5 -25.5t-73.5 -10.5zM283 81q26 0 49.5 10.5t42.5 30t31 46.5l11 92
q-5 27 -21 47.5t-41 31.5t-56 11q-39 0 -65.5 -13.5t-43.5 -35t-24.5 -45.5t-7.5 -46q0 -38 15.5 -67t44 -45.5t65.5 -16.5zM189 -117q1 26 20 44.5t48 18.5q22 0 42 -13t20 -42q-1 -27 -20 -45.5t-48 -18.5q-21 0 -41.5 13.5t-20.5 42.5zM337 494q-29 1 -53.5 13t-43 34.5
t-28.5 57t-11 83.5h75q1 -38 10 -62.5t24.5 -36.5t36.5 -14q25 0 42.5 13t29.5 39t20 61h75q-12 -67 -37 -109.5t-60 -61.5t-80 -17z" />
    <glyph glyph-name="uni1EB8" unicode="&#x1eb8;" horiz-adv-x="659" 
d="M161 728h483l-13 -108h-363l-24 -200h322l-14 -110h-322l-24 -199h377l-14 -111h-497zM254 -102q1 26 20 44.5t48 18.5q22 0 42 -13t20 -42q-1 -27 -20 -45.5t-48 -18.5q-21 0 -41.5 13.5t-20.5 42.5z" />
    <glyph glyph-name="uni1EB9" unicode="&#x1eb9;" horiz-adv-x="535" 
d="M281 85q22 0 43.5 8t41.5 20l40 -87q-31 -17 -67 -26.5t-70 -9.5q-68 0 -119 24.5t-79.5 73t-28.5 118.5q0 40 15 81t45 75.5t77 56t110 21.5q37 0 72.5 -9.5t64.5 -32.5t50 -62.5t29 -100.5l-353 -94l-18 65l291 80l-39 -14q-10 37 -37 59t-64 22q-43 0 -72 -19t-44 -50
t-15 -65q0 -49 19 -78.5t48 -42.5t60 -13zM160 -117q1 26 20 44.5t48 18.5q22 0 42 -13t20 -42q-1 -27 -20 -45.5t-48 -18.5q-21 0 -41.5 13.5t-20.5 42.5z" />
    <glyph glyph-name="uni1EBA" unicode="&#x1eba;" horiz-adv-x="659" 
d="M161 728h483l-13 -108h-363l-24 -200h322l-14 -110h-322l-24 -199h377l-14 -111h-497zM379 800q19 13 33 25.5t16 29.5t-4.5 27.5t-26.5 10.5q-13 0 -24 -7t-19 -19l-38 27q19 31 45.5 45.5t55.5 14.5q41 -1 59 -24t17 -53q0 -26 -21 -55t-73 -53z" />
    <glyph glyph-name="uni1EBB" unicode="&#x1ebb;" horiz-adv-x="535" 
d="M281 85q22 0 43.5 8t41.5 20l40 -87q-31 -17 -67 -26.5t-70 -9.5q-68 0 -119 24.5t-79.5 73t-28.5 118.5q0 40 15 81t45 75.5t77 56t110 21.5q37 0 72.5 -9.5t64.5 -32.5t50 -62.5t29 -100.5l-353 -94l-18 65l291 80l-39 -14q-10 37 -37 59t-64 22q-43 0 -72 -19t-44 -50
t-15 -65q0 -49 19 -78.5t48 -42.5t60 -13zM276 534q19 13 33 25.5t16 29.5t-4.5 27.5t-26.5 10.5q-13 0 -24 -7t-19 -19l-38 27q19 31 45.5 45.5t55.5 14.5q41 -1 59 -24t17 -53q0 -26 -21 -55t-73 -53z" />
    <glyph glyph-name="uni1EBC" unicode="&#x1ebc;" horiz-adv-x="659" 
d="M161 728h483l-13 -108h-363l-24 -200h322l-14 -110h-322l-24 -199h377l-14 -111h-497zM476 752q-39 2 -62 20.5t-42 37.5q-12 13 -23.5 23t-27.5 11q-14 1 -25.5 -9.5t-18 -28.5t-8.5 -42l-69 6q2 45 20 82t48 58.5t71 18.5q29 -1 49.5 -18.5t37.5 -36.5q15 -16 28 -28
t28 -13q16 -1 25.5 10.5t14.5 31t7 42.5l69 -5q1 -49 -16 -86t-45.5 -56t-60.5 -18z" />
    <glyph glyph-name="uni1EBD" unicode="&#x1ebd;" horiz-adv-x="535" 
d="M281 85q22 0 43.5 8t41.5 20l40 -87q-31 -17 -67 -26.5t-70 -9.5q-68 0 -119 24.5t-79.5 73t-28.5 118.5q0 40 15 81t45 75.5t77 56t110 21.5q37 0 72.5 -9.5t64.5 -32.5t50 -62.5t29 -100.5l-353 -94l-18 65l291 80l-39 -14q-10 37 -37 59t-64 22q-43 0 -72 -19t-44 -50
t-15 -65q0 -49 19 -78.5t48 -42.5t60 -13zM374 486q-39 2 -62 20.5t-42 37.5q-12 13 -23.5 23t-27.5 11q-14 1 -25.5 -9.5t-18 -28.5t-8.5 -42l-69 6q2 45 20 82t48 58.5t71 18.5q29 -1 49.5 -18.5t37.5 -36.5q15 -16 28 -28t28 -13q16 -1 25.5 10.5t14.5 31t7 42.5l69 -5
q1 -49 -16 -86t-45.5 -56t-60.5 -18z" />
    <glyph glyph-name="uni1EBE" unicode="&#x1ebe;" horiz-adv-x="659" 
d="M161 728h483l-13 -108h-363l-24 -200h322l-14 -110h-322l-24 -199h377l-14 -111h-497zM442 787l-73 93l29 8l-98 -101h-101l192 183h1l151 -183h-101zM683 1046l-139 -134h-69l84 134h124z" />
    <glyph glyph-name="uni1EBF" unicode="&#x1ebf;" horiz-adv-x="535" 
d="M281 85q22 0 43.5 8t41.5 20l40 -87q-31 -17 -67 -26.5t-70 -9.5q-68 0 -119 24.5t-79.5 73t-28.5 118.5q0 40 15 81t45 75.5t77 56t110 21.5q37 0 72.5 -9.5t64.5 -32.5t50 -62.5t29 -100.5l-353 -94l-18 65l291 80l-39 -14q-10 37 -37 59t-64 22q-43 0 -72 -19t-44 -50
t-15 -65q0 -49 19 -78.5t48 -42.5t60 -13zM340 521l-73 93l29 8l-98 -101h-101l192 183h1l151 -183h-101zM581 780l-139 -134h-69l84 134h124z" />
    <glyph glyph-name="uni1EC0" unicode="&#x1ec0;" horiz-adv-x="659" 
d="M161 728h483l-13 -108h-363l-24 -200h322l-14 -110h-322l-24 -199h377l-14 -111h-497zM473 774l-73 93l29 8l-98 -101h-101l192 183h1l151 -183h-101zM249 1018l65 -134h-70l-119 134h124z" />
    <glyph glyph-name="uni1EC1" unicode="&#x1ec1;" horiz-adv-x="535" 
d="M281 85q22 0 43.5 8t41.5 20l40 -87q-31 -17 -67 -26.5t-70 -9.5q-68 0 -119 24.5t-79.5 73t-28.5 118.5q0 40 15 81t45 75.5t77 56t110 21.5q37 0 72.5 -9.5t64.5 -32.5t50 -62.5t29 -100.5l-353 -94l-18 65l291 80l-39 -14q-10 37 -37 59t-64 22q-43 0 -72 -19t-44 -50
t-15 -65q0 -49 19 -78.5t48 -42.5t60 -13zM371 507l-73 93l29 8l-98 -101h-101l192 183h1l151 -183h-101zM147 751l65 -134h-70l-119 134h124z" />
    <glyph glyph-name="uni1EC2" unicode="&#x1ec2;" horiz-adv-x="659" 
d="M161 728h483l-13 -108h-363l-24 -200h322l-14 -110h-322l-24 -199h377l-14 -111h-497zM463 774l-73 93l29 8l-98 -101h-101l192 183h1l151 -183h-101zM531 909q19 13 33 25.5t16 29.5t-4.5 27.5t-26.5 10.5q-13 0 -24 -7t-19 -19l-38 27q19 31 45.5 45.5t55.5 14.5
q41 -1 59 -24t17 -53q0 -26 -21 -55t-73 -53z" />
    <glyph glyph-name="uni1EC3" unicode="&#x1ec3;" horiz-adv-x="535" 
d="M281 85q22 0 43.5 8t41.5 20l40 -87q-31 -17 -67 -26.5t-70 -9.5q-68 0 -119 24.5t-79.5 73t-28.5 118.5q0 40 15 81t45 75.5t77 56t110 21.5q37 0 72.5 -9.5t64.5 -32.5t50 -62.5t29 -100.5l-353 -94l-18 65l291 80l-39 -14q-10 37 -37 59t-64 22q-43 0 -72 -19t-44 -50
t-15 -65q0 -49 19 -78.5t48 -42.5t60 -13zM361 507l-73 93l29 8l-98 -101h-101l192 183h1l151 -183h-101zM429 642q19 13 33 25.5t16 29.5t-4.5 27.5t-26.5 10.5q-13 0 -24 -7t-19 -19l-38 27q19 31 45.5 45.5t55.5 14.5q41 -1 59 -24t17 -53q0 -26 -21 -55t-73 -53z" />
    <glyph glyph-name="uni1EC4" unicode="&#x1ec4;" horiz-adv-x="659" 
d="M161 728h483l-13 -108h-363l-24 -200h322l-14 -110h-322l-24 -199h377l-14 -111h-497zM505 981q-34 2 -53.5 17.5t-35.5 32.5q-10 12 -20.5 21t-23.5 9q-13 1 -22.5 -8t-15.5 -25t-8 -36l-58 4q2 39 17 71t41.5 50t59.5 16q26 -1 43.5 -16.5t32.5 -31.5q12 -14 23 -24.5
t26 -10.5q19 -2 28.5 19.5t11.5 52.5l59 -4q0 -42 -14.5 -73.5t-38.5 -48.5t-52 -15zM480 772l-73 93l29 8l-98 -101h-101l192 183h1l151 -183h-101z" />
    <glyph glyph-name="uni1EC5" unicode="&#x1ec5;" horiz-adv-x="535" 
d="M281 85q22 0 43.5 8t41.5 20l40 -87q-31 -17 -67 -26.5t-70 -9.5q-68 0 -119 24.5t-79.5 73t-28.5 118.5q0 40 15 81t45 75.5t77 56t110 21.5q37 0 72.5 -9.5t64.5 -32.5t50 -62.5t29 -100.5l-353 -94l-18 65l291 80l-39 -14q-10 37 -37 59t-64 22q-43 0 -72 -19t-44 -50
t-15 -65q0 -49 19 -78.5t48 -42.5t60 -13zM373 521l-73 93l29 8l-98 -101h-101l192 183h1l151 -183h-101zM408 733q-39 2 -62 20.5t-42 37.5q-12 13 -23.5 23t-27.5 11q-14 1 -25.5 -9.5t-18 -28.5t-8.5 -42l-69 6q2 45 20 82t48 58.5t71 18.5q29 -1 49.5 -18.5t37.5 -36.5
q15 -16 28 -28t28 -13q16 -1 25.5 10.5t14.5 31t7 42.5l69 -5q1 -49 -16 -86t-45.5 -56t-60.5 -18z" />
    <glyph glyph-name="uni1EC6" unicode="&#x1ec6;" horiz-adv-x="659" 
d="M161 728h483l-13 -108h-363l-24 -200h322l-14 -110h-322l-24 -199h377l-14 -111h-497zM254 -102q1 26 20 44.5t48 18.5q22 0 42 -13t20 -42q-1 -27 -20 -45.5t-48 -18.5q-21 0 -41.5 13.5t-20.5 42.5zM475 787l-73 93l29 8l-98 -101h-101l192 183h1l151 -183h-101z" />
    <glyph glyph-name="uni1EC7" unicode="&#x1ec7;" horiz-adv-x="535" 
d="M281 85q22 0 43.5 8t41.5 20l40 -87q-31 -17 -67 -26.5t-70 -9.5q-68 0 -119 24.5t-79.5 73t-28.5 118.5q0 40 15 81t45 75.5t77 56t110 21.5q37 0 72.5 -9.5t64.5 -32.5t50 -62.5t29 -100.5l-353 -94l-18 65l291 80l-39 -14q-10 37 -37 59t-64 22q-43 0 -72 -19t-44 -50
t-15 -65q0 -49 19 -78.5t48 -42.5t60 -13zM160 -117q1 26 20 44.5t48 18.5q22 0 42 -13t20 -42q-1 -27 -20 -45.5t-48 -18.5q-21 0 -41.5 13.5t-20.5 42.5zM373 521l-73 93l29 8l-98 -101h-101l192 183h1l151 -183h-101z" />
    <glyph glyph-name="uni1EC8" unicode="&#x1ec8;" horiz-adv-x="322" 
d="M161 728h120l-89 -728h-120zM205 800q19 13 33 25.5t16 29.5t-4.5 27.5t-26.5 10.5q-13 0 -24 -7t-19 -19l-38 27q19 31 45.5 45.5t55.5 14.5q41 -1 59 -24t17 -53q0 -26 -21 -55t-73 -53z" />
    <glyph glyph-name="uni1EC9" unicode="&#x1ec9;" horiz-adv-x="266" 
d="M103 423h112l-52 -423h-112zM143 500q19 13 33 25.5t16 29.5t-4.5 27.5t-26.5 10.5q-13 0 -24 -7t-19 -19l-38 27q19 31 45.5 45.5t55.5 14.5q41 -1 59 -24t17 -53q0 -26 -21 -55t-73 -53z" />
    <glyph glyph-name="uni1ECA" unicode="&#x1eca;" horiz-adv-x="322" 
d="M161 728h120l-89 -728h-120zM39 -102q1 26 20 44.5t48 18.5q22 0 42 -13t20 -42q-1 -27 -20 -45.5t-48 -18.5q-21 0 -41.5 13.5t-20.5 42.5z" />
    <glyph glyph-name="uni1ECB" unicode="&#x1ecb;" horiz-adv-x="266" 
d="M103 423h112l-52 -423h-112zM111 569q1 26 20 44.5t48 18.5q22 0 42 -13t20 -42q-1 -27 -20 -45.5t-48 -18.5q-21 0 -41.5 13.5t-20.5 42.5zM17 -102q1 26 20 44.5t48 18.5q22 0 42 -13t20 -42q-1 -27 -20 -45.5t-48 -18.5q-21 0 -41.5 13.5t-20.5 42.5z" />
    <glyph glyph-name="uni1ECC" unicode="&#x1ecc;" horiz-adv-x="856" 
d="M423 -7q-64 0 -126.5 21t-112.5 64t-80 108t-30 152q0 66 24.5 136t74 129t124 95.5t173.5 36.5q65 0 127 -21t112.5 -64t80 -108t29.5 -153q0 -66 -24.5 -135.5t-74 -128.5t-123.5 -95.5t-174 -36.5zM425 105q72 0 124 26t85 67.5t49 90t16 94.5q0 49 -17.5 92t-49 76.5
t-74 52.5t-93.5 19q-72 0 -123.5 -25.5t-84.5 -67.5t-48 -90.5t-15 -94.5q0 -48 17 -91.5t47.5 -77t73 -52.5t93.5 -19zM361 -102q1 26 20 44.5t48 18.5q22 0 42 -13t20 -42q-1 -27 -20 -45.5t-48 -18.5q-21 0 -41.5 13.5t-20.5 42.5z" />
    <glyph glyph-name="uni1ECD" unicode="&#x1ecd;" horiz-adv-x="557" 
d="M270 -11q-39 0 -79.5 13t-74 38.5t-54 65t-20.5 92.5q0 39 13 81.5t42 79t76.5 59t115.5 22.5q58 0 109.5 -24t84.5 -70.5t33 -113.5q0 -26 -7.5 -58.5t-24 -65t-45 -59.5t-70.5 -43.5t-99 -16.5zM273 82q48 0 76 23.5t40.5 57.5t12.5 64q0 35 -11.5 58.5t-30 37.5
t-39 20t-36.5 6q-46 0 -75 -23t-42 -57t-13 -66q0 -45 19 -71.5t46.5 -38t52.5 -11.5zM173 -102q1 26 20 44.5t48 18.5q22 0 42 -13t20 -42q-1 -27 -20 -45.5t-48 -18.5q-21 0 -41.5 13.5t-20.5 42.5z" />
    <glyph glyph-name="uni1ECE" unicode="&#x1ece;" horiz-adv-x="856" 
d="M423 -7q-64 0 -126.5 21t-112.5 64t-80 108t-30 152q0 66 24.5 136t74 129t124 95.5t173.5 36.5q65 0 127 -21t112.5 -64t80 -108t29.5 -153q0 -66 -24.5 -135.5t-74 -128.5t-123.5 -95.5t-174 -36.5zM425 105q72 0 124 26t85 67.5t49 90t16 94.5q0 49 -17.5 92t-49 76.5
t-74 52.5t-93.5 19q-72 0 -123.5 -25.5t-84.5 -67.5t-48 -90.5t-15 -94.5q0 -48 17 -91.5t47.5 -77t73 -52.5t93.5 -19zM457 800q19 13 33 25.5t16 29.5t-4.5 27.5t-26.5 10.5q-13 0 -24 -7t-19 -19l-38 27q19 31 45.5 45.5t55.5 14.5q41 -1 59 -24t17 -53q0 -26 -21 -55
t-73 -53z" />
    <glyph glyph-name="uni1ECF" unicode="&#x1ecf;" horiz-adv-x="557" 
d="M270 -11q-39 0 -79.5 13t-74 38.5t-54 65t-20.5 92.5q0 39 13 81.5t42 79t76.5 59t115.5 22.5q58 0 109.5 -24t84.5 -70.5t33 -113.5q0 -26 -7.5 -58.5t-24 -65t-45 -59.5t-70.5 -43.5t-99 -16.5zM273 82q48 0 76 23.5t40.5 57.5t12.5 64q0 35 -11.5 58.5t-30 37.5
t-39 20t-36.5 6q-46 0 -75 -23t-42 -57t-13 -66q0 -45 19 -71.5t46.5 -38t52.5 -11.5zM276 510q19 13 33 25.5t16 29.5t-4.5 27.5t-26.5 10.5q-13 0 -24 -7t-19 -19l-38 27q19 31 45.5 45.5t55.5 14.5q41 -1 59 -24t17 -53q0 -26 -21 -55t-73 -53z" />
    <glyph glyph-name="uni1ED0" unicode="&#x1ed0;" horiz-adv-x="856" 
d="M423 -7q-64 0 -126.5 21t-112.5 64t-80 108t-30 152q0 66 24.5 136t74 129t124 95.5t173.5 36.5q65 0 127 -21t112.5 -64t80 -108t29.5 -153q0 -66 -24.5 -135.5t-74 -128.5t-123.5 -95.5t-174 -36.5zM425 105q72 0 124 26t85 67.5t49 90t16 94.5q0 49 -17.5 92t-49 76.5
t-74 52.5t-93.5 19q-72 0 -123.5 -25.5t-84.5 -67.5t-48 -90.5t-15 -94.5q0 -48 17 -91.5t47.5 -77t73 -52.5t93.5 -19zM520 787l-73 93l29 8l-98 -101h-101l192 183h1l151 -183h-101zM761 1046l-139 -134h-69l84 134h124z" />
    <glyph glyph-name="uni1ED1" unicode="&#x1ed1;" horiz-adv-x="557" 
d="M270 -11q-39 0 -79.5 13t-74 38.5t-54 65t-20.5 92.5q0 39 13 81.5t42 79t76.5 59t115.5 22.5q58 0 109.5 -24t84.5 -70.5t33 -113.5q0 -26 -7.5 -58.5t-24 -65t-45 -59.5t-70.5 -43.5t-99 -16.5zM273 82q48 0 76 23.5t40.5 57.5t12.5 64q0 35 -11.5 58.5t-30 37.5
t-39 20t-36.5 6q-46 0 -75 -23t-42 -57t-13 -66q0 -45 19 -71.5t46.5 -38t52.5 -11.5zM339 497l-73 93l29 8l-98 -101h-101l192 183h1l151 -183h-101zM580 756l-139 -134h-69l84 134h124z" />
    <glyph glyph-name="uni1ED2" unicode="&#x1ed2;" horiz-adv-x="856" 
d="M423 -7q-64 0 -126.5 21t-112.5 64t-80 108t-30 152q0 66 24.5 136t74 129t124 95.5t173.5 36.5q65 0 127 -21t112.5 -64t80 -108t29.5 -153q0 -66 -24.5 -135.5t-74 -128.5t-123.5 -95.5t-174 -36.5zM425 105q72 0 124 26t85 67.5t49 90t16 94.5q0 49 -17.5 92t-49 76.5
t-74 52.5t-93.5 19q-72 0 -123.5 -25.5t-84.5 -67.5t-48 -90.5t-15 -94.5q0 -48 17 -91.5t47.5 -77t73 -52.5t93.5 -19zM551 774l-73 93l29 8l-98 -101h-101l192 183h1l151 -183h-101zM327 1018l65 -134h-70l-119 134h124z" />
    <glyph glyph-name="uni1ED3" unicode="&#x1ed3;" horiz-adv-x="557" 
d="M270 -11q-39 0 -79.5 13t-74 38.5t-54 65t-20.5 92.5q0 39 13 81.5t42 79t76.5 59t115.5 22.5q58 0 109.5 -24t84.5 -70.5t33 -113.5q0 -26 -7.5 -58.5t-24 -65t-45 -59.5t-70.5 -43.5t-99 -16.5zM273 82q48 0 76 23.5t40.5 57.5t12.5 64q0 35 -11.5 58.5t-30 37.5
t-39 20t-36.5 6q-46 0 -75 -23t-42 -57t-13 -66q0 -45 19 -71.5t46.5 -38t52.5 -11.5zM370 484l-73 93l29 8l-98 -101h-101l192 183h1l151 -183h-101zM146 728l65 -134h-70l-119 134h124z" />
    <glyph glyph-name="uni1ED4" unicode="&#x1ed4;" horiz-adv-x="856" 
d="M423 -7q-64 0 -126.5 21t-112.5 64t-80 108t-30 152q0 66 24.5 136t74 129t124 95.5t173.5 36.5q65 0 127 -21t112.5 -64t80 -108t29.5 -153q0 -66 -24.5 -135.5t-74 -128.5t-123.5 -95.5t-174 -36.5zM425 105q72 0 124 26t85 67.5t49 90t16 94.5q0 49 -17.5 92t-49 76.5
t-74 52.5t-93.5 19q-72 0 -123.5 -25.5t-84.5 -67.5t-48 -90.5t-15 -94.5q0 -48 17 -91.5t47.5 -77t73 -52.5t93.5 -19zM541 774l-73 93l29 8l-98 -101h-101l192 183h1l151 -183h-101zM609 909q19 13 33 25.5t16 29.5t-4.5 27.5t-26.5 10.5q-13 0 -24 -7t-19 -19l-38 27
q19 31 45.5 45.5t55.5 14.5q41 -1 59 -24t17 -53q0 -26 -21 -55t-73 -53z" />
    <glyph glyph-name="uni1ED5" unicode="&#x1ed5;" horiz-adv-x="557" 
d="M270 -11q-39 0 -79.5 13t-74 38.5t-54 65t-20.5 92.5q0 39 13 81.5t42 79t76.5 59t115.5 22.5q58 0 109.5 -24t84.5 -70.5t33 -113.5q0 -26 -7.5 -58.5t-24 -65t-45 -59.5t-70.5 -43.5t-99 -16.5zM273 82q48 0 76 23.5t40.5 57.5t12.5 64q0 35 -11.5 58.5t-30 37.5
t-39 20t-36.5 6q-46 0 -75 -23t-42 -57t-13 -66q0 -45 19 -71.5t46.5 -38t52.5 -11.5zM360 484l-73 93l29 8l-98 -101h-101l192 183h1l151 -183h-101zM428 619q19 13 33 25.5t16 29.5t-4.5 27.5t-26.5 10.5q-13 0 -24 -7t-19 -19l-38 27q19 31 45.5 45.5t55.5 14.5
q41 -1 59 -24t17 -53q0 -26 -21 -55t-73 -53z" />
    <glyph glyph-name="uni1ED6" unicode="&#x1ed6;" horiz-adv-x="856" 
d="M423 -7q-64 0 -126.5 21t-112.5 64t-80 108t-30 152q0 66 24.5 136t74 129t124 95.5t173.5 36.5q65 0 127 -21t112.5 -64t80 -108t29.5 -153q0 -66 -24.5 -135.5t-74 -128.5t-123.5 -95.5t-174 -36.5zM425 105q72 0 124 26t85 67.5t49 90t16 94.5q0 49 -17.5 92t-49 76.5
t-74 52.5t-93.5 19q-72 0 -123.5 -25.5t-84.5 -67.5t-48 -90.5t-15 -94.5q0 -48 17 -91.5t47.5 -77t73 -52.5t93.5 -19zM583 981q-34 2 -53.5 17.5t-35.5 32.5q-10 12 -20.5 21t-23.5 9q-13 1 -22.5 -8t-15.5 -25t-8 -36l-58 4q2 39 17 71t41.5 50t59.5 16q26 -1 43.5 -16.5
t32.5 -31.5q12 -14 23 -24.5t26 -10.5q19 -2 28.5 19.5t11.5 52.5l59 -4q0 -42 -14.5 -73.5t-38.5 -48.5t-52 -15zM558 772l-73 93l29 8l-98 -101h-101l192 183h1l151 -183h-101z" />
    <glyph glyph-name="uni1ED7" unicode="&#x1ed7;" horiz-adv-x="557" 
d="M270 -11q-39 0 -79.5 13t-74 38.5t-54 65t-20.5 92.5q0 39 13 81.5t42 79t76.5 59t115.5 22.5q58 0 109.5 -24t84.5 -70.5t33 -113.5q0 -26 -7.5 -58.5t-24 -65t-45 -59.5t-70.5 -43.5t-99 -16.5zM273 82q48 0 76 23.5t40.5 57.5t12.5 64q0 35 -11.5 58.5t-30 37.5
t-39 20t-36.5 6q-46 0 -75 -23t-42 -57t-13 -66q0 -45 19 -71.5t46.5 -38t52.5 -11.5zM402 691q-34 2 -53.5 17.5t-35.5 32.5q-10 12 -20.5 21t-23.5 9q-13 1 -22.5 -8t-15.5 -25t-8 -36l-58 4q2 39 17 71t41.5 50t59.5 16q26 -1 43.5 -16.5t32.5 -31.5q12 -14 23 -24.5
t26 -10.5q19 -2 28.5 19.5t11.5 52.5l59 -4q0 -42 -14.5 -73.5t-38.5 -48.5t-52 -15zM377 482l-73 93l29 8l-98 -101h-101l192 183h1l151 -183h-101z" />
    <glyph glyph-name="uni1ED8" unicode="&#x1ed8;" horiz-adv-x="856" 
d="M423 -7q-64 0 -126.5 21t-112.5 64t-80 108t-30 152q0 66 24.5 136t74 129t124 95.5t173.5 36.5q65 0 127 -21t112.5 -64t80 -108t29.5 -153q0 -66 -24.5 -135.5t-74 -128.5t-123.5 -95.5t-174 -36.5zM425 105q72 0 124 26t85 67.5t49 90t16 94.5q0 49 -17.5 92t-49 76.5
t-74 52.5t-93.5 19q-72 0 -123.5 -25.5t-84.5 -67.5t-48 -90.5t-15 -94.5q0 -48 17 -91.5t47.5 -77t73 -52.5t93.5 -19zM361 -102q1 26 20 44.5t48 18.5q22 0 42 -13t20 -42q-1 -27 -20 -45.5t-48 -18.5q-21 0 -41.5 13.5t-20.5 42.5zM553 787l-73 93l29 8l-98 -101h-101
l192 183h1l151 -183h-101z" />
    <glyph glyph-name="uni1ED9" unicode="&#x1ed9;" horiz-adv-x="557" 
d="M270 -11q-39 0 -79.5 13t-74 38.5t-54 65t-20.5 92.5q0 39 13 81.5t42 79t76.5 59t115.5 22.5q58 0 109.5 -24t84.5 -70.5t33 -113.5q0 -26 -7.5 -58.5t-24 -65t-45 -59.5t-70.5 -43.5t-99 -16.5zM273 82q48 0 76 23.5t40.5 57.5t12.5 64q0 35 -11.5 58.5t-30 37.5
t-39 20t-36.5 6q-46 0 -75 -23t-42 -57t-13 -66q0 -45 19 -71.5t46.5 -38t52.5 -11.5zM173 -102q1 26 20 44.5t48 18.5q22 0 42 -13t20 -42q-1 -27 -20 -45.5t-48 -18.5q-21 0 -41.5 13.5t-20.5 42.5zM372 497l-73 93l29 8l-98 -101h-101l192 183h1l151 -183h-101z" />
    <glyph glyph-name="uni1EDA" unicode="&#x1eda;" horiz-adv-x="856" 
d="M423 -7q-64 0 -126.5 21t-112.5 64t-80 108t-30 152q0 66 24.5 136t74 129t124 95.5t173.5 36.5q65 0 127 -21t112.5 -64t80 -108t29.5 -153q0 -66 -24.5 -135.5t-74 -128.5t-123.5 -95.5t-174 -36.5zM425 105q72 0 124 26t85 67.5t49 90t16 94.5q0 49 -17.5 92t-49 76.5
t-74 52.5t-93.5 19q-72 0 -123.5 -25.5t-84.5 -67.5t-48 -90.5t-15 -94.5q0 -48 17 -91.5t47.5 -77t73 -52.5t93.5 -19zM719 620q39 -3 63 17t37 66h83q-16 -63 -44.5 -97t-65.5 -45.5t-81 -8.5zM644 921l-139 -134h-69l84 134h124z" />
    <glyph glyph-name="uni1EDB" unicode="&#x1edb;" horiz-adv-x="589" 
d="M268 -11q-39 0 -79.5 13t-74 38.5t-54 65t-20.5 92.5q0 39 13 81.5t42 79t76.5 59t115.5 22.5q58 0 109.5 -24t84 -70.5t32.5 -113.5q0 -26 -7 -58.5t-24 -65t-45 -59.5t-70 -43.5t-99 -16.5zM271 82q48 0 76 23.5t40.5 57.5t12.5 64q0 35 -12 58.5t-30 37.5t-38.5 20
t-36.5 6q-46 0 -75 -23t-42 -57t-13 -66q0 -45 19 -71.5t46.5 -38t52.5 -11.5zM434 365q33 -3 54.5 16.5t33.5 62.5h83q-16 -61 -42.5 -94t-61 -44.5t-75.5 -8.5zM461 631l-139 -134h-69l84 134h124z" />
    <glyph glyph-name="uni1EDC" unicode="&#x1edc;" horiz-adv-x="856" 
d="M423 -7q-64 0 -126.5 21t-112.5 64t-80 108t-30 152q0 66 24.5 136t74 129t124 95.5t173.5 36.5q65 0 127 -21t112.5 -64t80 -108t29.5 -153q0 -66 -24.5 -135.5t-74 -128.5t-123.5 -95.5t-174 -36.5zM425 105q72 0 124 26t85 67.5t49 90t16 94.5q0 49 -17.5 92t-49 76.5
t-74 52.5t-93.5 19q-72 0 -123.5 -25.5t-84.5 -67.5t-48 -90.5t-15 -94.5q0 -48 17 -91.5t47.5 -77t73 -52.5t93.5 -19zM719 620q39 -3 63 17t37 66h83q-16 -63 -44.5 -97t-65.5 -45.5t-81 -8.5zM447 921l65 -134h-70l-119 134h124z" />
    <glyph glyph-name="uni1EDD" unicode="&#x1edd;" horiz-adv-x="589" 
d="M268 -11q-39 0 -79.5 13t-74 38.5t-54 65t-20.5 92.5q0 39 13 81.5t42 79t76.5 59t115.5 22.5q58 0 109.5 -24t84 -70.5t32.5 -113.5q0 -26 -7 -58.5t-24 -65t-45 -59.5t-70 -43.5t-99 -16.5zM271 82q48 0 76 23.5t40.5 57.5t12.5 64q0 35 -12 58.5t-30 37.5t-38.5 20
t-36.5 6q-46 0 -75 -23t-42 -57t-13 -66q0 -45 19 -71.5t46.5 -38t52.5 -11.5zM434 365q33 -3 54.5 16.5t33.5 62.5h83q-16 -61 -42.5 -94t-61 -44.5t-75.5 -8.5zM264 631l65 -134h-70l-119 134h124z" />
    <glyph glyph-name="uni1EDE" unicode="&#x1ede;" horiz-adv-x="856" 
d="M423 -7q-64 0 -126.5 21t-112.5 64t-80 108t-30 152q0 66 24.5 136t74 129t124 95.5t173.5 36.5q65 0 127 -21t112.5 -64t80 -108t29.5 -153q0 -66 -24.5 -135.5t-74 -128.5t-123.5 -95.5t-174 -36.5zM425 105q72 0 124 26t85 67.5t49 90t16 94.5q0 49 -17.5 92t-49 76.5
t-74 52.5t-93.5 19q-72 0 -123.5 -25.5t-84.5 -67.5t-48 -90.5t-15 -94.5q0 -48 17 -91.5t47.5 -77t73 -52.5t93.5 -19zM719 620q39 -3 63 17t37 66h83q-16 -63 -44.5 -97t-65.5 -45.5t-81 -8.5zM457 800q19 13 33 25.5t16 29.5t-4.5 27.5t-26.5 10.5q-13 0 -24 -7t-19 -19
l-38 27q19 31 45.5 45.5t55.5 14.5q41 -1 59 -24t17 -53q0 -26 -21 -55t-73 -53z" />
    <glyph glyph-name="uni1EDF" unicode="&#x1edf;" horiz-adv-x="589" 
d="M268 -11q-39 0 -79.5 13t-74 38.5t-54 65t-20.5 92.5q0 39 13 81.5t42 79t76.5 59t115.5 22.5q58 0 109.5 -24t84 -70.5t32.5 -113.5q0 -26 -7 -58.5t-24 -65t-45 -59.5t-70 -43.5t-99 -16.5zM271 82q48 0 76 23.5t40.5 57.5t12.5 64q0 35 -12 58.5t-30 37.5t-38.5 20
t-36.5 6q-46 0 -75 -23t-42 -57t-13 -66q0 -45 19 -71.5t46.5 -38t52.5 -11.5zM434 365q33 -3 54.5 16.5t33.5 62.5h83q-16 -61 -42.5 -94t-61 -44.5t-75.5 -8.5zM274 510q19 13 33 25.5t16 29.5t-4.5 27.5t-26.5 10.5q-13 0 -24 -7t-19 -19l-38 27q19 31 45.5 45.5
t55.5 14.5q41 -1 59 -24t17 -53q0 -26 -21 -55t-73 -53z" />
    <glyph glyph-name="uni1EE0" unicode="&#x1ee0;" horiz-adv-x="856" 
d="M423 -7q-64 0 -126.5 21t-112.5 64t-80 108t-30 152q0 66 24.5 136t74 129t124 95.5t173.5 36.5q65 0 127 -21t112.5 -64t80 -108t29.5 -153q0 -66 -24.5 -135.5t-74 -128.5t-123.5 -95.5t-174 -36.5zM425 105q72 0 124 26t85 67.5t49 90t16 94.5q0 49 -17.5 92t-49 76.5
t-74 52.5t-93.5 19q-72 0 -123.5 -25.5t-84.5 -67.5t-48 -90.5t-15 -94.5q0 -48 17 -91.5t47.5 -77t73 -52.5t93.5 -19zM719 620q39 -3 63 17t37 66h83q-16 -63 -44.5 -97t-65.5 -45.5t-81 -8.5zM554 752q-39 2 -62 20.5t-42 37.5q-12 13 -23.5 23t-27.5 11
q-14 1 -25.5 -9.5t-18 -28.5t-8.5 -42l-69 6q2 45 20 82t48 58.5t71 18.5q29 -1 49.5 -18.5t37.5 -36.5q15 -16 28 -28t28 -13q16 -1 25.5 10.5t14.5 31t7 42.5l69 -5q1 -49 -16 -86t-45.5 -56t-60.5 -18z" />
    <glyph glyph-name="uni1EE1" unicode="&#x1ee1;" horiz-adv-x="589" 
d="M268 -11q-39 0 -79.5 13t-74 38.5t-54 65t-20.5 92.5q0 39 13 81.5t42 79t76.5 59t115.5 22.5q58 0 109.5 -24t84 -70.5t32.5 -113.5q0 -26 -7 -58.5t-24 -65t-45 -59.5t-70 -43.5t-99 -16.5zM271 82q48 0 76 23.5t40.5 57.5t12.5 64q0 35 -12 58.5t-30 37.5t-38.5 20
t-36.5 6q-46 0 -75 -23t-42 -57t-13 -66q0 -45 19 -71.5t46.5 -38t52.5 -11.5zM434 365q33 -3 54.5 16.5t33.5 62.5h83q-16 -61 -42.5 -94t-61 -44.5t-75.5 -8.5zM371 462q-39 2 -62 20.5t-42 37.5q-12 13 -23.5 23t-27.5 11q-14 1 -25.5 -9.5t-18 -28.5t-8.5 -42l-69 6
q2 45 20 82t48 58.5t71 18.5q29 -1 49.5 -18.5t37.5 -36.5q15 -16 28 -28t28 -13q16 -1 25.5 10.5t14.5 31t7 42.5l69 -5q1 -49 -16 -86t-45.5 -56t-60.5 -18z" />
    <glyph glyph-name="uni1EE2" unicode="&#x1ee2;" horiz-adv-x="856" 
d="M423 -7q-64 0 -126.5 21t-112.5 64t-80 108t-30 152q0 66 24.5 136t74 129t124 95.5t173.5 36.5q65 0 127 -21t112.5 -64t80 -108t29.5 -153q0 -66 -24.5 -135.5t-74 -128.5t-123.5 -95.5t-174 -36.5zM425 105q72 0 124 26t85 67.5t49 90t16 94.5q0 49 -17.5 92t-49 76.5
t-74 52.5t-93.5 19q-72 0 -123.5 -25.5t-84.5 -67.5t-48 -90.5t-15 -94.5q0 -48 17 -91.5t47.5 -77t73 -52.5t93.5 -19zM719 620q39 -3 63 17t37 66h83q-16 -63 -44.5 -97t-65.5 -45.5t-81 -8.5zM361 -102q1 26 20 44.5t48 18.5q22 0 42 -13t20 -42q-1 -27 -20 -45.5
t-48 -18.5q-21 0 -41.5 13.5t-20.5 42.5z" />
    <glyph glyph-name="uni1EE3" unicode="&#x1ee3;" horiz-adv-x="589" 
d="M268 -11q-39 0 -79.5 13t-74 38.5t-54 65t-20.5 92.5q0 39 13 81.5t42 79t76.5 59t115.5 22.5q58 0 109.5 -24t84 -70.5t32.5 -113.5q0 -26 -7 -58.5t-24 -65t-45 -59.5t-70 -43.5t-99 -16.5zM271 82q48 0 76 23.5t40.5 57.5t12.5 64q0 35 -12 58.5t-30 37.5t-38.5 20
t-36.5 6q-46 0 -75 -23t-42 -57t-13 -66q0 -45 19 -71.5t46.5 -38t52.5 -11.5zM434 365q33 -3 54.5 16.5t33.5 62.5h83q-16 -61 -42.5 -94t-61 -44.5t-75.5 -8.5zM171 -102q1 26 20 44.5t48 18.5q22 0 42 -13t20 -42q-1 -27 -20 -45.5t-48 -18.5q-21 0 -41.5 13.5
t-20.5 42.5z" />
    <glyph glyph-name="uni1EE4" unicode="&#x1ee4;" horiz-adv-x="766" 
d="M224 262q-5 -43 11.5 -79t50.5 -57t80 -21q47 0 86 21t65 57t31 79l57 466h120l-57 -469q-10 -79 -54.5 -139.5t-112.5 -94t-149 -33.5v0q-78 0 -138 33.5t-90 94t-20 139.5l57 469h120zM263 -102q1 26 20 44.5t48 18.5q22 0 42 -13t20 -42q-1 -27 -20 -45.5t-48 -18.5
q-21 0 -41.5 13.5t-20.5 42.5z" />
    <glyph glyph-name="uni1EE5" unicode="&#x1ee5;" horiz-adv-x="561" 
d="M185 -18q-58 0 -92 35t-28 91l38 315h112l-34 -275q-2 -31 12 -50.5t48 -19.5t62.5 20.5t47.5 56.5t24 81l23 187h112l-52 -423h-101l2 94l4 -15q-17 -27 -44 -49.5t-61 -35t-73 -12.5zM187 -117q1 26 20 44.5t48 18.5q22 0 42 -13t20 -42q-1 -27 -20 -45.5t-48 -18.5
q-21 0 -41.5 13.5t-20.5 42.5z" />
    <glyph glyph-name="uni1EE6" unicode="&#x1ee6;" horiz-adv-x="766" 
d="M224 262q-5 -43 11.5 -79t50.5 -57t80 -21q47 0 86 21t65 57t31 79l57 466h120l-57 -469q-10 -79 -54.5 -139.5t-112.5 -94t-149 -33.5v0q-78 0 -138 33.5t-90 94t-20 139.5l57 469h120zM431 800q19 13 33 25.5t16 29.5t-4.5 27.5t-26.5 10.5q-13 0 -24 -7t-19 -19
l-38 27q19 31 45.5 45.5t55.5 14.5q41 -1 59 -24t17 -53q0 -26 -21 -55t-73 -53z" />
    <glyph glyph-name="uni1EE7" unicode="&#x1ee7;" horiz-adv-x="561" 
d="M185 -18q-58 0 -92 35t-28 91l38 315h112l-34 -275q-2 -31 12 -50.5t48 -19.5t62.5 20.5t47.5 56.5t24 81l23 187h112l-52 -423h-101l2 94l4 -15q-17 -27 -44 -49.5t-61 -35t-73 -12.5zM299 549q19 13 33 25.5t16 29.5t-4.5 27.5t-26.5 10.5q-13 0 -24 -7t-19 -19l-38 27
q19 31 45.5 45.5t55.5 14.5q41 -1 59 -24t17 -53q0 -26 -21 -55t-73 -53z" />
    <glyph glyph-name="uni1EE8" unicode="&#x1ee8;" horiz-adv-x="838" 
d="M224 262q-5 -43 11.5 -79t50.5 -57t80 -21q47 0 86 21t65 57t31 79l57 466h120l-57 -469q-10 -79 -54.5 -139.5t-112.5 -94t-149 -33.5v0q-78 0 -138 33.5t-90 94t-20 139.5l57 469h120zM711 645q39 -3 63 17t37 66h83q-16 -63 -44.5 -97t-65.5 -45.5t-81 -8.5zM619 921
l-139 -134h-69l84 134h124z" />
    <glyph glyph-name="uni1EE9" unicode="&#x1ee9;" horiz-adv-x="579" 
d="M185 -18q-58 0 -92 35t-28 91l38 315h112l-34 -275q-2 -31 12 -50.5t48 -19.5t62.5 20.5t47.5 56.5t24 81l23 187h112l-52 -423h-101l2 94l4 -15q-17 -27 -44 -49.5t-61 -35t-73 -12.5zM477 340q39 -3 63 17t37 66h83q-16 -63 -44.5 -97t-65.5 -45.5t-81 -8.5zM487 626
l-139 -134h-69l84 134h124z" />
    <glyph glyph-name="uni1EEA" unicode="&#x1eea;" horiz-adv-x="838" 
d="M224 262q-5 -43 11.5 -79t50.5 -57t80 -21q47 0 86 21t65 57t31 79l57 466h120l-57 -469q-10 -79 -54.5 -139.5t-112.5 -94t-149 -33.5v0q-78 0 -138 33.5t-90 94t-20 139.5l57 469h120zM711 645q39 -3 63 17t37 66h83q-16 -63 -44.5 -97t-65.5 -45.5t-81 -8.5zM422 921
l65 -134h-70l-119 134h124z" />
    <glyph glyph-name="uni1EEB" unicode="&#x1eeb;" horiz-adv-x="579" 
d="M185 -18q-58 0 -92 35t-28 91l38 315h112l-34 -275q-2 -31 12 -50.5t48 -19.5t62.5 20.5t47.5 56.5t24 81l23 187h112l-52 -423h-101l2 94l4 -15q-17 -27 -44 -49.5t-61 -35t-73 -12.5zM477 340q39 -3 63 17t37 66h83q-16 -63 -44.5 -97t-65.5 -45.5t-81 -8.5zM290 670
l65 -134h-70l-119 134h124z" />
    <glyph glyph-name="uni1EEC" unicode="&#x1eec;" horiz-adv-x="838" 
d="M224 262q-5 -43 11.5 -79t50.5 -57t80 -21q47 0 86 21t65 57t31 79l57 466h120l-57 -469q-10 -79 -54.5 -139.5t-112.5 -94t-149 -33.5v0q-78 0 -138 33.5t-90 94t-20 139.5l57 469h120zM711 645q39 -3 63 17t37 66h83q-16 -63 -44.5 -97t-65.5 -45.5t-81 -8.5zM431 800
q19 13 33 25.5t16 29.5t-4.5 27.5t-26.5 10.5q-13 0 -24 -7t-19 -19l-38 27q19 31 45.5 45.5t55.5 14.5q41 -1 59 -24t17 -53q0 -26 -21 -55t-73 -53z" />
    <glyph glyph-name="uni1EED" unicode="&#x1eed;" horiz-adv-x="579" 
d="M185 -18q-58 0 -92 35t-28 91l38 315h112l-34 -275q-2 -31 12 -50.5t48 -19.5t62.5 20.5t47.5 56.5t24 81l23 187h112l-52 -423h-101l2 94l4 -15q-17 -27 -44 -49.5t-61 -35t-73 -12.5zM477 340q39 -3 63 17t37 66h83q-16 -63 -44.5 -97t-65.5 -45.5t-81 -8.5zM299 549
q19 13 33 25.5t16 29.5t-4.5 27.5t-26.5 10.5q-13 0 -24 -7t-19 -19l-38 27q19 31 45.5 45.5t55.5 14.5q41 -1 59 -24t17 -53q0 -26 -21 -55t-73 -53z" />
    <glyph glyph-name="uni1EEE" unicode="&#x1eee;" horiz-adv-x="838" 
d="M224 262q-5 -43 11.5 -79t50.5 -57t80 -21q47 0 86 21t65 57t31 79l57 466h120l-57 -469q-10 -79 -54.5 -139.5t-112.5 -94t-149 -33.5v0q-78 0 -138 33.5t-90 94t-20 139.5l57 469h120zM711 645q39 -3 63 17t37 66h83q-16 -63 -44.5 -97t-65.5 -45.5t-81 -8.5zM528 752
q-39 2 -62 20.5t-42 37.5q-12 13 -23.5 23t-27.5 11q-14 1 -25.5 -9.5t-18 -28.5t-8.5 -42l-69 6q2 45 20 82t48 58.5t71 18.5q29 -1 49.5 -18.5t37.5 -36.5q15 -16 28 -28t28 -13q16 -1 25.5 10.5t14.5 31t7 42.5l69 -5q1 -49 -16 -86t-45.5 -56t-60.5 -18z" />
    <glyph glyph-name="uni1EEF" unicode="&#x1eef;" horiz-adv-x="579" 
d="M185 -18q-58 0 -92 35t-28 91l38 315h112l-34 -275q-2 -31 12 -50.5t48 -19.5t62.5 20.5t47.5 56.5t24 81l23 187h112l-52 -423h-101l2 94l4 -15q-17 -27 -44 -49.5t-61 -35t-73 -12.5zM477 340q39 -3 63 17t37 66h83q-16 -63 -44.5 -97t-65.5 -45.5t-81 -8.5zM396 501
q-39 2 -62 20.5t-42 37.5q-12 13 -23.5 23t-27.5 11q-14 1 -25.5 -9.5t-18 -28.5t-8.5 -42l-69 6q2 45 20 82t48 58.5t71 18.5q29 -1 49.5 -18.5t37.5 -36.5q15 -16 28 -28t28 -13q16 -1 25.5 10.5t14.5 31t7 42.5l69 -5q1 -49 -16 -86t-45.5 -56t-60.5 -18z" />
    <glyph glyph-name="uni1EF0" unicode="&#x1ef0;" horiz-adv-x="838" 
d="M224 262q-5 -43 11.5 -79t50.5 -57t80 -21q47 0 86 21t65 57t31 79l57 466h120l-57 -469q-10 -79 -54.5 -139.5t-112.5 -94t-149 -33.5v0q-78 0 -138 33.5t-90 94t-20 139.5l57 469h120zM711 645q39 -3 63 17t37 66h83q-16 -63 -44.5 -97t-65.5 -45.5t-81 -8.5zM263 -102
q1 26 20 44.5t48 18.5q22 0 42 -13t20 -42q-1 -27 -20 -45.5t-48 -18.5q-21 0 -41.5 13.5t-20.5 42.5z" />
    <glyph glyph-name="uni1EF1" unicode="&#x1ef1;" horiz-adv-x="579" 
d="M185 -18q-58 0 -92 35t-28 91l38 315h112l-34 -275q-2 -31 12 -50.5t48 -19.5t62.5 20.5t47.5 56.5t24 81l23 187h112l-52 -423h-101l2 94l4 -15q-17 -27 -44 -49.5t-61 -35t-73 -12.5zM477 340q39 -3 63 17t37 66h83q-16 -63 -44.5 -97t-65.5 -45.5t-81 -8.5zM187 -117
q1 26 20 44.5t48 18.5q22 0 42 -13t20 -42q-1 -27 -20 -45.5t-48 -18.5q-21 0 -41.5 13.5t-20.5 42.5z" />
    <glyph glyph-name="Ygrave" unicode="&#x1ef2;" horiz-adv-x="704" 
d="M295 236l-208 492h142l157 -392l-35 -2l250 394h144l-333 -492l-29 -236h-117zM381 926l65 -134h-70l-119 134h124z" />
    <glyph glyph-name="ygrave" unicode="&#x1ef3;" horiz-adv-x="513" 
d="M73 -203l357 626h103l-350 -626h-110zM207 -3l-153 426h126l120 -369zM276 621l65 -134h-70l-119 134h124z" />
    <glyph glyph-name="uni1EF4" unicode="&#x1ef4;" horiz-adv-x="704" 
d="M295 236l-208 492h142l157 -392l-35 -2l250 394h144l-333 -492l-29 -236h-117zM224 -102q1 26 20 44.5t48 18.5q22 0 42 -13t20 -42q-1 -27 -20 -45.5t-48 -18.5q-21 0 -41.5 13.5t-20.5 42.5z" />
    <glyph glyph-name="uni1EF5" unicode="&#x1ef5;" horiz-adv-x="513" 
d="M73 -203l357 626h103l-350 -626h-110zM207 -3l-153 426h126l120 -369zM321 -104q1 26 20 44.5t48 18.5q22 0 42 -13t20 -42q-1 -27 -20 -45.5t-48 -18.5q-21 0 -41.5 13.5t-20.5 42.5z" />
    <glyph glyph-name="uni1EF6" unicode="&#x1ef6;" horiz-adv-x="704" 
d="M295 236l-208 492h142l157 -392l-35 -2l250 394h144l-333 -492l-29 -236h-117zM390 805q19 13 33 25.5t16 29.5t-4.5 27.5t-26.5 10.5q-13 0 -24 -7t-19 -19l-38 27q19 31 45.5 45.5t55.5 14.5q41 -1 59 -24t17 -53q0 -26 -21 -55t-73 -53z" />
    <glyph glyph-name="uni1EF7" unicode="&#x1ef7;" horiz-adv-x="513" 
d="M73 -203l357 626h103l-350 -626h-110zM207 -3l-153 426h126l120 -369zM286 500q19 13 33 25.5t16 29.5t-4.5 27.5t-26.5 10.5q-13 0 -24 -7t-19 -19l-38 27q19 31 45.5 45.5t55.5 14.5q41 -1 59 -24t17 -53q0 -26 -21 -55t-73 -53z" />
    <glyph glyph-name="uni1EF8" unicode="&#x1ef8;" horiz-adv-x="704" 
d="M295 236l-208 492h142l157 -392l-35 -2l250 394h144l-333 -492l-29 -236h-117zM488 757q-39 2 -62 20.5t-42 37.5q-12 13 -23.5 23t-27.5 11q-14 1 -25.5 -9.5t-18 -28.5t-8.5 -42l-69 6q2 45 20 82t48 58.5t71 18.5q29 -1 49.5 -18.5t37.5 -36.5q15 -16 28 -28t28 -13
q16 -1 25.5 10.5t14.5 31t7 42.5l69 -5q1 -49 -16 -86t-45.5 -56t-60.5 -18z" />
    <glyph glyph-name="uni1EF9" unicode="&#x1ef9;" horiz-adv-x="600" 
d="M73 -203l357 626h103l-350 -626h-110zM207 -3l-153 426h126l120 -369zM365 452q-38 2 -61.5 20.5t-41.5 37.5q-12 13 -23.5 23.5t-27.5 11.5q-15 1 -26.5 -10t-17.5 -29t-8 -42l-69 6q2 45 19.5 82t48 58.5t70.5 18.5q30 -1 50.5 -18.5t37.5 -36.5q14 -16 27 -28t29 -13
q15 -1 25 10.5t15 31t6 42.5l70 -5q0 -49 -17 -86t-45 -56t-61 -18z" />
    <glyph glyph-name="endash" unicode="&#x2013;" horiz-adv-x="517" 
d="M134 266h306l-12 -98h-306z" />
    <glyph glyph-name="emdash" unicode="&#x2014;" horiz-adv-x="711" 
d="M133 266h510l-12 -98h-510z" />
    <glyph glyph-name="quoteleft" unicode="&#x2018;" horiz-adv-x="166" 
d="M197 599q-13 -6 -26.5 -12.5t-26.5 -12.5q-25 28 -32 67t6 81q15 -1 30 -3t29 -4q-11 -35 -5 -65.5t25 -50.5v0z" />
    <glyph glyph-name="quoteright" unicode="&#x2019;" horiz-adv-x="166" 
d="M150 574q-11 6 -22.5 12.5t-23.5 12.5q24 20 37 50.5t11 65.5q14 2 30 4t31 3q3 -42 -14 -81t-49 -67v0z" />
    <glyph glyph-name="quotesinglbase" unicode="&#x201a;" horiz-adv-x="148" 
d="M62 -56q-12 8 -23.5 14t-23.5 12q24 21 37.5 51.5t10.5 65.5q15 2 30.5 4t30.5 3q3 -43 -14 -82t-48 -68v0z" />
    <glyph glyph-name="quotedblleft" unicode="&#x201c;" horiz-adv-x="252" 
d="M199 599q-13 -6 -26.5 -12.5t-27.5 -12.5q-24 28 -31 67t6 81q15 -1 30 -3t29 -4q-11 -35 -5 -65.5t25 -50.5v0zM304 599q-13 -6 -26 -12.5t-27 -12.5q-24 28 -31.5 67t5.5 81q15 -1 30 -3t29 -4q-10 -35 -4.5 -65.5t24.5 -50.5v0z" />
    <glyph glyph-name="quotedblright" unicode="&#x201d;" horiz-adv-x="252" 
d="M123 574q-11 6 -22.5 12.5t-23.5 12.5q24 20 37 50.5t11 65.5q14 2 30 4t31 3q3 -42 -14 -81t-49 -67v0zM229 574q-11 6 -22.5 12.5t-23.5 12.5q24 20 37 50.5t11 65.5q14 2 30 4t31 3q3 -42 -14 -81t-49 -67v0z" />
    <glyph glyph-name="quotedblbase" unicode="&#x201e;" horiz-adv-x="371" 
d="M62 -56q-12 8 -23.5 14t-23.5 12q24 21 37.5 51.5t10.5 65.5q15 2 30.5 4t30.5 3q3 -43 -14 -82t-48 -68v0zM168 -56q-12 8 -23.5 14t-23.5 12q24 21 37 51.5t11 65.5q15 2 30.5 4t30.5 3q3 -43 -14 -82t-48 -68v0z" />
    <glyph glyph-name="dagger" unicode="&#x2020;" horiz-adv-x="300" 
d="M85 473h245l-12 -98h-245zM176 620h101l-78 -626h-101z" />
    <glyph glyph-name="daggerdbl" unicode="&#x2021;" horiz-adv-x="300" 
d="M37 302h301l-12 -98h-301zM85 473h245l-12 -98h-245zM175 620h101l-77 -626h-101z" />
    <glyph glyph-name="bullet" unicode="&#x2022;" horiz-adv-x="486" 
d="M137 290q0 43 22.5 79.5t59.5 58t79 21.5q37 0 66 -17t45 -46.5t16 -66.5q0 -43 -22.5 -79t-59.5 -57t-80 -21q-37 0 -65 17t-44.5 46t-16.5 65v0z" />
    <glyph glyph-name="ellipsis" unicode="&#x2026;" horiz-adv-x="498" 
d="M33 54q0 29 22.5 48.5t46.5 19.5q19 0 35 -16t16 -40q0 -19 -10 -34t-25.5 -23.5t-30.5 -8.5q-21 0 -37.5 15t-16.5 39v0zM199 54q0 29 22.5 48.5t46.5 19.5q19 0 35 -16t16 -40q0 -19 -10 -34t-25.5 -23.5t-30.5 -8.5q-21 0 -37.5 15t-16.5 39v0zM365 54q0 29 22.5 48.5
t46.5 19.5q20 0 36 -16t16 -40q0 -19 -10.5 -34t-26 -23.5t-30.5 -8.5q-21 0 -37.5 15t-16.5 39v0z" />
    <glyph glyph-name="perthousand" unicode="&#x2030;" horiz-adv-x="1168" 
d="M214 278q-33 2 -59 14.5t-43 35t-25 55.5t-5 74q5 51 25 92t56 64t87 21q33 -2 58.5 -14.5t43 -35.5t25 -55t4.5 -73q-4 -50 -24.5 -91t-55.5 -65t-87 -22zM203 423q7 -19 13.5 -27t14 -7t18.5 9q8 10 11 20t2.5 21.5t-1.5 23.5t-1 27q-6 22 -12.5 29.5t-14 5
t-18.5 -11.5q-9 -9 -11.5 -18.5t-2.5 -19.5t1 -23t1 -29zM606 -21q-33 2 -59 14.5t-43 35t-25 55.5t-4 74q5 51 24.5 91.5t55.5 64t88 22.5q32 -2 58 -15t43 -35.5t25 -55t5 -73.5q-5 -50 -25 -91t-55.5 -64.5t-87.5 -22.5zM595 124q8 -18 14.5 -26t14 -7t17.5 9
q9 9 11.5 19.5t2.5 21.5t-1 23.5t-1 26.5q-7 23 -13 30t-14 4.5t-19 -10.5q-10 -13 -12.5 -25.5t-1 -28t1.5 -37.5zM752 635l-522 -637l-110 2l520 635h112zM946 -21q-34 2 -59.5 14.5t-42.5 35.5t-25 55.5t-4 73.5q5 51 24.5 91.5t55.5 64t88 22.5q32 -2 58 -15t43 -35.5
t25 -55t4 -73.5q-4 -50 -24 -91t-56 -64.5t-87 -22.5zM934 124q8 -19 14.5 -26.5t14 -6.5t18.5 9q8 10 11 20t2.5 21t-1.5 23.5t0 26.5q-7 23 -13.5 30t-14 4.5t-18.5 -10.5q-8 -10 -11 -19t-3 -19.5t1 -23t0 -29.5z" />
    <glyph glyph-name="guilsinglleft" unicode="&#x2039;" horiz-adv-x="397" 
d="M148 243q4 3 19 17.5t36 35.5l44 44t44 44.5t36 35.5t19 17l-14 -114q-5 -4 -15 -15.5t-22 -24.5t-22 -24.5t-15 -15.5q4 -4 11 -15.5t15.5 -25.5t16 -25t10.5 -16l-13 -114z" />
    <glyph glyph-name="guilsinglright" unicode="&#x203a;" horiz-adv-x="398" 
d="M263 243q-4 3 -18.5 17.5l-35.5 35.5t-44.5 44t-44.5 44.5t-36 35.5t-18 17l13 -114q5 -4 15 -15.5t22 -24.5t22 -24.5t15 -15.5q-3 -4 -10.5 -15.5t-16 -25.5t-16 -25t-10.5 -16l13 -114z" />
    <glyph glyph-name="fraction" unicode="&#x2044;" horiz-adv-x="300" 
d="M436 767q-94 -192 -188 -383.5t-189 -383.5h-101q95 192 189 383.5t188 383.5h101z" />
    <glyph glyph-name="uni2074" unicode="&#x2074;" horiz-adv-x="395" 
d="M380 445l-7 -64h-318l2 29l238 271h69l-49 -397h-97l35 281l25 4l-140 -164l-11 40h253z" />
    <glyph glyph-name="colonmonetary" unicode="&#x20a1;" horiz-adv-x="699" 
d="M609 795l-425 -862h-105l425 862h105zM780 795l-425 -862h-106l425 862h106zM622 40q-15 -9 -45 -21.5t-69.5 -22t-85.5 -9.5q-60 0 -121.5 19t-113 59t-82.5 105t-31 156q0 59 13.5 117.5t42.5 110.5t74 92t107.5 63t142.5 23q77 0 136 -23.5t96 -50.5l-60 -106
q-25 22 -66.5 43t-94.5 25q-65 2 -115 -19.5t-84.5 -61t-52.5 -92t-18 -112.5q0 -52 16.5 -95.5t47 -74.5t73.5 -48t95 -17q40 0 70 8.5t52 19.5t37 19z" />
    <glyph glyph-name="franc" unicode="&#x20a3;" horiz-adv-x="593" 
d="M161 728h441l-13 -110h-321l-25 -207h280l-15 -111h-280l-36 -300h-120zM43 188h234l-7 -63h-234z" />
    <glyph glyph-name="lira" unicode="&#x20a4;" horiz-adv-x="601" 
d="M453 460l-13 -105h-330l13 105h330zM434 304l-13 -104h-330l13 104h330zM202 547q6 47 38.5 85.5t84.5 60t118 21.5q73 0 119.5 -28t66.5 -77l-92 -58q-3 3 -8 10.5t-15 17t-29.5 16.5t-52.5 7q-37 0 -62 -11t-39 -33t-18 -54l-39 -321l1 10q1 9 -0.5 0.5t-5 -25t-10 -33
t-15.5 -23.5v0h187q30 0 46 10t18 32l4 38l102 1l-9 -71q-4 -35 -21 -63t-48.5 -43.5t-81.5 -15.5h-403l13 112h45q21 0 33 6t19 25.5t12 58.5z" />
    <glyph glyph-name="uni20A6" unicode="&#x20a6;" horiz-adv-x="860" 
d="M475 421h392l-9 -79h-393zM424 342h-394l9 79h395zM730 -26h-3l-492 545l33 -17l-59 -502h-118l92 753h6l483 -545l-26 11l60 509h117z" />
    <glyph glyph-name="peseta" unicode="&#x20a7;" horiz-adv-x="651" 
d="M560 530h106v-78h-107zM170 452h-110l1 78h109v-78zM357 728q55 0 98.5 -13.5t75 -40.5t48 -64.5t16.5 -86.5q0 -46 -15 -93.5t-48.5 -87.5t-86.5 -64.5t-129 -24.5h-102l-31 -253h-120l89 728h205zM326 365q42 0 70 15t45.5 37.5t24.5 46.5t7 42q0 24 -10.5 49.5
t-35.5 43t-70 17.5h-99l-30 -251h98z" />
    <glyph glyph-name="uni20A9" unicode="&#x20a9;" horiz-adv-x="1016" 
d="M82 460h909l-10 -79h-908zM114 724h136l117 -515l-19 8l185 358l35 -159l-256 -450zM471 724h115l138 -505l-22 4l227 501h125l-377 -756z" />
    <glyph glyph-name="dong" unicode="&#x20ab;" horiz-adv-x="600" 
d="M378 728h263l-10 -78h-263zM57 78h466l-9 -78h-466zM267 140q-61 1 -107.5 29.5t-70 80.5t-15.5 122q9 70 42.5 119.5t84.5 75.5t111 25q30 0 57.5 -10t49 -27t34.5 -40l-8 -32l37 302h111l-77 -634h-112l12 95l5 -27q-31 -40 -67 -60t-87 -19zM304 235q26 -1 49.5 10
t41.5 31t30 47l11 90q-6 25 -21 45t-38.5 32.5t-54.5 13.5q-32 1 -61 -15.5t-48.5 -46.5t-23.5 -69q-5 -38 8 -69.5t41 -49.5t66 -19z" />
    <glyph glyph-name="Euro" unicode="&#x20ac;" horiz-adv-x="759" 
d="M88 477h375l-11 -91h-375zM71 331h374l-11 -91h-374zM685 40q-15 -9 -44.5 -21.5t-69 -22t-85.5 -9.5q-61 0 -122.5 19t-112.5 59t-82 105t-31 156q0 59 13.5 117.5t42 110.5t73.5 92t107.5 63t143.5 23q77 0 135.5 -23.5t95.5 -50.5l-59 -106q-26 22 -67.5 43t-94.5 25
q-64 2 -114 -19.5t-84.5 -61t-52.5 -92t-18 -112.5q0 -52 16.5 -95.5t47 -74.5t73 -48t94.5 -17q40 0 70.5 8.5t52.5 19.5t36 19z" />
    <glyph glyph-name="uni20AD" unicode="&#x20ad;" horiz-adv-x="683" 
d="M73 442h543l-15 -112h-542zM244 449l-8 -37l20 23l309 293h151l-340 -318l261 -410h-147l-209 336l-56 -50l-35 -286h-118l89 728h118z" />
    <glyph glyph-name="uni20B1" unicode="&#x20b1;" horiz-adv-x="630" 
d="M509 588h157l-10 -79h-157zM508 457h142l-10 -79h-141zM172 378h-137l10 79h137zM188 509h-137l10 79h137zM345 728q54 0 98 -13.5t75 -40.5t48 -64.5t17 -86.5q0 -46 -15.5 -93.5t-48.5 -87.5t-86 -64.5t-129 -24.5h-102l-31 -253h-120l89 728h205zM313 365q43 0 71 15
t45 37.5t24.5 46.5t7.5 42q0 24 -10.5 49.5t-35.5 43t-70 17.5h-99l-30 -251h97z" />
    <glyph glyph-name="uni20B2" unicode="&#x20b2;" horiz-adv-x="747" 
d="M664 50q-20 -16 -59.5 -30t-85.5 -22.5t-88 -8.5q-29 0 -66.5 7.5t-78 23t-78.5 41t-69 63t-49 88.5t-17 117q1 52 15.5 108t44.5 109t76.5 94.5t111.5 66.5t150 24q61 -1 124 -17.5t114 -49.5l-52 -105q-38 26 -89.5 41t-98.5 14q-63 0 -109 -18t-77.5 -48t-50.5 -66.5
t-28 -75.5t-10 -74q0 -51 17 -88.5t45 -64t61.5 -42.5t67.5 -24t61 -9q29 -1 58 3.5t51 14.5l15 130h-137l14 111h255zM414 825h101l-117 -947h-101z" />
    <glyph glyph-name="uni20B5" unicode="&#x20b5;" horiz-adv-x="699" 
d="M622 40q-15 -9 -45 -21.5t-69.5 -22t-85.5 -9.5q-60 0 -121.5 19t-113 59t-82.5 105t-31 156q0 59 13.5 117.5t42.5 110.5t74 92t107.5 63t142.5 23q77 0 136 -23.5t96 -50.5l-60 -106q-25 22 -66.5 43t-94.5 25q-65 2 -115 -19.5t-84.5 -61t-52.5 -92t-18 -112.5
q0 -52 16.5 -95.5t47 -74.5t73.5 -48t95 -17q40 0 70 8.5t52 19.5t37 19zM410 836h101l-117 -947h-101z" />
    <glyph glyph-name="uni20B9" unicode="&#x20b9;" horiz-adv-x="532" 
d="M98 253l14 112h84q52 0 83 20.5t46.5 50t18.5 54.5q2 18 -1.5 39.5t-15 41t-35 32.5t-61.5 13h-89l14 112h410l-14 -112h-245l-87 80q60 0 108.5 -10.5t81 -34.5t47 -62.5t7.5 -94.5q-5 -43 -23.5 -86t-52 -77.5t-84 -56t-121.5 -21.5h-85zM327 0l-154 293l140 3
l150 -296h-136zM125 444l12 97h406l-12 -97h-406z" />
    <glyph glyph-name="uni20BA" unicode="&#x20ba;" horiz-adv-x="648" 
d="M599 322v-35.5t-3 -37.5q-10 -68 -42.5 -115.5t-82 -77t-111 -43t-130.5 -13.5h-116l89 728h116l-83 -680l-2 65q51 0 92.5 7t72 23t49.5 42.5t24 65.5q2 11 2 21v19zM448 465l36 -70l-400 -209l-36 70zM416 592l37 -70l-400 -207l-36 70z" />
    <glyph glyph-name="uni20BC" unicode="&#x20bc;" horiz-adv-x="766" 
d="M406 831h101l-102 -831h-101zM577 464q5 43 -13 79t-52.5 57.5t-80.5 21.5q-48 0 -89 -21.5t-67 -57.5t-32 -79l-57 -466h-114l57 469q10 80 55.5 140t113.5 93.5t146 33.5v0q79 0 138.5 -33.5t90 -93.5t20.5 -140l-58 -469h-115z" />
    <glyph glyph-name="uni20BD" unicode="&#x20bd;" horiz-adv-x="577" 
d="M13 193h296l-12 -103h-296zM34 363h259l-12 -103h-259zM345 728q55 0 99 -13.5t75 -40.5t47.5 -64.5t16.5 -86.5q0 -46 -15 -93.5t-48 -87.5t-86.5 -64.5t-129.5 -24.5h-102l-31 -253h-120l89 728h205zM314 365q42 0 70 15t45.5 37.5t25 46.5t7.5 42q0 24 -10.5 49.5
t-36 43t-70.5 17.5h-98l-31 -251h98z" />
    <glyph glyph-name="uni2116" unicode="&#x2116;" horiz-adv-x="1354" 
d="M882 234h398l-12 -98h-397zM711 -26h-3l-492 543l32 -15l-60 -502h-116l92 753h5l483 -543l-25 9l60 509h116zM1104 291q-39 0 -79.5 13t-74 38.5t-54 64.5t-20.5 93q0 39 13 81.5t42 79t76.5 59t115.5 22.5q58 0 109.5 -24t84.5 -70.5t33 -113.5q0 -26 -7.5 -58.5
t-24 -65t-45 -59.5t-70.5 -43.5t-99 -16.5zM1107 383q48 0 76 23.5t40.5 57.5t12.5 65q0 35 -11.5 58.5t-30 37t-39 20t-36.5 6.5q-46 0 -75 -23t-42 -57t-13 -66q0 -45 19 -71.5t46.5 -38.5t52.5 -12z" />
    <glyph glyph-name="trademark" unicode="&#x2122;" horiz-adv-x="582" 
d="M508 632l25 -21l-103 -122l-74 122l28 18l-20 -161h-67l34 270l116 -153h-10l155 153l-34 -270h-71zM106 727h183l-8 -65h-55l-24 -194h-73l24 194h-55z" />
    </font>
</defs>
</svg>
