<?xml version="1.0" standalone="no"?>
<!DOCTYPE svg PUBLIC "-//W3C//DTD SVG 1.1//EN" "http://www.w3.org/Graphics/SVG/1.1/DTD/svg11.dtd" >
<svg xmlns="http://www.w3.org/2000/svg" xmlns:xlink="http://www.w3.org/1999/xlink" version="1.1">
<metadata>
Created by FontForge 20190801 at Thu Nov 28 21:24:39 2019
 By www-data
Copyright 2010 The Josefin Sans Project Authors (https://github.com/ThomasJockin/JosefinSansFont-master), with Reserved Font Name "Josefin Sans".
</metadata>
<defs>
<font id="JosefinSansSemiBold" horiz-adv-x="0" >
  <font-face 
    font-family="JosefinSansSemiBold"
    font-weight="600"
    font-stretch="normal"
    units-per-em="1000"
    panose-1="0 0 0 0 0 0 0 0 0 0"
    ascent="750"
    descent="-250"
    x-height="423"
    cap-height="728"
    bbox="-91 -241 1357 1207"
    underline-thickness="50"
    underline-position="-125"
    unicode-range="U+000D-FB02"
  />
<missing-glyph horiz-adv-x="300" 
 />
    <glyph glyph-name="f_f" unicode="ff" horiz-adv-x="707" 
d="M114 0v325h-72v99h72v166q0 88 44.5 138.5t129.5 50.5q24 0 53 -7t51 -22l-47 -81q-10 10 -22 14t-23 4q-34 0 -54 -23t-20 -77v-163h132v-99h-132v-325h-112zM426 0v325h-72v99h72v166q0 88 44.5 138.5t129.5 50.5q24 0 53 -7t51 -22l-47 -81q-10 10 -22 14t-23 4
q-34 0 -54 -23t-20 -77v-163h132v-99h-132v-325h-112z" />
    <glyph glyph-name="fi" unicode="fi" horiz-adv-x="602" 
d="M114 0v325h-72v99h72v166q0 88 44.5 138.5t129.5 50.5q24 0 53 -7t51 -22l-47 -81q-10 10 -21.5 14t-23.5 4q-34 0 -54 -23t-20 -77v-163h116v-99h-116v-325h-112zM412 423h112v-423h-112v423zM407 575q0 26 20.5 42.5t44.5 16.5q23 0 42.5 -16.5t19.5 -42.5t-19.5 -42.5
t-42.5 -16.5q-24 0 -44.5 16.5t-20.5 42.5z" />
    <glyph glyph-name="fl" unicode="fl" horiz-adv-x="602" 
d="M114 0v325h-72v99h72v166q0 88 44.5 138.5t129.5 50.5q24 0 53 -7t51 -22l-47 -81q-10 10 -22 14t-23 4q-34 0 -54 -23t-20 -77v-163h116v-99h-116v-325h-112zM412 780h112v-780h-112v780z" />
    <glyph glyph-name="f_f_i" unicode="ffi" horiz-adv-x="915" 
d="M114 0v325h-72v99h72v166q0 88 44.5 138.5t129.5 50.5q24 0 53 -7t51 -22l-47 -81q-10 10 -22 14t-23 4q-34 0 -54 -23t-20 -77v-163h132v-99h-132v-325h-112zM426 0v325h-72v99h72v166q0 88 44.5 138.5t129.5 50.5q24 0 53 -7t51 -22l-47 -81q-10 10 -22 14t-23 4
q-34 0 -54 -23t-20 -77v-163h132v-99h-132v-325h-112zM726 423h112v-423h-112v423zM721 575q0 26 20.5 43t44.5 17t43 -17t19 -43t-19 -42.5t-43 -16.5t-44.5 17t-20.5 42z" />
    <glyph glyph-name="f_f_l" unicode="ffl" horiz-adv-x="973" 
d="M114 0v325h-72v99h72v166q0 88 44.5 138.5t129.5 50.5q24 0 53 -7t51 -22l-47 -81q-10 10 -22 14t-23 4q-34 0 -54 -23t-20 -77v-163h132v-99h-132v-325h-112zM426 0v325h-72v99h72v166q0 88 44.5 138.5t129.5 50.5q24 0 53 -7t51 -22l-47 -81q-10 10 -22 14t-23 4
q-34 0 -54 -23t-20 -77v-163h132v-99h-132v-325h-112zM784 780h112v-780h-112v780z" />
    <glyph glyph-name=".notdef" horiz-adv-x="300" 
 />
    <glyph glyph-name=".null" 
 />
    <glyph glyph-name="nonmarkingreturn" horiz-adv-x="333" 
 />
    <glyph glyph-name="NULL" 
 />
    <glyph glyph-name="NULL" 
 />
    <glyph glyph-name="CR" unicode="&#xd;" horiz-adv-x="320" 
 />
    <glyph glyph-name="space" unicode=" " horiz-adv-x="320" 
 />
    <glyph glyph-name="exclam" unicode="!" horiz-adv-x="202" 
d="M49 762h100v-570h-100v570zM102 -3q-30 0 -49.5 16.5t-19.5 43.5q0 26 19.5 44t49.5 18q29 0 48 -18t19 -44q0 -27 -18.5 -43.5t-48.5 -16.5z" />
    <glyph glyph-name="quotedbl" unicode="&#x22;" horiz-adv-x="350" 
d="M163 731q-1 -63 -2 -125.5t-2 -126.5h-95v252h99zM298 731q-1 -63 -2 -125.5t-2 -126.5h-95v252h99z" />
    <glyph glyph-name="numbersign" unicode="#" horiz-adv-x="580" 
d="M270 653q-6 -47 -11.5 -93.5t-12.5 -93.5h86q6 47 12 93.5t11 93.5h102q-6 -47 -11.5 -93.5t-12.5 -93.5h96q-3 -24 -4.5 -48.5t-5.5 -48.5h-96q-3 -22 -5.5 -44t-5.5 -45h96q-3 -24 -6 -48.5t-6 -49.5h-96q-5 -46 -10.5 -91t-10.5 -91h-101q5 46 10.5 91t10.5 91h-85
q-5 -46 -11 -91t-11 -91h-102q6 46 11.5 91t10.5 91h-88q4 25 7 49.5t5 48.5h88q3 23 5.5 45t5.5 44h-88q4 24 6 48.5t5 48.5h87q6 47 12 93.5t12 93.5h101zM236 369q-2 -22 -5 -44t-6 -45h86q3 23 5.5 45t4.5 44h-85z" />
    <glyph glyph-name="dollar" unicode="$" horiz-adv-x="567" 
d="M249 -68v436l28 38v389h68v-408l-27 -49v-406h-69zM482 580q-39 20 -83 34.5t-84 14.5q-54 0 -85.5 -24t-31.5 -66q0 -30 21.5 -52.5t56 -39t72.5 -31.5q33 -12 65.5 -28.5t58.5 -40.5t41 -59.5t15 -87.5q0 -57 -28.5 -104.5t-82.5 -75.5t-131 -28q-46 0 -89.5 10
t-82.5 27.5t-72 39.5l52 91q24 -18 55 -33t64 -24t62 -9q31 0 61.5 10.5t51 33.5t20.5 61q0 31 -17.5 53t-46.5 38.5t-63 29.5t-69 29t-65.5 39.5t-49.5 57.5t-19 84q0 60 28 104t77.5 70t114.5 28q77 0 131.5 -18.5t96.5 -44.5z" />
    <glyph glyph-name="percent" unicode="%" horiz-adv-x="792" 
d="M201 278q-49 0 -82.5 23t-50 63t-16.5 92t16.5 92t50 63t82.5 23q50 0 83 -23t50 -63t17 -92t-17 -92t-50 -63t-83 -23zM150 456q0 -45 12.5 -72t38.5 -27q27 0 39 27t12 72q0 50 -12 74t-39 24q-26 0 -38.5 -23.5t-12.5 -74.5zM594 -21q-50 0 -83.5 23t-50 63.5
t-16.5 92.5t16.5 92t50 63t83.5 23q49 0 82.5 -23t50.5 -63t17 -92t-17 -92.5t-50.5 -63.5t-82.5 -23zM542 157q0 -45 12.5 -72t39.5 -27q26 0 38.5 27t12.5 72q0 50 -12.5 74.5t-38.5 24.5q-27 0 -39.5 -24t-12.5 -75zM683 635l-445 -637l-110 2l443 635h112z" />
    <glyph glyph-name="ampersand" unicode="&#x26;" horiz-adv-x="731" 
d="M689 0h-32h-45.5h-40h-16.5l-338 450q-9 14 -22.5 36t-23 49.5t-9.5 56.5q0 42 21 80t61.5 63t100.5 25q64 0 113.5 -25.5t80.5 -61.5l-58 -77q-31 30 -60 48t-57 18q-40 0 -61 -24t-21 -56q0 -16 7.5 -34t15.5 -31.5t10 -17.5zM308 343q-27 0 -51.5 -10.5t-43.5 -28.5
t-30 -41t-11 -49q0 -36 18.5 -63t50 -42.5t69.5 -15.5q36 0 62 11t44 29t28 40l74 -64q-26 -50 -82.5 -85t-141.5 -35q-68 0 -123 28.5t-87 78t-32 112.5q0 48 21.5 88.5t58 70.5t81.5 48t93 19zM545 434h107l-120 -305l-84 51z" />
    <glyph glyph-name="quotesingle" unicode="'" horiz-adv-x="169" 
d="M137 731q-1 -63 -2 -125.5t-2 -126.5h-96v252h100z" />
    <glyph glyph-name="parenleft" unicode="(" horiz-adv-x="405" 
d="M91 295q0 102 24.5 190.5t62.5 157.5t80 114l90 -46q-38 -45 -70 -106.5t-51 -139t-19 -170.5t19 -170.5t51 -138.5t70 -106l-90 -47q-42 46 -80 115t-62.5 157.5t-24.5 189.5v0z" />
    <glyph glyph-name="parenright" unicode=")" horiz-adv-x="406" 
d="M321 295q0 -101 -24.5 -189.5t-62 -158t-80.5 -114.5l-90 47q39 44 70.5 105.5t50.5 139t19 170.5t-19 170.5t-50.5 139t-70.5 105.5l90 47q43 -45 80.5 -114.5t62 -157.5t24.5 -190v0z" />
    <glyph glyph-name="asterisk" unicode="*" horiz-adv-x="335" 
d="M135 517q-18 -11 -36 -21t-36 -21q-8 15 -17 30.5t-18 30.5q19 9 36.5 19.5t36.5 20.5l-36 22t-36 21q8 14 16 28.5t16 28.5q18 -11 36.5 -22t37.5 -21v87h69q0 -22 -0.5 -43.5t-0.5 -43.5q19 10 37.5 20.5t37.5 21.5q8 -14 16 -28.5t16 -28.5q-18 -10 -36.5 -21
t-38.5 -22v0q19 -11 37 -21.5t37 -20.5q-8 -15 -17 -30l-18 -30q-18 10 -36 21t-37 22q0 -20 -0.5 -40.5t-0.5 -41.5h-65v83z" />
    <glyph glyph-name="plus" unicode="+" horiz-adv-x="552" 
d="M219 417h102v-134h132v-98h-132v-133h-102v133h-131v98h131v134z" />
    <glyph glyph-name="comma" unicode="," horiz-adv-x="204" 
d="M174 88q-22 -53 -43.5 -105t-43.5 -105h-90q20 53 39 105t39 105h99z" />
    <glyph glyph-name="hyphen" unicode="-" horiz-adv-x="305" 
d="M54 270h187v-98h-187v98z" />
    <glyph glyph-name="period" unicode="." horiz-adv-x="170" 
d="M26 61q0 25 19 43t42 18q21 0 40 -18t19 -43q0 -28 -19 -44.5t-40 -16.5q-23 0 -42 16.5t-19 44.5v0z" />
    <glyph glyph-name="slash" unicode="/" horiz-adv-x="399" 
d="M401 748q-71 -192 -141.5 -383.5t-141.5 -383.5h-101q71 192 141.5 383.5t141.5 383.5h101z" />
    <glyph glyph-name="zero" unicode="0" horiz-adv-x="625" 
d="M313 -2q-60 0 -110.5 21.5t-88 64.5t-58.5 105.5t-21 143.5q0 88 20 151.5t57 104.5t88 59.5t113 18.5q59 0 109.5 -21.5t88 -64t58.5 -105t21 -143.5q0 -83 -21 -146t-58.5 -105t-88 -63t-109.5 -21zM312 109q55 0 89.5 29t51 80.5t16.5 117.5q0 64 -16.5 113.5t-51 78
t-89.5 27.5q-54 1 -89 -28t-51 -79t-16 -115q0 -64 16 -115t51 -80t89 -29z" />
    <glyph glyph-name="one" unicode="1" horiz-adv-x="335" 
d="M52 660h183v-660h-117v548h-66v112z" />
    <glyph glyph-name="two" unicode="2" horiz-adv-x="560" 
d="M54 0q62 63 120 122t104 114.5t72.5 107.5t26.5 100q0 28 -9 49t-25 35t-36.5 21t-44.5 7q-29 0 -50 -9t-34 -23.5t-20 -31t-7 -33.5q0 -33 10.5 -58.5t28.5 -44.5l-71 -65q-26 15 -44 44.5t-27.5 62.5t-9.5 58q0 55 28.5 103t83 78.5t132.5 30.5q65 0 113.5 -29.5
t75.5 -78.5t27 -106q0 -48 -17.5 -93.5t-47.5 -90t-66.5 -87.5t-73.5 -87l-52 16h273v-112h-460z" />
    <glyph glyph-name="three" unicode="3" horiz-adv-x="525" 
d="M445 660l-166 -285l-66 33q12 6 26 9t27 3q37 1 72 -8.5t63 -32.5t45 -62t17 -97q0 -71 -32.5 -122t-86 -78.5t-116.5 -27.5q-48 0 -98.5 20t-81.5 53l59 96q17 -21 49.5 -39t68.5 -18q31 0 57.5 14.5t43.5 42t17 66.5q0 52 -30 82t-83 30q-29 0 -47 -3.5t-34 -8.5l-3 3
l140 233l35 -15h-228v112h352z" />
    <glyph glyph-name="four" unicode="4" horiz-adv-x="542" 
d="M12 154v0l409 514h2v-426h82v-89h-82v-153h-117v154h-294zM312 409l-132 -172l-14 5h140v181z" />
    <glyph glyph-name="five" unicode="5" horiz-adv-x="521" 
d="M244 -8q-56 0 -107.5 20.5t-81.5 50.5l61 91q19 -22 52.5 -36.5t65.5 -14.5t57 14t39.5 39t14.5 59q0 37 -13.5 65t-40.5 44t-65 16q-33 0 -62.5 -9t-63.5 -29h-1v358h321v-112h-221v-143l-14 24q16 4 33.5 6.5t35.5 2.5q68 0 115 -30t71.5 -80t24.5 -109
q0 -64 -29 -115.5t-79 -81.5t-113 -30z" />
    <glyph glyph-name="six" unicode="6" horiz-adv-x="551" 
d="M279 -8q-69 0 -124 32.5t-87.5 94t-32.5 147.5q0 63 24 120t66 108.5t95 95.5t111 80l78 -84q-81 -36 -134.5 -86t-81 -102t-30.5 -97l-29 4q27 58 70 90.5t114 32.5q50 0 95 -27.5t73.5 -74.5t28.5 -110q0 -69 -34 -119.5t-87.5 -77.5t-114.5 -27zM274 96q34 0 61 14.5
t43 41.5t16 64q0 35 -16 60.5t-43.5 39.5t-60.5 14t-60 -13.5t-43.5 -36.5t-16.5 -50v-20q0 -30 16 -56t43.5 -42t60.5 -16z" />
    <glyph glyph-name="seven" unicode="7" horiz-adv-x="495" 
d="M472 660l-257 -660h-130l224 563l39 -15h-313v112h437z" />
    <glyph glyph-name="eight" unicode="8" horiz-adv-x="527" 
d="M23 210q0 52 19 88.5t48 61t56 38.5q-26 20 -44 47t-18 71t23.5 78.5t64.5 54t91 19.5q51 0 91.5 -19.5t65 -52.5t24.5 -75q0 -48 -18.5 -75t-45.5 -48q28 -15 56.5 -39.5t48 -61t19.5 -87.5q0 -57 -32 -107t-86.5 -80.5t-123.5 -30.5t-123 30.5t-85 80.5t-31 107v0z
M142 215q0 -34 16.5 -62.5t43.5 -45.5t60 -17q35 0 63.5 17t45.5 45.5t17 62.5t-16.5 62t-43.5 45t-61 18q-33 1 -61.5 -15.5t-46 -45t-17.5 -64.5v0zM197 502q0 -27 21 -46t48 -19q26 0 46.5 19t20.5 46q0 29 -20 49t-47 20t-48 -20t-21 -49v0z" />
    <glyph glyph-name="nine" unicode="9" horiz-adv-x="541" 
d="M231 212q-49 0 -94 27t-73.5 75t-28.5 109q0 75 33.5 128t87.5 81.5t114 28.5q70 0 125 -30.5t87.5 -84.5t32.5 -123q0 -79 -29 -144t-77 -117t-106 -95.5t-116 -81.5l-78 85q82 39 143 84.5t95.5 92.5t38.5 90l31 -2q-29 -59 -70.5 -91t-115.5 -32zM275 310
q52 0 86 31.5t34 77.5v20q0 32 -16 58.5t-43 43t-61 16.5q-33 0 -60.5 -15.5t-43.5 -43.5t-16 -66t16.5 -65.5t43.5 -42t60 -14.5z" />
    <glyph glyph-name="colon" unicode=":" horiz-adv-x="178" 
d="M26 338q0 26 19 43.5t42 17.5q21 0 40 -17.5t19 -43.5q0 -28 -19 -44.5t-40 -16.5q-23 0 -42 16.5t-19 44.5v0zM26 61q0 25 19 43t42 18q21 0 40 -18t19 -43q0 -28 -19 -44.5t-40 -16.5q-23 0 -42 16.5t-19 44.5v0z" />
    <glyph glyph-name="semicolon" unicode=";" horiz-adv-x="204" 
d="M60 315q0 25 18.5 43t41.5 18q22 0 40.5 -18t18.5 -44q0 -27 -18.5 -43.5t-40.5 -16.5t-41 16.5t-19 44.5v0zM160 88q-22 -53 -43.5 -105t-43.5 -105h-91q20 53 39.5 105t39.5 105h99z" />
    <glyph glyph-name="less" unicode="&#x3c;" horiz-adv-x="583" 
d="M492 375l-229 -134l229 -134v-121l-443 255l443 256v-122z" />
    <glyph glyph-name="equal" unicode="=" horiz-adv-x="719" 
d="M102 400h513v-98h-513v98zM102 203h513v-98h-513v98z" />
    <glyph glyph-name="greater" unicode="&#x3e;" horiz-adv-x="576" 
d="M88 108l229 134l-229 134v121l443 -255l-443 -256v0v122z" />
    <glyph glyph-name="question" unicode="?" horiz-adv-x="461" 
d="M157 190v59q0 49 13 80t33 53t41 41q30 25 52 52t22 71q0 28 -14 49t-35 33t-44 12q-32 0 -55 -14t-38 -36.5t-25 -48.5l-92 43q6 20 22 47t42.5 53t65.5 43t91 17q57 0 102 -21t72 -62.5t27 -104.5q0 -51 -14.5 -84t-36 -57t-45.5 -46q-19 -18 -36 -36.5t-26.5 -44
t-9.5 -65.5v-33h-112zM214 -3q-30 0 -49.5 16.5t-19.5 43.5q0 26 19.5 44t49.5 18q29 0 48 -18t19 -44q0 -27 -19 -43.5t-48 -16.5z" />
    <glyph glyph-name="at" unicode="@" horiz-adv-x="1041" 
d="M446 -222q-82 0 -155 24t-129.5 72.5t-88 121.5t-31.5 172q0 63 19.5 131.5t61 132.5t107.5 115t158.5 81.5t214.5 30.5q95 0 168 -27.5t124 -77t77.5 -114.5t26.5 -140q0 -62 -19 -117.5t-52.5 -98.5t-80.5 -67.5t-103 -24.5q-42 0 -72.5 20t-44.5 55t-6 81l19 -51
q-15 -24 -45.5 -49t-68.5 -42t-79 -17q-55 0 -98.5 23.5t-68.5 67.5t-24 106q0 71 31 129.5t86.5 92.5t127.5 34q44 0 72.5 -11t46.5 -29.5t30 -40.5l17 62h106l-37 -268q-2 -17 0 -31.5t11 -22t25 -7.5q22 0 44 15.5t39.5 43.5t28.5 65.5t11 81.5q0 74 -35 135.5t-103 98.5
t-170 37q-107 0 -183.5 -29t-127 -76.5t-79.5 -101.5t-41.5 -105t-12.5 -88q0 -80 24.5 -137.5t68.5 -94.5t102 -55.5t125 -18.5q58 0 114.5 18.5t105.5 49.5l46 -65q-39 -30 -88 -50t-99 -30t-96 -10zM491 81q30 0 55 11t44.5 31t31.5 48l13 92q-4 26 -20 45.5t-40.5 30.5
t-55.5 11q-40 0 -73 -21t-52 -55t-19 -74q0 -33 14.5 -60t41 -43t60.5 -16z" />
    <glyph glyph-name="A" unicode="A" horiz-adv-x="699" 
d="M24 0l322 758h7l322 -758h-134l-226 576l83 56l-260 -632h-114zM226 271h249l40 -100h-324z" />
    <glyph glyph-name="B" unicode="B" horiz-adv-x="630" 
d="M299 728q111 0 175.5 -45t64.5 -138q0 -62 -29 -105.5t-79.5 -67t-118.5 -25.5l-18 62q81 -1 144 -25.5t99.5 -69t36.5 -105.5q0 -57 -20.5 -96.5t-55.5 -64.5t-79 -36.5t-92 -11.5h-227v728h199zM317 418q53 0 77.5 30.5t24.5 71.5q0 50 -31 73t-84 23h-87v-198h100z
M322 108q37 0 67 10.5t48 33t18 56.5q0 38 -21 59t-53 30t-67 9h-97v-198h105z" />
    <glyph glyph-name="C" unicode="C" horiz-adv-x="695" 
d="M640 57q-16 -11 -47.5 -27t-75 -27.5t-96.5 -10.5q-85 1 -153 30.5t-115 80t-72.5 116t-25.5 139.5q0 83 26 152t74 119.5t114 78.5t144 28q69 0 123.5 -18.5t91.5 -41.5l-46 -109q-28 19 -70 38t-95 19q-48 0 -92 -19.5t-77 -55t-52.5 -82.5t-19.5 -102q0 -57 17.5 -105
t50 -82.5t78 -54t102.5 -19.5q56 0 98.5 17.5t68.5 39.5z" />
    <glyph glyph-name="D" unicode="D" horiz-adv-x="760" 
d="M100 0v728h207q108 0 184.5 -33t123.5 -87t68.5 -120.5t21.5 -133.5q0 -82 -29 -147t-79.5 -111.5t-116 -71t-138.5 -24.5h-242zM217 112h104q58 0 106 16.5t83.5 48t55 78.5t19.5 107q0 68 -22.5 116.5t-59 79t-79.5 45t-85 14.5h-122v-505z" />
    <glyph glyph-name="E" unicode="E" horiz-adv-x="658" 
d="M100 728h483v-112h-366v-194h326v-112h-326v-198h380v-112h-497v728z" />
    <glyph glyph-name="F" unicode="F" horiz-adv-x="593" 
d="M100 728h442v-112h-325v-205h283v-111h-283v-300h-117v728z" />
    <glyph glyph-name="G" unicode="G" horiz-adv-x="756" 
d="M679 67q-14 -14 -41.5 -27t-61.5 -24t-70 -17.5t-68 -6.5q-88 0 -158.5 27t-120.5 74.5t-77 112.5t-27 141q0 95 30 167.5t82 122t119.5 74.5t142.5 25q66 0 122.5 -15t96.5 -38l-38 -108q-19 11 -49 21.5t-61 16.5t-56 6q-63 0 -112.5 -17.5t-84.5 -51.5t-53.5 -82.5
t-18.5 -110.5q0 -56 19.5 -102t54.5 -79t84 -50.5t108 -17.5q34 0 66 6t55 19v121h-137v112h254v-299z" />
    <glyph glyph-name="H" unicode="H" horiz-adv-x="792" 
d="M691 728v-728h-116v310h-358v-310h-117v728h117v-307h358v307h116z" />
    <glyph glyph-name="I" unicode="I" horiz-adv-x="317" 
d="M100 728h117v-728h-117v728z" />
    <glyph glyph-name="J" unicode="J" horiz-adv-x="379" 
d="M279 141q0 -91 -35.5 -155.5t-97.5 -99t-142 -37.5v0v113q69 4 113.5 46.5t44.5 135.5v584h117v-587z" />
    <glyph glyph-name="K" unicode="K" horiz-adv-x="689" 
d="M218 449l-3 -37l16 23l274 293h150l-301 -318l312 -410h-148l-249 336l-51 -50v-286h-118v728h118v-279z" />
    <glyph glyph-name="L" unicode="L" horiz-adv-x="630" 
d="M100 728h117v-616h358v-112h-475v728z" />
    <glyph glyph-name="M" unicode="M" horiz-adv-x="935" 
d="M100 0v754h1l392 -555l-50 11l390 544h2v-754h-116v491l8 -59l-264 -373h-2l-268 373l20 54v-486h-113z" />
    <glyph glyph-name="N" unicode="N" horiz-adv-x="844" 
d="M740 -26l-559 542l34 -14l3 -502h-118v753h6l550 -542l-27 8l-2 509h116v-754h-3z" />
    <glyph glyph-name="O" unicode="O" horiz-adv-x="855" 
d="M55 363q0 76 29 143t80 119t118.5 81.5t144.5 29.5q76 0 143.5 -29.5t119 -81.5t81 -119t29.5 -143q0 -77 -29.5 -144.5t-81 -118.5t-119 -79.5t-143.5 -28.5q-78 0 -145 28.5t-118 79t-80 118t-29 145.5zM175 363q0 -54 19.5 -101t54.5 -82.5t81 -55.5t100 -20
q52 0 97.5 20t79.5 55.5t53.5 82.5t19.5 101q0 55 -20 102t-54 83t-80 56t-99 20t-99 -20t-80.5 -56t-53.5 -83.5t-19 -101.5z" />
    <glyph glyph-name="P" unicode="P" horiz-adv-x="611" 
d="M306 728q83 0 142 -28t90.5 -80t31.5 -126q0 -43 -13.5 -86t-42 -78t-76 -56t-116.5 -21h-105v-253h-117v728h206zM322 365q38 0 64 13t40.5 33t21 42t6.5 39t-6 38.5t-20 41t-39 32t-64 12.5h-108v-251h105z" />
    <glyph glyph-name="Q" unicode="Q" horiz-adv-x="890" 
d="M594 113h240v-113h-393zM55 363q0 76 29 143t80 119t118.5 81.5t144.5 29.5q76 0 143.5 -29.5t119 -81.5t81 -119t29.5 -143q0 -77 -29.5 -144.5t-81 -118.5t-119 -79.5t-143.5 -28.5q-78 0 -145 28.5t-118 79t-80 118t-29 145.5zM175 363q0 -53 19.5 -100t54.5 -82.5
t81 -55.5t100 -20q52 0 97.5 20t79.5 55t53.5 82t19.5 101q0 53 -20 100t-54 82.5t-80 55.5t-99 20t-99 -20t-80.5 -56t-53.5 -83t-19 -99z" />
    <glyph glyph-name="R" unicode="R" horiz-adv-x="670" 
d="M305 728q60 0 110 -15.5t85 -45.5t54.5 -73.5t19.5 -99.5q0 -43 -13 -86t-42.5 -77.5t-77.5 -56t-119 -21.5h-105v-253h-117v728h205zM321 365q39 0 65 12.5t40.5 31.5t21 40.5t6.5 40.5q0 18 -6 39.5t-20.5 41t-39.5 32.5t-63 13h-108v-251h104zM447 296l186 -296h-135
l-190 293z" />
    <glyph glyph-name="S" unicode="S" horiz-adv-x="582" 
d="M482 580q-39 20 -83 34.5t-84 14.5q-54 0 -85.5 -24t-31.5 -66q0 -30 21.5 -52.5t56 -39t72.5 -31.5q33 -12 65.5 -28.5t58.5 -40.5t41 -59.5t15 -87.5q0 -57 -28.5 -104.5t-82.5 -75.5t-131 -28q-46 0 -89.5 10t-82.5 27.5t-72 39.5l52 91q24 -18 55 -33t64 -24t62 -9
q31 0 61.5 10.5t51 33.5t20.5 61q0 31 -17.5 53t-46.5 38.5t-63 29.5t-69 29t-65.5 39.5t-49.5 57.5t-19 84q0 60 28 104t77.5 70t114.5 28q77 0 131.5 -18.5t96.5 -44.5z" />
    <glyph glyph-name="T" unicode="T" horiz-adv-x="583" 
d="M48 728h487v-112h-188v-616h-116v616h-183v112z" />
    <glyph glyph-name="U" unicode="U" horiz-adv-x="741" 
d="M205 262q0 -43 22.5 -79t59.5 -57t83 -21q48 0 86 21t60 57t22 79v466h115v-469q0 -79 -38 -139.5t-102 -94t-143 -33.5v0q-78 0 -142 33.5t-101.5 94t-37.5 139.5v469h116v-466z" />
    <glyph glyph-name="V" unicode="V" horiz-adv-x="726" 
d="M176 728l229 -570l-67 13l214 557h137l-326 -762l-326 762h139z" />
    <glyph glyph-name="W" unicode="W" horiz-adv-x="1014" 
d="M37 724h136l180 -516l-19 8l140 359l54 -159l-200 -450zM393 724h116l200 -505l-23 4l166 501h125l-284 -756z" />
    <glyph glyph-name="X" unicode="X" horiz-adv-x="693" 
d="M40 728h148l475 -728h-150zM30 0l256 401l55 -115l-167 -286h-144zM347 443l166 285h141l-246 -384z" />
    <glyph glyph-name="Y" unicode="Y" horiz-adv-x="704" 
d="M292 236l-269 492h143l205 -392l-35 -2l202 394h143l-273 -492v-236h-116v236z" />
    <glyph glyph-name="Z" unicode="Z" horiz-adv-x="716" 
d="M48 0q7 10 27.5 40.5t50 75.5t64 99t71.5 110.5t72 110t64.5 98t49.5 75t27 39.5l14 -32h-306q-20 0 -40.5 8t-34 23t-13.5 35v83h108v-14q0 -19 7 -21t24 -2h424l-418 -630l-7 14h431v-112h-615z" />
    <glyph glyph-name="bracketleft" unicode="[" horiz-adv-x="367" 
d="M100 758h219v-105h-102v-701h102v-103h-219v909z" />
    <glyph glyph-name="backslash" unicode="\" horiz-adv-x="406" 
d="M110 748q70 -192 141 -383.5t141 -383.5h-113q-71 192 -141.5 383.5t-141.5 383.5h114z" />
    <glyph glyph-name="bracketright" unicode="]" horiz-adv-x="367" 
d="M267 -151h-219v104h102v701h-102v104h219v-909z" />
    <glyph glyph-name="asciicircum" unicode="^" horiz-adv-x="477" 
d="M288 487q-4 6 -15 20t-22.5 28.5t-15.5 20.5q-4 -6 -14.5 -20.5t-22 -28.5t-15.5 -20h-69q30 46 60.5 91.5t60.5 91.5v0q31 -46 61.5 -91.5t60.5 -91.5h-69z" />
    <glyph glyph-name="underscore" unicode="_" horiz-adv-x="609" 
d="M102 97h406v-97h-406v97z" />
    <glyph glyph-name="grave" unicode="`" horiz-adv-x="291" 
d="M20 621h124l69 -134h-70z" />
    <glyph glyph-name="a" unicode="a" horiz-adv-x="597" 
d="M254 -11q-59 0 -107.5 25t-76.5 74.5t-28 122.5q0 72 29.5 123.5t78 79.5t105.5 28q61 0 98.5 -24.5t58.5 -56.5l-6 -16l11 78h103v-423h-112v103l11 -27q-3 -6 -15.5 -19.5t-33.5 -29.5t-49.5 -27t-66.5 -11zM285 81q31 0 56 11t42 31t25 48v92q-8 26 -26 45.5
t-43.5 30.5t-56.5 11q-35 0 -63.5 -17t-46 -47t-17.5 -69q0 -38 18 -69t48 -49t64 -18z" />
    <glyph glyph-name="b" unicode="b" horiz-adv-x="605" 
d="M344 -11q-57 0 -98 22.5t-68 57.5l11 29v-98h-112v780h111v-444l-1 39q25 30 70 48.5t101 18.5q57 0 103.5 -27t74 -76.5t27.5 -119.5q0 -71 -30 -123t-80.5 -79.5t-108.5 -27.5zM320 84q36 0 65.5 17.5t47 48.5t17.5 70q0 38 -17.5 68t-47 48t-65.5 18
q-32 0 -58.5 -11.5t-45 -31t-27.5 -46.5v-93q10 -26 28 -46t44 -31t59 -11z" />
    <glyph glyph-name="c" unicode="c" horiz-adv-x="465" 
d="M427 39q-28 -23 -68.5 -36.5t-81.5 -13.5q-70 0 -123 27.5t-82.5 77t-29.5 118.5t31.5 119t83 76.5t108.5 26.5q54 0 95 -14.5t70 -39.5l-55 -73q-16 13 -41.5 24.5t-58.5 11.5t-61 -17t-44 -46.5t-16 -67.5q0 -36 17 -66t46.5 -47.5t68.5 -17.5q26 0 47 7.5t38 20.5z
" />
    <glyph glyph-name="d" unicode="d" horiz-adv-x="605" 
d="M250 -11q-59 0 -106.5 28t-74.5 80t-27 121q0 71 29 121t79.5 76.5t113.5 26.5q46 0 88 -17.5t67 -50.5l-2 -38v444h111v-780h-112v96l11 -28q-32 -34 -76 -56.5t-101 -22.5zM285 84q34 0 59.5 11t44 31.5t27.5 48.5v90q-8 26 -26.5 46t-45.5 31.5t-59 11.5
q-35 0 -64.5 -17.5t-47.5 -47.5t-18 -69q0 -38 18 -69t48 -49t64 -18z" />
    <glyph glyph-name="e" unicode="e" horiz-adv-x="533" 
d="M279 -11q-75 0 -128 29t-81 80t-28 117q0 63 32 114.5t86.5 82t120.5 30.5q87 0 143.5 -50.5t75.5 -142.5l-341 -115l-26 63l267 95l-24 -13q-10 30 -35 52.5t-69 22.5q-35 0 -62 -17t-42.5 -46.5t-15.5 -69.5q0 -42 17 -72.5t46 -47t66 -16.5q26 0 49.5 9t45.5 24
l51 -83q-33 -21 -72.5 -33.5t-75.5 -12.5z" />
    <glyph glyph-name="f" unicode="f" horiz-adv-x="402" 
d="M114 0v325h-72v99h72v166q0 88 44.5 138.5t129.5 50.5q24 0 53 -7t51 -22l-47 -81q-10 10 -22 14t-23 4q-34 0 -54 -23t-20 -77v-163h132v-99h-132v-325h-112z" />
    <glyph glyph-name="g" unicode="g" horiz-adv-x="612" 
d="M287 -211q-51 0 -88 12t-65.5 31.5t-53.5 40.5l66 77q29 -27 61.5 -45t77.5 -18q42 0 72.5 13.5t48 39t17.5 60.5v105l7 -21q-17 -39 -62 -67t-112 -28q-58 0 -107 29.5t-78 80.5t-29 115q0 66 31 117.5t81 81t107 29.5q56 0 99.5 -20t65.5 -50l-6 -16l12 67h103v-425
q0 -59 -31.5 -106.5t-87 -75t-129.5 -27.5zM155 217q0 -38 17.5 -69t48 -49t68.5 -18q33 0 60 11t46 31t28 47v92q-9 27 -28.5 46.5t-46.5 30.5t-59 11q-38 0 -68.5 -17t-48 -47t-17.5 -69z" />
    <glyph glyph-name="h" unicode="h" horiz-adv-x="569" 
d="M77 0v780h110v-450l-2 17q22 41 65 67.5t103 26.5t99 -35t40 -92v-314h-112v274q-1 32 -18 51.5t-54 20.5q-34 0 -61 -21t-42.5 -56.5t-15.5 -80.5v-188h-112z" />
    <glyph glyph-name="i" unicode="i" horiz-adv-x="266" 
d="M77 423h112v-423h-112v423zM72 575q0 26 20.5 43t44.5 17t43 -17t19 -43t-19 -42.5t-43 -16.5t-44.5 17t-20.5 42z" />
    <glyph glyph-name="j" unicode="j" horiz-adv-x="274" 
d="M92 -204l-65 69q28 24 44.5 58t16.5 81v419h112v-425q0 -73 -25 -122.5t-83 -79.5zM81 575q0 26 20.5 43t44.5 17t43 -17t19 -43t-19 -42.5t-43 -16.5t-44.5 17t-20.5 42z" />
    <glyph glyph-name="k" unicode="k" horiz-adv-x="517" 
d="M77 0v780h112v-780h-112zM294 284l193 -284h-131l-136 220zM155 127l-11 107l256 199l69 -60z" />
    <glyph glyph-name="l" unicode="l" horiz-adv-x="266" 
d="M77 780h112v-780h-112v780z" />
    <glyph glyph-name="m" unicode="m" horiz-adv-x="840" 
d="M178 423l9 -86l-3 7q24 46 65.5 72t96.5 26q35 0 62 -11t45.5 -31t23.5 -50l-5 -2q26 43 67 68.5t87 25.5q62 0 99 -35.5t38 -91.5v-315h-111v272q-1 30 -13 50.5t-45 22.5q-36 0 -62.5 -22.5t-40.5 -58t-15 -74.5v-190h-112v272q-1 30 -14 50.5t-46 22.5
q-35 0 -61 -22.5t-40 -58t-14 -74.5v-190h-112v423h101z" />
    <glyph glyph-name="n" unicode="n" horiz-adv-x="569" 
d="M178 423l9 -91l-3 12q21 44 65 70.5t104 26.5t99 -35t40 -92v-314h-112v274q-1 32 -18 51.5t-54 20.5q-34 0 -61 -20.5t-42.5 -56t-15.5 -81.5v-188h-112v423h101z" />
    <glyph glyph-name="o" unicode="o" horiz-adv-x="555" 
d="M42 216q0 64 30.5 115.5t84.5 81t123 29.5q71 0 123.5 -29.5t81 -81t28.5 -115.5t-28.5 -115.5t-81.5 -81.5t-124 -30q-69 0 -122.5 27.5t-84 78.5t-30.5 121zM155 215q0 -37 16 -67.5t44 -48.5t62 -18q37 0 64.5 18t43 48.5t15.5 67.5q0 38 -15.5 68.5t-43 48.5
t-64.5 18q-35 0 -62.5 -18.5t-43.5 -48.5t-16 -68z" />
    <glyph glyph-name="p" unicode="p" horiz-adv-x="605" 
d="M334 -11q-44 0 -85 19t-66 52l5 34v-297h-111v634h97l15 -98l-10 30q31 34 75.5 56.5t100.5 22.5q60 0 107 -28t74 -79.5t27 -121.5t-29.5 -120t-81.5 -77t-118 -27zM312 78q37 0 68.5 17t50.5 47.5t19 68.5q0 40 -17.5 70.5t-47 48t-65.5 17.5q-33 0 -59 -11t-44 -31.5
t-28 -48.5v-85q7 -27 24 -48.5t43 -33t56 -11.5z" />
    <glyph glyph-name="q" unicode="q" horiz-adv-x="605" 
d="M247 -11q-56 0 -102.5 27t-74.5 77t-28 119q0 71 30.5 122.5t81 79.5t109.5 28q56 0 96.5 -22t67.5 -57l-11 -30v98h112v-634h-111v301l3 -42q-25 -29 -70.5 -48t-102.5 -19zM285 78q33 0 60.5 11.5t45.5 33t25 48.5v85q-9 28 -27.5 48.5t-44 31.5t-59.5 11t-64 -17.5
t-48 -48.5t-18 -70q0 -38 18 -68t48 -47.5t64 -17.5z" />
    <glyph glyph-name="r" unicode="r" horiz-adv-x="390" 
d="M178 423l10 -120l-4 17q17 38 48.5 65t65 42t54.5 15l-5 -112q-48 4 -83.5 -17t-55.5 -56.5t-20 -74.5v-182h-111v423h101z" />
    <glyph glyph-name="s" unicode="s" horiz-adv-x="423" 
d="M204 -9q-48 0 -91.5 17t-72.5 50l47 63q28 -27 55.5 -39.5t52.5 -12.5q19 0 34.5 4.5t25 14.5t9.5 27q0 20 -14 31.5t-36 19t-47 14.5q-54 18 -81 50.5t-27 75.5q0 33 17 63.5t52 50.5t88 20q48 0 83.5 -11t66.5 -35l-43 -68q-18 18 -42.5 27.5t-44.5 10.5
q-18 1 -32 -4.5t-23 -15.5t-9 -23q0 -20 14.5 -32t37.5 -19t46 -15q31 -9 54.5 -25t37.5 -38.5t14 -55.5q0 -38 -19 -71.5t-57 -53.5t-96 -20z" />
    <glyph glyph-name="t" unicode="t" horiz-adv-x="373" 
d="M118 609h112v-186h110v-88h-110v-335h-112v335h-73v88h73v186z" />
    <glyph glyph-name="u" unicode="u" horiz-adv-x="561" 
d="M213 -18q-58 0 -96 35.5t-40 91.5v314h112v-274q2 -31 18 -51t51 -20q33 0 58.5 20.5t40.5 56.5t15 81v187h112v-423h-101l-9 93l3 -14q-13 -28 -37 -50t-56.5 -34.5t-70.5 -12.5z" />
    <glyph glyph-name="v" unicode="v" horiz-adv-x="510" 
d="M258 -11l-243 434h133l153 -318l-69 3l138 315h125l-232 -434h-5z" />
    <glyph glyph-name="w" unicode="w" horiz-adv-x="678" 
d="M361 423l112 -257l-21 -2l101 259h110l-193 -448l-136 286l-124 -286l-195 448h110l119 -272l-38 6l88 203l-29 63h96z" />
    <glyph glyph-name="x" unicode="x" horiz-adv-x="490" 
d="M250 275l93 148h112l-165 -229zM474 0h-135l-324 423h138zM237 148l-104 -148h-113l165 223z" />
    <glyph glyph-name="y" unicode="y" horiz-adv-x="510" 
d="M112 -203l281 626h102l-273 -626h-110zM221 -3l-206 426h126l166 -369z" />
    <glyph glyph-name="z" unicode="z" horiz-adv-x="487" 
d="M128 332q-33 0 -57 22t-24 62v48h84v-14q0 -18 8 -22.5t26 -4.5h270l-246 -355l-21 24h264v-92h-407l251 364l18 -32h-166z" />
    <glyph glyph-name="braceleft" unicode="{" horiz-adv-x="372" 
d="M283 659q-20 0 -31.5 -7t-16 -28.5t-4.5 -66.5v-110q0 -43 -11 -72t-26 -45.5t-29 -25.5q12 -9 27.5 -25.5t27 -42t11.5 -61.5v-127q0 -44 4.5 -65.5t16 -29t31.5 -7.5h42v-98h-70q-26 0 -51 1.5t-45.5 11.5t-32.5 37t-12 78v161q0 29 -8 56.5t-26 45.5t-46 18v0v96
q28 1 46 19t26 45.5t8 56.5v163q0 48 12 73t32 35t45.5 11.5t51.5 1.5h70v-99h-42z" />
    <glyph glyph-name="bar" unicode="|" horiz-adv-x="287" 
d="M90 711h102v-947h-102v947z" />
    <glyph glyph-name="braceright" unicode="}" horiz-adv-x="383" 
d="M100 -54q21 0 32.5 7.5t16 29.5t4.5 66v118q0 40 11.5 67t27 43.5t27.5 24.5q-12 9 -28 25t-27 42t-11 62v127q0 45 -4.5 66t-16 28t-32.5 7h-42v99h70q26 0 50.5 -1.5t45 -11t33 -34.5t12.5 -73v-161q0 -21 4 -43.5t13 -41.5t25 -31t38 -13v0v-95q-22 -1 -38 -13
t-25 -31t-13 -41.5t-4 -43.5v-156q0 -47 -12 -72t-32 -35t-45.5 -11.5t-51.5 -1.5h-70v98h42z" />
    <glyph glyph-name="asciitilde" unicode="~" horiz-adv-x="436" 
d="M305 430q-39 0 -64 17t-46 35q-13 12 -26.5 21.5t-29.5 9.5q-14 0 -24 -11t-14.5 -30t-3.5 -42l-69 1q-3 45 10 83t40.5 61t67.5 23q30 0 52.5 -16t42.5 -34q16 -14 30.5 -25.5t30.5 -11.5q15 0 23 12t11 31.5t2 43.5l69 -1q7 -49 -6 -87t-38.5 -59t-57.5 -21z" />
    <glyph glyph-name="uni00A0" unicode="&#xa0;" horiz-adv-x="320" 
 />
    <glyph glyph-name="exclamdown" unicode="&#xa1;" horiz-adv-x="203" 
d="M49 -213h100v570h-100v-570zM102 552q-30 0 -49.5 -17t-19.5 -43q0 -27 19.5 -44.5t49.5 -17.5q29 0 48 17.5t19 44.5q0 26 -18.5 43t-48.5 17z" />
    <glyph glyph-name="cent" unicode="&#xa2;" horiz-adv-x="465" 
d="M238 491h68v-559h-68v559zM427 39q-28 -23 -68.5 -36.5t-81.5 -13.5q-70 0 -123 27.5t-82.5 77t-29.5 118.5t31.5 119t83 76.5t108.5 26.5q54 0 95 -14.5t70 -39.5l-55 -73q-16 13 -41.5 24.5t-58.5 11.5t-61 -17t-44 -46.5t-16 -67.5q0 -36 17 -66t46.5 -47.5
t68.5 -17.5q26 0 47 7.5t38 20.5z" />
    <glyph glyph-name="sterling" unicode="&#xa3;" horiz-adv-x="648" 
d="M418 398v-113h-322v113h322zM162 547q0 47 27.5 85.5t77 60t115.5 21.5q72 0 122.5 -28t75.5 -77l-84 -58q-9 13 -22 24.5t-34 19t-56 7.5q-37 0 -61 -11t-35 -33t-11 -54v-290v-21q0 -16 -1.5 -33t-7 -32t-17.5 -25l-16 9h208q31 0 45 10t14 32v38l101 1v-71
q0 -27 -7 -49t-23.5 -38.5t-42.5 -25.5t-63 -9h-403v112h45q21 0 32 6t16 25.5t5 58.5v345z" />
    <glyph glyph-name="currency" unicode="&#xa4;" horiz-adv-x="505" 
d="M383 442q24 -37 24 -81q0 -23 -7 -44t-19 -39l28 -28l-48 -48q-8 7 -14.5 14.5t-14.5 14.5q-36 -23 -81 -23q-23 0 -43 6t-37 16v0l-29 -29l-48 48l28 28q-11 18 -18 39.5t-7 44.5v0q0 23 6.5 43t17.5 37l-13.5 13.5l-13.5 13.5l48 48l27 -27q19 11 39 18t43 7t43.5 -7
t38.5 -18v0l27 27l48 -48zM165 360q0 -23 12 -43t31.5 -31.5t43.5 -11.5t43.5 11.5t31.5 31.5t12 43q0 25 -12 44.5t-31.5 31t-43.5 11.5t-43.5 -11.5t-31.5 -31t-12 -44.5v0z" />
    <glyph glyph-name="yen" unicode="&#xa5;" horiz-adv-x="704" 
d="M169 307h376v-91h-376v91zM170 163h375v-91h-375v91zM292 305l-269 423h143l205 -323l-35 -3l202 326h143l-273 -423v-305h-116v305z" />
    <glyph glyph-name="brokenbar" unicode="&#xa6;" horiz-adv-x="218" 
d="M62 711h101v-356h-101v356zM62 119h101v-356h-101v356z" />
    <glyph glyph-name="section" unicode="&#xa7;" horiz-adv-x="574" 
d="M376 138l-43 42q47 -2 85 -20.5t61 -51.5t23 -81q0 -56 -28.5 -102t-79 -74t-115.5 -28q-42 0 -83 8.5t-78 25t-68 41.5l58 96q29 -22 57 -37t54.5 -22.5t52.5 -7.5q30 0 54.5 9.5t39.5 28.5t15 45q0 27 -18 43.5t-46.5 27.5t-61.5 18q-32 9 -65.5 21.5t-61.5 32.5
t-45 48.5t-17 68.5q0 54 26.5 88.5t67 50t83.5 13.5l-10 -42q-53 18 -85.5 43t-46.5 57.5t-14 68.5q0 33 12 65.5t38 59.5t66.5 43t96.5 16q59 0 109.5 -19t88.5 -50l-50 -85q-37 29 -70 41t-66 13q-36 0 -59 -9.5t-34 -25t-11 -34.5q0 -25 18 -41.5t48 -28t65 -20.5
q32 -8 64.5 -20t60 -31t44 -48t16.5 -72q0 -57 -37.5 -103.5t-110.5 -61.5zM411 282q1 24 -17.5 42t-45.5 29.5t-55 15.5q-50 2 -81 -19t-33 -52q0 -27 16 -46.5t44 -32.5t60 -21q26 2 51 12t42.5 28.5t18.5 43.5z" />
    <glyph glyph-name="dieresis" unicode="&#xa8;" horiz-adv-x="426" 
d="M57 533q0 26 19 43.5t41 17.5t41 -17.5t19 -43.5q0 -27 -19 -44t-41 -17t-41 17t-19 44v0zM249 533q0 26 19 43.5t42 17.5q21 0 40 -17.5t19 -43.5q0 -27 -19 -44t-40 -17q-23 0 -42 17t-19 44v0z" />
    <glyph glyph-name="copyright" unicode="&#xa9;" horiz-adv-x="860" 
d="M585 194q-24 -23 -63 -43.5t-91 -19.5q-52 2 -94.5 28.5t-67.5 70.5t-25 96q0 58 24.5 102.5t68.5 70.5t104 26q20 0 43 -4t45.5 -12.5t36.5 -21.5l-45 -86q-16 16 -34 21t-38 5q-26 0 -46.5 -14t-31.5 -36t-11 -48t11 -47.5t31 -35t48 -13.5q22 0 44 9t39 28zM430 -29
q-74 0 -139 26.5t-115 74.5t-78 112.5t-28 140.5q0 77 28 142t78 113t115 74.5t139 26.5t139.5 -26.5t115 -74.5t77.5 -113t28 -142q0 -76 -27.5 -140.5t-77 -112.5t-114.5 -74.5t-141 -26.5zM430 61q74 0 133.5 34.5t94.5 94t35 135.5q0 77 -35 136.5t-94.5 94t-133.5 34.5
t-134 -34.5t-95 -94t-35 -136.5q0 -76 34 -136t93.5 -94t136.5 -34z" />
    <glyph glyph-name="ordfeminine" unicode="&#xaa;" horiz-adv-x="395" 
d="M159 424q-36 0 -65.5 16.5t-46.5 50.5t-17 83q0 48 17.5 82.5t46.5 53.5t63 19q38 0 62 -14t37 -35l-4 -15l7 53h80v-288h-86v64l7 -15q-3 -6 -16 -19.5t-34 -24.5t-51 -11zM186 493q18 0 31 7t22.5 20t13.5 31v53q-6 25 -24.5 40.5t-43.5 15.5q-29 0 -49 -22.5
t-20 -59.5q0 -24 9.5 -43t25.5 -30.5t35 -11.5z" />
    <glyph glyph-name="guillemotleft" unicode="&#xab;" horiz-adv-x="607" 
d="M38 243q3 3 20.5 17.5t43 35.5t54 44t54 44.5t43 35.5t20.5 17v-101q-4 -4 -19 -17t-33.5 -29t-33 -29.5t-18.5 -17.5q4 -4 18.5 -17.5t33 -30t33.5 -30t19 -17.5v-101zM270 243q3 3 20.5 17.5t43.5 35.5t54 44t54 44.5t43.5 35.5t20.5 17v-101q-4 -4 -19 -17t-33.5 -29
t-33.5 -29.5t-19 -17.5q4 -4 19 -17.5t33.5 -30t33.5 -30t19 -17.5v-101z" />
    <glyph glyph-name="logicalnot" unicode="&#xac;" horiz-adv-x="487" 
d="M61 309h366v-205h-117v93h-249v112z" />
    <glyph glyph-name="uni00AD" unicode="&#xad;" horiz-adv-x="600" 
d="M54 270h187v-98h-187v98z" />
    <glyph glyph-name="registered" unicode="&#xae;" horiz-adv-x="518" 
d="M259 274q-63 0 -115.5 29.5t-84 80.5t-31.5 116t31.5 116t84 80.5t115.5 29.5q64 0 116 -29.5t83.5 -80.5t31.5 -116t-31.5 -116t-83.5 -80.5t-116 -29.5zM259 335q46 0 83.5 21.5t59 59t21.5 84.5q0 48 -21.5 85t-59 58.5t-83.5 21.5t-83.5 -21.5t-59 -58.5t-21.5 -85
q0 -47 21.5 -84.5t59 -59t83.5 -21.5zM177 615h93q41 0 61.5 -19.5t20.5 -54.5q0 -28 -19 -52t-58 -24h-36v-75h-62v225zM258 512q16 0 22 8t6 20q0 11 -6 19.5t-21 8.5h-20v-56h19zM312 479l40 -89h-71l-32 88z" />
    <glyph glyph-name="macron" unicode="&#xaf;" horiz-adv-x="365" 
d="M58 545h249v-79h-249v79z" />
    <glyph glyph-name="degree" unicode="&#xb0;" horiz-adv-x="286" 
d="M31 569q0 30 14.5 54t39.5 38.5t55 14.5t54 -14.5t38.5 -38.5t14.5 -54t-14.5 -54.5t-38.5 -39t-54 -14.5t-55 14.5t-39.5 39t-14.5 54.5v0zM141 522q18 0 32 13.5t14 32.5t-14 32.5t-33 13.5t-32 -13.5t-13 -32.5t13 -32.5t33 -13.5v0z" />
    <glyph glyph-name="plusminus" unicode="&#xb1;" horiz-adv-x="533" 
d="M219 580h102v-135h132v-97h-132v-134h-102v134h-131v97h131v135zM88 176h365v-98h-365v98z" />
    <glyph glyph-name="uni00B2" unicode="&#xb2;" horiz-adv-x="405" 
d="M59 631q18 27 58.5 45t83.5 17q65 -1 105 -36t40 -97q0 -42 -22 -79t-56 -68t-69 -57.5t-61 -48.5l16 76h206v-94h-290v64q24 14 51 33.5t51.5 42.5t40.5 49t16 52q0 37 -15 53.5t-43 16.5q-23 0 -45.5 -13t-33.5 -30z" />
    <glyph glyph-name="uni00B3" unicode="&#xb3;" horiz-adv-x="384" 
d="M164 286q-42 0 -71 16t-44 32l32 65q9 -10 27 -25.5t44 -14.5q26 0 43.5 16t17.5 49q0 36 -19 51t-46 15q-16 0 -27.5 -2.5t-18.5 -6.5l-5 10l83 130l24 -17h-140v81h236l-104 -189l-73 20q13 11 30 19t41 8q28 0 55.5 -12.5t46.5 -38t19 -64.5t-18.5 -71.5t-52.5 -51.5
t-80 -19z" />
    <glyph glyph-name="acute" unicode="&#xb4;" horiz-adv-x="292" 
d="M249 621l-136 -134h-69l81 134h124z" />
    <glyph glyph-name="uni00B5" unicode="&#xb5;" horiz-adv-x="561" 
d="M213 -18q-56 0 -91.5 34.5t-40.5 86.5l108 -12v-292h-112v311v313h112v-274q2 -31 18 -51t51 -20q33 0 58.5 20.5t40.5 56.5t15 81v187h112v-423h-101l-11 98l5 -19q-14 -28 -37.5 -50t-56 -34.5t-70.5 -12.5z" />
    <glyph glyph-name="paragraph" unicode="&#xb6;" horiz-adv-x="569" 
d="M204 429q-46 0 -83.5 22.5t-59.5 60.5t-22 83q0 47 22 84.5t59.5 60t83.5 22.5h266v-762h-100v664h-66v-664h-100v429z" />
    <glyph glyph-name="periodcentered" unicode="&#xb7;" horiz-adv-x="172" 
d="M26 288q0 25 19 43t42 18q21 0 40 -18t19 -43q0 -28 -19 -44.5t-40 -16.5q-23 0 -42 16.5t-19 44.5v0z" />
    <glyph glyph-name="cedilla" unicode="&#xb8;" horiz-adv-x="390" 
d="M104 -147q11 -11 27.5 -18.5t36.5 -7.5q23 0 43 10.5t20 30.5q0 15 -12.5 28t-47.5 13q-16 0 -33 -4t-30 -8l-18 53l69 60l86 -3l-74 -84l-23 27q11 4 24.5 6t26.5 3q54 1 90 -21.5t36 -67.5q0 -35 -21 -58t-53.5 -34t-70.5 -11q-40 0 -67 12t-44 29z" />
    <glyph glyph-name="uni00B9" unicode="&#xb9;" horiz-adv-x="275" 
d="M37 661h167v-389h-104v289h-63v100z" />
    <glyph glyph-name="ordmasculine" unicode="&#xba;" horiz-adv-x="375" 
d="M30 575q0 44 20 78t56 54t83 20t82 -20t55 -54t20 -78q0 -43 -19.5 -78t-55 -55t-83.5 -20q-46 0 -82 19t-56 53t-20 81zM117 574q0 -21 9.5 -39t25 -28t35.5 -10q21 0 37.5 10t25.5 28t9 39q0 22 -9.5 40t-25.5 28.5t-37 10.5q-20 0 -36 -11t-25 -28.5t-9 -39.5z" />
    <glyph glyph-name="guillemotright" unicode="&#xbb;" horiz-adv-x="607" 
d="M556 243q-3 3 -20.5 17.5t-43 35.5t-54 44t-54 44.5t-43 35.5t-20.5 17v-101q4 -4 18.5 -17t33.5 -29t33.5 -29.5t18.5 -17.5q-4 -4 -18.5 -17.5t-33.5 -30t-33.5 -30t-18.5 -17.5v-101zM324 243q-3 3 -20.5 17.5t-43.5 35.5t-54 44t-54 44.5t-43.5 35.5t-20.5 17v-101
q4 -4 19 -17t33.5 -29t33.5 -29.5t19 -17.5q-4 -4 -19 -17.5t-33.5 -30t-33.5 -30t-19 -17.5v-101z" />
    <glyph glyph-name="onequarter" unicode="&#xbc;" horiz-adv-x="831" 
d="M660 690l-407 -690h-105l407 690h105zM39 661h167v-389h-104v289h-63v100zM802 161v-64h-317l-2 29l204 271h69v-397h-96v281l24 4l-120 -164l-15 40h253z" />
    <glyph glyph-name="onehalf" unicode="&#xbd;" horiz-adv-x="897" 
d="M39 663h167v-389h-104v289h-63v100zM535 334q18 27 58.5 45t83.5 17q65 -1 105 -36t40 -97q0 -42 -22 -79t-56 -68t-69 -57.5t-61 -48.5l16 76h206v-94h-290v64q24 14 51 33.5t51.5 42.5t40.5 49t16 52q0 37 -15 53.5t-43 16.5q-23 0 -45.5 -13t-33.5 -30zM647 690
l-407 -690h-105l407 690h105z" />
    <glyph glyph-name="threequarters" unicode="&#xbe;" horiz-adv-x="856" 
d="M165 286q-42 0 -71 16t-44 32l32 65q9 -10 27 -25.5t44 -14.5q26 0 43.5 16t17.5 49q0 36 -19 51t-46 15q-16 0 -27.5 -2.5t-18.5 -6.5l-5 10l83 130l24 -17h-140v81h236l-104 -189l-73 20q13 11 30 19t41 8q28 0 55.5 -12.5t46.5 -38t19 -64.5t-18.5 -71.5t-52.5 -51.5
t-80 -19zM687 690l-407 -690h-105l407 690h105zM804 162v-64h-317l-2 29l204 271h70v-397h-97v281l24 4l-120 -164l-15 40h253z" />
    <glyph glyph-name="questiondown" unicode="&#xbf;" horiz-adv-x="443" 
d="M307 349v-59q0 -48 -13 -79.5t-33 -53t-42 -41.5q-29 -25 -51 -52t-22 -71q0 -28 14 -49t35 -33t44 -12q32 0 55 14t38 37t25 48l92 -43q-7 -20 -22.5 -47t-42.5 -53t-65.5 -43t-90.5 -17q-56 1 -102 21.5t-72.5 62.5t-26.5 104q0 51 14.5 84t36.5 57.5t45 45.5
q20 19 36.5 37t26 43.5t9.5 65.5v33h112zM250 542q30 0 49.5 -16.5t19.5 -43.5q0 -26 -19.5 -44t-49.5 -18q-29 0 -48 18t-19 44q0 27 18.5 43.5t48.5 16.5z" />
    <glyph glyph-name="Agrave" unicode="&#xc0;" horiz-adv-x="699" 
d="M24 0l322 758h7l322 -758h-134l-226 576l83 56l-260 -632h-114zM226 271h249l40 -100h-324zM184 929h124l69 -134h-70z" />
    <glyph glyph-name="Aacute" unicode="&#xc1;" horiz-adv-x="699" 
d="M24 0l322 758h7l322 -758h-134l-226 576l83 56l-260 -632h-114zM226 271h249l40 -100h-324zM516 924l-136 -134h-69l81 134h124z" />
    <glyph glyph-name="Acircumflex" unicode="&#xc2;" horiz-adv-x="699" 
d="M24 0l322 758h7l322 -758h-134l-226 576l83 56l-260 -632h-114zM226 271h249l40 -100h-324zM416 805l-87 88l30 8l-88 -96h-103l173 176h1l176 -176h-102z" />
    <glyph glyph-name="Atilde" unicode="&#xc3;" horiz-adv-x="699" 
d="M24 0l322 758h7l322 -758h-134l-226 576l83 56l-260 -632h-114zM226 271h249l40 -100h-324zM426 826q-33 0 -54.5 14.5t-39.5 30.5q-12 10 -23 18.5t-25 8.5q-13 0 -21.5 -9.5t-12.5 -25.5t-3 -37l-58 1q-4 39 7.5 71.5t35.5 52t58 19.5q26 0 45 -14t36 -28
q14 -13 26.5 -23t26.5 -10q19 0 25.5 21.5t6.5 53.5l58 -1q5 -42 -5.5 -74.5t-32.5 -50.5t-50 -18z" />
    <glyph glyph-name="Adieresis" unicode="&#xc4;" horiz-adv-x="699" 
d="M24 0l322 758h7l322 -758h-134l-226 576l83 56l-260 -632h-114zM226 271h249l40 -100h-324zM188 854q0 26 19 43.5t41 17.5t41 -17.5t19 -43.5q0 -27 -19 -44t-41 -17t-41 17t-19 44v0zM380 854q0 26 19 43.5t42 17.5q21 0 40 -17.5t19 -43.5q0 -27 -19 -44t-40 -17
q-23 0 -42 17t-19 44v0z" />
    <glyph glyph-name="Aring" unicode="&#xc5;" horiz-adv-x="699" 
d="M24 0l322 758h7l322 -758h-134l-226 576l83 56l-260 -632h-114zM226 271h249l40 -100h-324zM251 886q0 43 28.5 69t72.5 26q43 0 72 -26t29 -69t-29 -69.5t-72 -26.5t-72 26.5t-29 69.5zM311 884q0 -19 11.5 -31t29.5 -12q19 0 30 12t11 31q0 21 -11 32t-30 11
q-18 0 -29.5 -11t-11.5 -32z" />
    <glyph glyph-name="AE" unicode="&#xc6;" horiz-adv-x="957" 
d="M481 728h401v-112h-285v-196h245v-112h-245v-196h299v-112h-415v728zM495 595q-2 -10 -6 -23t-4 -15l-341 -557h-134l471 728zM247 264h249v-92h-284z" />
    <glyph glyph-name="Ccedilla" unicode="&#xc7;" horiz-adv-x="695" 
d="M640 57q-16 -11 -47.5 -27t-75 -27.5t-96.5 -10.5q-85 1 -153 30.5t-115 80t-72.5 116t-25.5 139.5q0 83 26 152t74 119.5t114 78.5t144 28q69 0 123.5 -18.5t91.5 -41.5l-46 -109q-28 19 -70 38t-95 19q-48 0 -92 -19.5t-77 -55t-52.5 -82.5t-19.5 -102q0 -57 17.5 -105
t50 -82.5t78 -54t102.5 -19.5q56 0 98.5 17.5t68.5 39.5zM321 -147q11 -11 27.5 -18.5t36.5 -7.5q23 0 43 10.5t20 30.5q0 15 -12.5 28t-47.5 13q-16 0 -33 -4t-30 -8l-18 53l69 60l86 -3l-74 -84l-23 27q11 4 24.5 6t26.5 3q54 1 90 -21.5t36 -67.5q0 -35 -21 -58
t-53.5 -34t-70.5 -11q-40 0 -67 12t-44 29z" />
    <glyph glyph-name="Egrave" unicode="&#xc8;" horiz-adv-x="658" 
d="M100 728h483v-112h-366v-194h326v-112h-326v-198h380v-112h-497v728zM174 913h124l69 -134h-70z" />
    <glyph glyph-name="Eacute" unicode="&#xc9;" horiz-adv-x="658" 
d="M100 728h483v-112h-366v-194h326v-112h-326v-198h380v-112h-497v728zM506 908l-136 -134h-69l81 134h124z" />
    <glyph glyph-name="Ecircumflex" unicode="&#xca;" horiz-adv-x="658" 
d="M100 728h483v-112h-366v-194h326v-112h-326v-198h380v-112h-497v728zM405 790l-87 88l30 8l-88 -96h-103l173 176h1l176 -176h-102z" />
    <glyph glyph-name="Edieresis" unicode="&#xcb;" horiz-adv-x="658" 
d="M100 728h483v-112h-366v-194h326v-112h-326v-198h380v-112h-497v728zM178 838q0 26 19 43.5t41 17.5t41 -17.5t19 -43.5q0 -27 -19 -44t-41 -17t-41 17t-19 44v0zM370 838q0 26 19 43.5t42 17.5q21 0 40 -17.5t19 -43.5q0 -27 -19 -44t-40 -17q-23 0 -42 17t-19 44v0z
" />
    <glyph glyph-name="Igrave" unicode="&#xcc;" horiz-adv-x="317" 
d="M100 728h117v-728h-117v728zM-6 913h124l69 -134h-70z" />
    <glyph glyph-name="Iacute" unicode="&#xcd;" horiz-adv-x="317" 
d="M100 728h117v-728h-117v728zM326 908l-136 -134h-69l81 134h124z" />
    <glyph glyph-name="Icircumflex" unicode="&#xce;" horiz-adv-x="317" 
d="M100 728h117v-728h-117v728zM225 790l-87 88l30 8l-88 -96h-103l173 176h1l176 -176h-102z" />
    <glyph glyph-name="Idieresis" unicode="&#xcf;" horiz-adv-x="317" 
d="M100 728h117v-728h-117v728zM-2 838q0 26 19 43.5t41 17.5t41 -17.5t19 -43.5q0 -27 -19 -44t-41 -17t-41 17t-19 44v0zM190 838q0 26 19 43.5t42 17.5q21 0 40 -17.5t19 -43.5q0 -27 -19 -44t-40 -17q-23 0 -42 17t-19 44v0z" />
    <glyph glyph-name="Eth" unicode="&#xd0;" horiz-adv-x="760" 
d="M100 0v728h207q108 0 184.5 -33t123.5 -87t68.5 -120.5t21.5 -133.5q0 -82 -29 -147t-79.5 -111.5t-116 -71t-138.5 -24.5h-242zM217 112h104q58 0 106 16.5t83.5 48t55 78.5t19.5 107q0 68 -22.5 116.5t-59 79t-79.5 45t-85 14.5h-122v-505zM19 413h292v-104h-292v104z
" />
    <glyph glyph-name="Ntilde" unicode="&#xd1;" horiz-adv-x="844" 
d="M740 -26l-559 542l34 -14l3 -502h-118v753h6l550 -542l-27 8l-2 509h116v-754h-3zM484 795q-33 0 -54.5 14.5t-39.5 30.5q-12 10 -23 18.5t-25 8.5q-13 0 -21.5 -9.5t-12.5 -25.5t-3 -37l-58 1q-4 39 7.5 71.5t35.5 52t58 19.5q26 0 45 -14t36 -28q14 -13 26.5 -23
t26.5 -10q19 0 25.5 21.5t6.5 53.5l58 -1q5 -42 -5.5 -74.5t-32.5 -50.5t-50 -18z" />
    <glyph glyph-name="Ograve" unicode="&#xd2;" horiz-adv-x="855" 
d="M55 363q0 76 29 143t80 119t118.5 81.5t144.5 29.5q76 0 143.5 -29.5t119 -81.5t81 -119t29.5 -143q0 -77 -29.5 -144.5t-81 -118.5t-119 -79.5t-143.5 -28.5q-78 0 -145 28.5t-118 79t-80 118t-29 145.5zM175 363q0 -54 19.5 -101t54.5 -82.5t81 -55.5t100 -20
q52 0 97.5 20t79.5 55.5t53.5 82.5t19.5 101q0 55 -20 102t-54 83t-80 56t-99 20t-99 -20t-80.5 -56t-53.5 -83.5t-19 -101.5zM262 905h124l69 -134h-70z" />
    <glyph glyph-name="Oacute" unicode="&#xd3;" horiz-adv-x="855" 
d="M55 363q0 76 29 143t80 119t118.5 81.5t144.5 29.5q76 0 143.5 -29.5t119 -81.5t81 -119t29.5 -143q0 -77 -29.5 -144.5t-81 -118.5t-119 -79.5t-143.5 -28.5q-78 0 -145 28.5t-118 79t-80 118t-29 145.5zM175 363q0 -54 19.5 -101t54.5 -82.5t81 -55.5t100 -20
q52 0 97.5 20t79.5 55.5t53.5 82.5t19.5 101q0 55 -20 102t-54 83t-80 56t-99 20t-99 -20t-80.5 -56t-53.5 -83.5t-19 -101.5zM594 900l-136 -134h-69l81 134h124z" />
    <glyph glyph-name="Ocircumflex" unicode="&#xd4;" horiz-adv-x="855" 
d="M55 363q0 76 29 143t80 119t118.5 81.5t144.5 29.5q76 0 143.5 -29.5t119 -81.5t81 -119t29.5 -143q0 -77 -29.5 -144.5t-81 -118.5t-119 -79.5t-143.5 -28.5q-78 0 -145 28.5t-118 79t-80 118t-29 145.5zM175 363q0 -54 19.5 -101t54.5 -82.5t81 -55.5t100 -20
q52 0 97.5 20t79.5 55.5t53.5 82.5t19.5 101q0 55 -20 102t-54 83t-80 56t-99 20t-99 -20t-80.5 -56t-53.5 -83.5t-19 -101.5zM494 782l-87 88l30 8l-88 -96h-103l173 176h1l176 -176h-102z" />
    <glyph glyph-name="Otilde" unicode="&#xd5;" horiz-adv-x="855" 
d="M55 363q0 76 29 143t80 119t118.5 81.5t144.5 29.5q76 0 143.5 -29.5t119 -81.5t81 -119t29.5 -143q0 -77 -29.5 -144.5t-81 -118.5t-119 -79.5t-143.5 -28.5q-78 0 -145 28.5t-118 79t-80 118t-29 145.5zM175 363q0 -54 19.5 -101t54.5 -82.5t81 -55.5t100 -20
q52 0 97.5 20t79.5 55.5t53.5 82.5t19.5 101q0 55 -20 102t-54 83t-80 56t-99 20t-99 -20t-80.5 -56t-53.5 -83.5t-19 -101.5zM504 802q-33 0 -54.5 14.5t-39.5 30.5q-12 10 -23 18.5t-25 8.5q-13 0 -21.5 -9.5t-12.5 -25.5t-3 -37l-58 1q-4 39 7.5 71.5t35.5 52t58 19.5
q26 0 45 -14t36 -28q14 -13 26.5 -23t26.5 -10q19 0 25.5 21.5t6.5 53.5l58 -1q5 -42 -5.5 -74.5t-32.5 -50.5t-50 -18z" />
    <glyph glyph-name="Odieresis" unicode="&#xd6;" horiz-adv-x="855" 
d="M55 363q0 76 29 143t80 119t118.5 81.5t144.5 29.5q76 0 143.5 -29.5t119 -81.5t81 -119t29.5 -143q0 -77 -29.5 -144.5t-81 -118.5t-119 -79.5t-143.5 -28.5q-78 0 -145 28.5t-118 79t-80 118t-29 145.5zM175 363q0 -54 19.5 -101t54.5 -82.5t81 -55.5t100 -20
q52 0 97.5 20t79.5 55.5t53.5 82.5t19.5 101q0 55 -20 102t-54 83t-80 56t-99 20t-99 -20t-80.5 -56t-53.5 -83.5t-19 -101.5zM266 830q0 26 19 43.5t41 17.5t41 -17.5t19 -43.5q0 -27 -19 -44t-41 -17t-41 17t-19 44v0zM458 830q0 26 19 43.5t42 17.5q21 0 40 -17.5
t19 -43.5q0 -27 -19 -44t-40 -17q-23 0 -42 17t-19 44v0z" />
    <glyph glyph-name="multiply" unicode="&#xd7;" horiz-adv-x="522" 
d="M282 262q22 23 43.5 44.5l44.5 44.5q21 -20 42 -42.5t41 -43.5q-21 -21 -42.5 -43t-42.5 -45q22 -21 43.5 -44t45.5 -46l-89 -87q-22 22 -45 44t-46 45q-20 -22 -42.5 -44t-43.5 -43q-22 21 -43.5 42t-42.5 42l44.5 44.5l44.5 44.5l-92 91l87 88z" />
    <glyph glyph-name="Oslash" unicode="&#xd8;" horiz-adv-x="858" 
d="M760 682l-600 -700l-74 67l602 700zM55 363q0 76 29 143t80 119t118.5 81.5t144.5 29.5q76 0 143.5 -29.5t119 -81.5t81 -119t29.5 -143q0 -77 -29.5 -144.5t-81 -118.5t-119 -79.5t-143.5 -28.5q-78 0 -145 28.5t-118 79t-80 118t-29 145.5zM175 363q0 -54 19.5 -101
t54.5 -82.5t81 -55.5t100 -20q52 0 97.5 20t79.5 55.5t53.5 82.5t19.5 101q0 55 -20 102t-54 83t-80 56t-99 20t-99 -20t-80.5 -56t-53.5 -83.5t-19 -101.5z" />
    <glyph glyph-name="Ugrave" unicode="&#xd9;" horiz-adv-x="741" 
d="M205 262q0 -43 22.5 -79t59.5 -57t83 -21q48 0 86 21t60 57t22 79v466h115v-469q0 -79 -38 -139.5t-102 -94t-143 -33.5v0q-78 0 -142 33.5t-101.5 94t-37.5 139.5v469h116v-466zM205 913h124l69 -134h-70z" />
    <glyph glyph-name="Uacute" unicode="&#xda;" horiz-adv-x="741" 
d="M205 262q0 -43 22.5 -79t59.5 -57t83 -21q48 0 86 21t60 57t22 79v466h115v-469q0 -79 -38 -139.5t-102 -94t-143 -33.5v0q-78 0 -142 33.5t-101.5 94t-37.5 139.5v469h116v-466zM538 908l-136 -134h-69l81 134h124z" />
    <glyph glyph-name="Ucircumflex" unicode="&#xdb;" horiz-adv-x="741" 
d="M205 262q0 -43 22.5 -79t59.5 -57t83 -21q48 0 86 21t60 57t22 79v466h115v-469q0 -79 -38 -139.5t-102 -94t-143 -33.5v0q-78 0 -142 33.5t-101.5 94t-37.5 139.5v469h116v-466zM437 790l-87 88l30 8l-88 -96h-103l173 176h1l176 -176h-102z" />
    <glyph glyph-name="Udieresis" unicode="&#xdc;" horiz-adv-x="741" 
d="M205 262q0 -43 22.5 -79t59.5 -57t83 -21q48 0 86 21t60 57t22 79v466h115v-469q0 -79 -38 -139.5t-102 -94t-143 -33.5v0q-78 0 -142 33.5t-101.5 94t-37.5 139.5v469h116v-466zM210 838q0 26 19 43.5t41 17.5t41 -17.5t19 -43.5q0 -27 -19 -44t-41 -17t-41 17t-19 44v0
zM402 838q0 26 19 43.5t42 17.5q21 0 40 -17.5t19 -43.5q0 -27 -19 -44t-40 -17q-23 0 -42 17t-19 44v0z" />
    <glyph glyph-name="Yacute" unicode="&#xdd;" horiz-adv-x="704" 
d="M292 236l-269 492h143l205 -392l-35 -2l202 394h143l-273 -492v-236h-116v236zM534 907l-136 -134h-69l81 134h124z" />
    <glyph glyph-name="Thorn" unicode="&#xde;" horiz-adv-x="611" 
d="M328 598q60 0 105.5 -15.5t75.5 -45.5t45.5 -73.5t15.5 -99.5q0 -43 -12.5 -86t-39.5 -78t-73 -56t-115 -21h-110v-123h-120v724h120v-126h108zM318 235q36 0 60.5 11t40.5 29.5t23.5 41t7.5 45.5q0 30 -13 58.5t-41.5 47t-76.5 18.5h-99v-251h98z" />
    <glyph glyph-name="germandbls" unicode="&#xdf;" horiz-adv-x="611" 
d="M107 459q0 65 29 111.5t77.5 72t106.5 24.5q65 0 109 -19.5t67 -51.5t23 -71q0 -41 -17.5 -76t-53.5 -53q34 -14 60.5 -39t41 -64t14.5 -96q0 -68 -25.5 -114t-69.5 -69.5t-102 -23.5q-44 0 -73.5 12.5t-42.5 24.5l44 68q15 -12 29.5 -16.5t30.5 -4.5q33 0 54 17.5
t31.5 46.5t10.5 65q0 43 -13 73.5t-37.5 46.5t-59.5 15h-5l-1 98q32 0 51.5 17.5t19.5 46.5q0 23 -10 40t-28.5 26.5t-46.5 9.5q-56 0 -79 -40.5t-23 -114.5v-421h-112v337h-65v91h65v31z" />
    <glyph glyph-name="agrave" unicode="&#xe0;" horiz-adv-x="597" 
d="M254 -11q-59 0 -107.5 25t-76.5 74.5t-28 122.5q0 72 29.5 123.5t78 79.5t105.5 28q61 0 98.5 -24.5t58.5 -56.5l-6 -16l11 78h103v-423h-112v103l11 -27q-3 -6 -15.5 -19.5t-33.5 -29.5t-49.5 -27t-66.5 -11zM285 81q31 0 56 11t42 31t25 48v92q-8 26 -26 45.5
t-43.5 30.5t-56.5 11q-35 0 -63.5 -17t-46 -47t-17.5 -69q0 -38 18 -69t48 -49t64 -18zM156 637h124l69 -134h-70z" />
    <glyph glyph-name="aacute" unicode="&#xe1;" horiz-adv-x="597" 
d="M254 -11q-59 0 -107.5 25t-76.5 74.5t-28 122.5q0 72 29.5 123.5t78 79.5t105.5 28q61 0 98.5 -24.5t58.5 -56.5l-6 -16l11 78h103v-423h-112v103l11 -27q-3 -6 -15.5 -19.5t-33.5 -29.5t-49.5 -27t-66.5 -11zM285 81q31 0 56 11t42 31t25 48v92q-8 26 -26 45.5
t-43.5 30.5t-56.5 11q-35 0 -63.5 -17t-46 -47t-17.5 -69q0 -38 18 -69t48 -49t64 -18zM441 632l-136 -134h-69l81 134h124z" />
    <glyph glyph-name="acircumflex" unicode="&#xe2;" horiz-adv-x="597" 
d="M254 -11q-59 0 -107.5 25t-76.5 74.5t-28 122.5q0 72 29.5 123.5t78 79.5t105.5 28q61 0 98.5 -24.5t58.5 -56.5l-6 -16l11 78h103v-423h-112v103l11 -27q-3 -6 -15.5 -19.5t-33.5 -29.5t-49.5 -27t-66.5 -11zM285 81q31 0 56 11t42 31t25 48v92q-8 26 -26 45.5
t-43.5 30.5t-56.5 11q-35 0 -63.5 -17t-46 -47t-17.5 -69q0 -38 18 -69t48 -49t64 -18zM386 503l-87 88l30 8l-88 -96h-103l173 176h1l176 -176h-102z" />
    <glyph glyph-name="atilde" unicode="&#xe3;" horiz-adv-x="597" 
d="M254 -11q-59 0 -107.5 25t-76.5 74.5t-28 122.5q0 72 29.5 123.5t78 79.5t105.5 28q61 0 98.5 -24.5t58.5 -56.5l-6 -16l11 78h103v-423h-112v103l11 -27q-3 -6 -15.5 -19.5t-33.5 -29.5t-49.5 -27t-66.5 -11zM285 81q31 0 56 11t42 31t25 48v92q-8 26 -26 45.5
t-43.5 30.5t-56.5 11q-35 0 -63.5 -17t-46 -47t-17.5 -69q0 -38 18 -69t48 -49t64 -18zM392 478q-33 0 -54.5 14.5t-39.5 29.5q-12 11 -23 19t-25 8q-13 0 -21.5 -9.5t-12.5 -25.5t-3 -36h-58q-4 39 7.5 72t35.5 52.5t58 19.5q26 0 45 -14t36 -29q14 -13 26.5 -23t26.5 -10
q19 0 25.5 22t6.5 53h58q5 -42 -5.5 -74.5t-32.5 -50.5t-50 -18z" />
    <glyph glyph-name="adieresis" unicode="&#xe4;" horiz-adv-x="597" 
d="M254 -11q-59 0 -107.5 25t-76.5 74.5t-28 122.5q0 72 29.5 123.5t78 79.5t105.5 28q61 0 98.5 -24.5t58.5 -56.5l-6 -16l11 78h103v-423h-112v103l11 -27q-3 -6 -15.5 -19.5t-33.5 -29.5t-49.5 -27t-66.5 -11zM285 81q31 0 56 11t42 31t25 48v92q-8 26 -26 45.5
t-43.5 30.5t-56.5 11q-35 0 -63.5 -17t-46 -47t-17.5 -69q0 -38 18 -69t48 -49t64 -18zM157 549q0 26 19 43.5t41 17.5t41 -17.5t19 -43.5q0 -27 -19 -44t-41 -17t-41 17t-19 44v0zM349 549q0 26 19 43.5t42 17.5q21 0 40 -17.5t19 -43.5q0 -27 -19 -44t-40 -17
q-23 0 -42 17t-19 44v0z" />
    <glyph glyph-name="aring" unicode="&#xe5;" horiz-adv-x="597" 
d="M254 -11q-59 0 -107.5 25t-76.5 74.5t-28 122.5q0 72 29.5 123.5t78 79.5t105.5 28q61 0 98.5 -24.5t58.5 -56.5l-6 -16l11 78h103v-423h-112v103l11 -27q-3 -6 -15.5 -19.5t-33.5 -29.5t-49.5 -27t-66.5 -11zM285 81q31 0 56 11t42 31t25 48v92q-8 26 -26 45.5
t-43.5 30.5t-56.5 11q-35 0 -63.5 -17t-46 -47t-17.5 -69q0 -38 18 -69t48 -49t64 -18zM202 567q0 43 28.5 69t72.5 26q43 0 72 -26t29 -69t-29 -69.5t-72 -26.5t-72 26.5t-29 69.5zM262 565q0 -19 11.5 -31t29.5 -12q19 0 30 12t11 31q0 21 -11 32t-30 11q-18 0 -29.5 -11
t-11.5 -32z" />
    <glyph glyph-name="ae" unicode="&#xe6;" horiz-adv-x="828" 
d="M208 -11q-57 0 -94 17t-54.5 47.5t-17.5 67.5q0 42 25 71t66 45t86 16q46 0 90 -14t67 -34l-18 -65q-30 21 -53.5 30t-59.5 9q-22 0 -40.5 -5.5t-29 -17.5t-10.5 -32q0 -26 19.5 -41.5t54.5 -15.5q19 0 39.5 6.5t38.5 18t29 25.5v53h45v-102q-20 -27 -49.5 -44.5
t-63.5 -26t-70 -8.5zM337 209v54q0 35 -16.5 54t-37.5 25.5t-37 6.5q-39 0 -70 -19.5t-51 -44.5l-56 71q32 34 79.5 59.5t113.5 25.5q52 0 93.5 -16.5t65.5 -49t24 -82.5v-26zM574 -11q-75 0 -127.5 29t-81 80t-28.5 117q0 63 32 114.5t86.5 82t120.5 30.5q87 0 143.5 -50.5
t75.5 -142.5l-341 -115l-26 63l267 95l-24 -13q-10 30 -35 52.5t-69 22.5q-35 0 -62 -17t-42.5 -46.5t-15.5 -69.5q0 -42 17 -72.5t46 -47t66 -16.5q26 0 50 9t45 24l51 -83q-33 -21 -72.5 -33.5t-75.5 -12.5z" />
    <glyph glyph-name="ccedilla" unicode="&#xe7;" horiz-adv-x="465" 
d="M427 39q-28 -23 -68.5 -36.5t-81.5 -13.5q-70 0 -123 27.5t-82.5 77t-29.5 118.5t31.5 119t83 76.5t108.5 26.5q54 0 95 -14.5t70 -39.5l-55 -73q-16 13 -41.5 24.5t-58.5 11.5t-61 -17t-44 -46.5t-16 -67.5q0 -36 17 -66t46.5 -47.5t68.5 -17.5q26 0 47 7.5t38 20.5z
M151 -146q11 -11 27.5 -18.5t36.5 -7.5q23 0 43 10.5t20 30.5q0 15 -12.5 28t-47.5 13q-16 0 -33 -4t-30 -8l-18 53l69 60l86 -3l-74 -84l-23 27q11 4 24.5 6t26.5 3q54 1 90 -21.5t36 -67.5q0 -35 -21 -58t-53.5 -34t-70.5 -11q-40 0 -67 12t-44 29z" />
    <glyph glyph-name="egrave" unicode="&#xe8;" horiz-adv-x="533" 
d="M279 -11q-75 0 -128 29t-81 80t-28 117q0 63 32 114.5t86.5 82t120.5 30.5q87 0 143.5 -50.5t75.5 -142.5l-341 -115l-26 63l267 95l-24 -13q-10 30 -35 52.5t-69 22.5q-35 0 -62 -17t-42.5 -46.5t-15.5 -69.5q0 -42 17 -72.5t46 -47t66 -16.5q26 0 49.5 9t45.5 24
l51 -83q-33 -21 -72.5 -33.5t-75.5 -12.5zM119 637h124l69 -134h-70z" />
    <glyph glyph-name="eacute" unicode="&#xe9;" horiz-adv-x="533" 
d="M279 -11q-75 0 -128 29t-81 80t-28 117q0 63 32 114.5t86.5 82t120.5 30.5q87 0 143.5 -50.5t75.5 -142.5l-341 -115l-26 63l267 95l-24 -13q-10 30 -35 52.5t-69 22.5q-35 0 -62 -17t-42.5 -46.5t-15.5 -69.5q0 -42 17 -72.5t46 -47t66 -16.5q26 0 49.5 9t45.5 24
l51 -83q-33 -21 -72.5 -33.5t-75.5 -12.5zM404 633l-136 -134h-69l81 134h124z" />
    <glyph glyph-name="ecircumflex" unicode="&#xea;" horiz-adv-x="533" 
d="M279 -11q-75 0 -128 29t-81 80t-28 117q0 63 32 114.5t86.5 82t120.5 30.5q87 0 143.5 -50.5t75.5 -142.5l-341 -115l-26 63l267 95l-24 -13q-10 30 -35 52.5t-69 22.5q-35 0 -62 -17t-42.5 -46.5t-15.5 -69.5q0 -42 17 -72.5t46 -47t66 -16.5q26 0 49.5 9t45.5 24
l51 -83q-33 -21 -72.5 -33.5t-75.5 -12.5zM349 504l-87 88l30 8l-88 -96h-103l173 176h1l176 -176h-102z" />
    <glyph glyph-name="edieresis" unicode="&#xeb;" horiz-adv-x="533" 
d="M279 -11q-75 0 -128 29t-81 80t-28 117q0 63 32 114.5t86.5 82t120.5 30.5q87 0 143.5 -50.5t75.5 -142.5l-341 -115l-26 63l267 95l-24 -13q-10 30 -35 52.5t-69 22.5q-35 0 -62 -17t-42.5 -46.5t-15.5 -69.5q0 -42 17 -72.5t46 -47t66 -16.5q26 0 49.5 9t45.5 24
l51 -83q-33 -21 -72.5 -33.5t-75.5 -12.5zM120 549q0 26 19 43.5t41 17.5t41 -17.5t19 -43.5q0 -27 -19 -44t-41 -17t-41 17t-19 44v0zM312 549q0 26 19 43.5t42 17.5q21 0 40 -17.5t19 -43.5q0 -27 -19 -44t-40 -17q-23 0 -42 17t-19 44v0z" />
    <glyph glyph-name="igrave" unicode="&#xec;" horiz-adv-x="266" 
d="M77 423h112v-423h-112v423zM-23 621h124l69 -134h-70z" />
    <glyph glyph-name="iacute" unicode="&#xed;" horiz-adv-x="266" 
d="M77 423h112v-423h-112v423zM262 616l-136 -134h-69l81 134h124z" />
    <glyph glyph-name="icircumflex" unicode="&#xee;" horiz-adv-x="266" 
d="M77 423h112v-423h-112v423zM206 487l-87 88l30 8l-88 -96h-103l173 176h1l176 -176h-102z" />
    <glyph glyph-name="idieresis" unicode="&#xef;" horiz-adv-x="266" 
d="M77 423h112v-423h-112v423zM-23 533q0 26 19 43.5t41 17.5t41 -17.5t19 -43.5q0 -27 -19 -44t-41 -17t-41 17t-19 44v0zM169 533q0 26 19 43.5t42 17.5q21 0 40 -17.5t19 -43.5q0 -27 -19 -44t-40 -17q-23 0 -42 17t-19 44v0z" />
    <glyph glyph-name="eth" unicode="&#xf0;" horiz-adv-x="555" 
d="M268 -11q-63 0 -114.5 27.5t-81.5 78.5t-30 121q0 64 28 115.5t75.5 81t105.5 29.5q44 0 78 -19t58.5 -49.5t38 -66.5t15.5 -71l-41 18q-2 77 -19.5 140t-50 115.5t-78 99.5t-102.5 93l82 73q60 -40 111.5 -98t89.5 -127.5t59 -145t21 -148.5q0 -50 -16 -97.5t-47 -86
t-76.5 -61t-105.5 -22.5zM277 81q37 0 64.5 18t43 48.5t15.5 67.5q0 38 -15.5 68.5t-43 48.5t-64.5 18q-35 0 -62.5 -18.5t-43.5 -48.5t-16 -68q0 -37 16 -67.5t44 -48.5t62 -18zM452 672l-253 -157l-37 74l253 156z" />
    <glyph glyph-name="ntilde" unicode="&#xf1;" horiz-adv-x="569" 
d="M178 423l9 -91l-3 12q21 44 65 70.5t104 26.5t99 -35t40 -92v-314h-112v274q-1 32 -18 51.5t-54 20.5q-34 0 -61 -20.5t-42.5 -56t-15.5 -81.5v-188h-112v423h101zM362 470q-33 0 -54.5 14.5t-39.5 29.5q-12 11 -23 19t-25 8q-13 0 -21.5 -9.5t-12.5 -25.5t-3 -36h-58
q-4 39 7.5 72t35.5 52.5t58 19.5q26 0 45 -14t36 -29q14 -13 26.5 -23t26.5 -10q19 0 25.5 22t6.5 53h58q5 -42 -5.5 -74.5t-32.5 -50.5t-50 -18z" />
    <glyph glyph-name="ograve" unicode="&#xf2;" horiz-adv-x="555" 
d="M42 216q0 64 30.5 115.5t84.5 81t123 29.5q71 0 123.5 -29.5t81 -81t28.5 -115.5t-28.5 -115.5t-81.5 -81.5t-124 -30q-69 0 -122.5 27.5t-84 78.5t-30.5 121zM155 215q0 -37 16 -67.5t44 -48.5t62 -18q37 0 64.5 18t43 48.5t15.5 67.5q0 38 -15.5 68.5t-43 48.5
t-64.5 18q-35 0 -62.5 -18.5t-43.5 -48.5t-16 -68zM120 637h124l69 -134h-70z" />
    <glyph glyph-name="oacute" unicode="&#xf3;" horiz-adv-x="555" 
d="M42 216q0 64 30.5 115.5t84.5 81t123 29.5q71 0 123.5 -29.5t81 -81t28.5 -115.5t-28.5 -115.5t-81.5 -81.5t-124 -30q-69 0 -122.5 27.5t-84 78.5t-30.5 121zM155 215q0 -37 16 -67.5t44 -48.5t62 -18q37 0 64.5 18t43 48.5t15.5 67.5q0 38 -15.5 68.5t-43 48.5
t-64.5 18q-35 0 -62.5 -18.5t-43.5 -48.5t-16 -68zM405 632l-136 -134h-69l81 134h124z" />
    <glyph glyph-name="ocircumflex" unicode="&#xf4;" horiz-adv-x="555" 
d="M42 216q0 64 30.5 115.5t84.5 81t123 29.5q71 0 123.5 -29.5t81 -81t28.5 -115.5t-28.5 -115.5t-81.5 -81.5t-124 -30q-69 0 -122.5 27.5t-84 78.5t-30.5 121zM155 215q0 -37 16 -67.5t44 -48.5t62 -18q37 0 64.5 18t43 48.5t15.5 67.5q0 38 -15.5 68.5t-43 48.5
t-64.5 18q-35 0 -62.5 -18.5t-43.5 -48.5t-16 -68zM350 503l-87 88l30 8l-88 -96h-103l173 176h1l176 -176h-102z" />
    <glyph glyph-name="otilde" unicode="&#xf5;" horiz-adv-x="555" 
d="M42 216q0 64 30.5 115.5t84.5 81t123 29.5q71 0 123.5 -29.5t81 -81t28.5 -115.5t-28.5 -115.5t-81.5 -81.5t-124 -30q-69 0 -122.5 27.5t-84 78.5t-30.5 121zM155 215q0 -37 16 -67.5t44 -48.5t62 -18q37 0 64.5 18t43 48.5t15.5 67.5q0 38 -15.5 68.5t-43 48.5
t-64.5 18q-35 0 -62.5 -18.5t-43.5 -48.5t-16 -68zM356 478q-33 0 -54.5 14.5t-39.5 29.5q-12 11 -23 19t-25 8q-13 0 -21.5 -9.5t-12.5 -25.5t-3 -36h-58q-4 39 7.5 72t35.5 52.5t58 19.5q26 0 45 -14t36 -29q14 -13 26.5 -23t26.5 -10q19 0 25.5 22t6.5 53h58
q5 -42 -5.5 -74.5t-32.5 -50.5t-50 -18z" />
    <glyph glyph-name="odieresis" unicode="&#xf6;" horiz-adv-x="555" 
d="M42 216q0 64 30.5 115.5t84.5 81t123 29.5q71 0 123.5 -29.5t81 -81t28.5 -115.5t-28.5 -115.5t-81.5 -81.5t-124 -30q-69 0 -122.5 27.5t-84 78.5t-30.5 121zM155 215q0 -37 16 -67.5t44 -48.5t62 -18q37 0 64.5 18t43 48.5t15.5 67.5q0 38 -15.5 68.5t-43 48.5
t-64.5 18q-35 0 -62.5 -18.5t-43.5 -48.5t-16 -68zM121 549q0 26 19 43.5t41 17.5t41 -17.5t19 -43.5q0 -27 -19 -44t-41 -17t-41 17t-19 44v0zM313 549q0 26 19 43.5t42 17.5q21 0 40 -17.5t19 -43.5q0 -27 -19 -44t-40 -17q-23 0 -42 17t-19 44v0z" />
    <glyph glyph-name="divide" unicode="&#xf7;" horiz-adv-x="508" 
d="M195 409q0 26 18.5 44t41.5 18q21 0 40 -18t19 -44q0 -27 -19 -43.5t-40 -16.5q-23 0 -41.5 16.5t-18.5 43.5v0zM195 109q0 26 18.5 43.5t41.5 17.5q21 0 40 -17.5t19 -43.5q0 -28 -19 -44.5t-40 -16.5q-23 0 -41.5 16.5t-18.5 44.5v0zM69 306h365v-98h-365v98z" />
    <glyph glyph-name="oslash" unicode="&#xf8;" horiz-adv-x="531" 
d="M492 413l-387 -442l-54 50l384 439zM42 216q0 64 30.5 115.5t84.5 81t123 29.5q71 0 123.5 -29.5t81 -81t28.5 -115.5t-28.5 -115.5t-81.5 -81.5t-124 -30q-69 0 -122.5 27.5t-84 78.5t-30.5 121zM155 215q0 -37 16 -67.5t44 -48.5t62 -18q37 0 64.5 18t43 48.5
t15.5 67.5q0 38 -15.5 68.5t-43 48.5t-64.5 18q-35 0 -62.5 -18.5t-43.5 -48.5t-16 -68z" />
    <glyph glyph-name="ugrave" unicode="&#xf9;" horiz-adv-x="561" 
d="M213 -18q-58 0 -96 35.5t-40 91.5v314h112v-274q2 -31 18 -51t51 -20q33 0 58.5 20.5t40.5 56.5t15 81v187h112v-423h-101l-9 93l3 -14q-13 -28 -37 -50t-56.5 -34.5t-70.5 -12.5zM124 637h124l69 -134h-70z" />
    <glyph glyph-name="uacute" unicode="&#xfa;" horiz-adv-x="561" 
d="M213 -18q-58 0 -96 35.5t-40 91.5v314h112v-274q2 -31 18 -51t51 -20q33 0 58.5 20.5t40.5 56.5t15 81v187h112v-423h-101l-9 93l3 -14q-13 -28 -37 -50t-56.5 -34.5t-70.5 -12.5zM409 632l-136 -134h-69l81 134h124z" />
    <glyph glyph-name="ucircumflex" unicode="&#xfb;" horiz-adv-x="561" 
d="M213 -18q-58 0 -96 35.5t-40 91.5v314h112v-274q2 -31 18 -51t51 -20q33 0 58.5 20.5t40.5 56.5t15 81v187h112v-423h-101l-9 93l3 -14q-13 -28 -37 -50t-56.5 -34.5t-70.5 -12.5zM354 503l-87 88l30 8l-88 -96h-103l173 176h1l176 -176h-102z" />
    <glyph glyph-name="udieresis" unicode="&#xfc;" horiz-adv-x="561" 
d="M213 -18q-58 0 -96 35.5t-40 91.5v314h112v-274q2 -31 18 -51t51 -20q33 0 58.5 20.5t40.5 56.5t15 81v187h112v-423h-101l-9 93l3 -14q-13 -28 -37 -50t-56.5 -34.5t-70.5 -12.5zM125 549q0 26 19 43.5t41 17.5t41 -17.5t19 -43.5q0 -27 -19 -44t-41 -17t-41 17t-19 44
v0zM317 549q0 26 19 43.5t42 17.5q21 0 40 -17.5t19 -43.5q0 -27 -19 -44t-40 -17q-23 0 -42 17t-19 44v0z" />
    <glyph glyph-name="yacute" unicode="&#xfd;" horiz-adv-x="510" 
d="M112 -203l281 626h102l-273 -626h-110zM221 -3l-206 426h126l166 -369zM390 616l-136 -134h-69l81 134h124z" />
    <glyph glyph-name="thorn" unicode="&#xfe;" horiz-adv-x="601" 
d="M334 -11q-30 0 -58 8.5t-51 24t-38 38.5l1 38v-301h-111v983h112v-445l-11 25q20 23 47 41.5t60 29.5t71 11q59 0 106 -28t74 -79.5t27 -121.5t-29.5 -120t-81.5 -77t-118 -27zM312 78q38 0 69 17.5t50 47.5t19 68q0 39 -18 70t-47.5 48.5t-64.5 17.5q-33 0 -59 -11
t-44 -31.5t-28 -48.5v-86q7 -27 24.5 -48t43 -32.5t55.5 -11.5z" />
    <glyph glyph-name="ydieresis" unicode="&#xff;" horiz-adv-x="510" 
d="M112 -203l281 626h102l-273 -626h-110zM221 -3l-206 426h126l166 -369zM105 533q0 26 19 43.5t41 17.5t41 -17.5t19 -43.5q0 -27 -19 -44t-41 -17t-41 17t-19 44v0zM297 533q0 26 19 43.5t42 17.5q21 0 40 -17.5t19 -43.5q0 -27 -19 -44t-40 -17q-23 0 -42 17t-19 44v0z
" />
    <glyph glyph-name="Amacron" unicode="&#x100;" horiz-adv-x="699" 
d="M24 0l322 758h7l322 -758h-134l-226 576l83 56l-260 -632h-114zM226 271h249l40 -100h-324zM222 876h249v-79h-249v79z" />
    <glyph glyph-name="amacron" unicode="&#x101;" horiz-adv-x="597" 
d="M254 -11q-59 0 -107.5 25t-76.5 74.5t-28 122.5q0 72 29.5 123.5t78 79.5t105.5 28q61 0 98.5 -24.5t58.5 -56.5l-6 -16l11 78h103v-423h-112v103l11 -27q-3 -6 -15.5 -19.5t-33.5 -29.5t-49.5 -27t-66.5 -11zM285 81q31 0 56 11t42 31t25 48v92q-8 26 -26 45.5
t-43.5 30.5t-56.5 11q-35 0 -63.5 -17t-46 -47t-17.5 -69q0 -38 18 -69t48 -49t64 -18zM190 568h249v-79h-249v79z" />
    <glyph glyph-name="Abreve" unicode="&#x102;" horiz-adv-x="699" 
d="M24 0l322 758h7l322 -758h-134l-226 576l83 56l-260 -632h-114zM226 271h249l40 -100h-324zM350 793q-44 0 -76.5 20.5t-52.5 60.5t-29 99h75q5 -30 15 -54t27 -37.5t41 -13.5q26 0 42 13.5t25 37.5t14 54h76q-9 -60 -29 -100.5t-52 -60t-76 -19.5z" />
    <glyph glyph-name="abreve" unicode="&#x103;" horiz-adv-x="597" 
d="M254 -11q-59 0 -107.5 25t-76.5 74.5t-28 122.5q0 72 29.5 123.5t78 79.5t105.5 28q61 0 98.5 -24.5t58.5 -56.5l-6 -16l11 78h103v-423h-112v103l11 -27q-3 -6 -15.5 -19.5t-33.5 -29.5t-49.5 -27t-66.5 -11zM285 81q31 0 56 11t42 31t25 48v92q-8 26 -26 45.5
t-43.5 30.5t-56.5 11q-35 0 -63.5 -17t-46 -47t-17.5 -69q0 -38 18 -69t48 -49t64 -18zM316 484q-44 0 -76.5 20.5t-52.5 60.5t-29 99h75q5 -30 15 -54t27 -37.5t41 -13.5q26 0 42 13.5t25 37.5t14 54h76q-9 -60 -29 -100.5t-52 -60t-76 -19.5z" />
    <glyph glyph-name="Aogonek" unicode="&#x104;" horiz-adv-x="699" 
d="M24 0l322 758h7l322 -758h-134l-226 576l83 56l-260 -632h-114zM226 271h249l40 -100h-324zM592 -222q-54 0 -91.5 32.5t-37.5 84.5q0 34 23.5 66t64.5 49l125 -10q-54 -23 -87 -45t-33 -51q0 -26 14.5 -36t31.5 -10q20 0 37.5 12t32.5 36l41 -58q-19 -30 -53.5 -50
t-67.5 -20z" />
    <glyph glyph-name="aogonek" unicode="&#x105;" horiz-adv-x="603" 
d="M254 -11q-58 0 -105.5 25t-75.5 74.5t-28 122.5q0 72 29 123.5t77 79.5t103 28q43 0 73 -11t50.5 -29.5t34.5 -40.5l8 62h103v-423q-45 -20 -73.5 -42.5t-28.5 -53.5q0 -26 14.5 -36t31.5 -10q20 0 37.5 12t32.5 36l41 -58q-19 -30 -53.5 -50t-67.5 -20q-53 0 -91 32.5
t-38 84.5q0 34 23.5 66t63.5 49l10 -15l-14 -15v122l9 -26q-12 -14 -33.5 -34.5t-54 -36.5t-78.5 -16zM285 81q32 0 57 11t43 31t26 48v92q-8 26 -26 45.5t-43.5 30.5t-56.5 11q-34 0 -63 -17t-46.5 -47t-17.5 -69q0 -38 17.5 -69t46.5 -49t63 -18z" />
    <glyph glyph-name="Cacute" unicode="&#x106;" horiz-adv-x="695" 
d="M640 57q-16 -11 -47.5 -27t-75 -27.5t-96.5 -10.5q-85 1 -153 30.5t-115 80t-72.5 116t-25.5 139.5q0 83 26 152t74 119.5t114 78.5t144 28q69 0 123.5 -18.5t91.5 -41.5l-46 -109q-28 19 -70 38t-95 19q-48 0 -92 -19.5t-77 -55t-52.5 -82.5t-19.5 -102q0 -57 17.5 -105
t50 -82.5t78 -54t102.5 -19.5q56 0 98.5 17.5t68.5 39.5zM562 910l-136 -134h-69l81 134h124z" />
    <glyph glyph-name="cacute" unicode="&#x107;" horiz-adv-x="465" 
d="M427 39q-28 -23 -68.5 -36.5t-81.5 -13.5q-70 0 -123 27.5t-82.5 77t-29.5 118.5t31.5 119t83 76.5t108.5 26.5q54 0 95 -14.5t70 -39.5l-55 -73q-16 13 -41.5 24.5t-58.5 11.5t-61 -17t-44 -46.5t-16 -67.5q0 -36 17 -66t46.5 -47.5t68.5 -17.5q26 0 47 7.5t38 20.5z
M381 624l-136 -134h-69l81 134h124z" />
    <glyph glyph-name="Ccircumflex" unicode="&#x108;" horiz-adv-x="695" 
d="M640 57q-16 -11 -47.5 -27t-75 -27.5t-96.5 -10.5q-85 1 -153 30.5t-115 80t-72.5 116t-25.5 139.5q0 83 26 152t74 119.5t114 78.5t144 28q69 0 123.5 -18.5t91.5 -41.5l-46 -109q-28 19 -70 38t-95 19q-48 0 -92 -19.5t-77 -55t-52.5 -82.5t-19.5 -102q0 -57 17.5 -105
t50 -82.5t78 -54t102.5 -19.5q56 0 98.5 17.5t68.5 39.5zM461 792l-87 88l30 8l-88 -96h-103l173 176h1l176 -176h-102z" />
    <glyph glyph-name="ccircumflex" unicode="&#x109;" horiz-adv-x="465" 
d="M427 39q-28 -23 -68.5 -36.5t-81.5 -13.5q-70 0 -123 27.5t-82.5 77t-29.5 118.5t31.5 119t83 76.5t108.5 26.5q54 0 95 -14.5t70 -39.5l-55 -73q-16 13 -41.5 24.5t-58.5 11.5t-61 -17t-44 -46.5t-16 -67.5q0 -36 17 -66t46.5 -47.5t68.5 -17.5q26 0 47 7.5t38 20.5z
M326 495l-87 88l30 8l-88 -96h-103l173 176h1l176 -176h-102z" />
    <glyph glyph-name="Cdotaccent" unicode="&#x10a;" horiz-adv-x="695" 
d="M640 57q-16 -11 -47.5 -27t-75 -27.5t-96.5 -10.5q-85 1 -153 30.5t-115 80t-72.5 116t-25.5 139.5q0 83 26 152t74 119.5t114 78.5t144 28q69 0 123.5 -18.5t91.5 -41.5l-46 -109q-28 19 -70 38t-95 19q-48 0 -92 -19.5t-77 -55t-52.5 -82.5t-19.5 -102q0 -57 17.5 -105
t50 -82.5t78 -54t102.5 -19.5q56 0 98.5 17.5t68.5 39.5zM331 837q0 26 20.5 43t44.5 17t43 -17t19 -43t-19 -42.5t-43 -16.5t-44.5 17t-20.5 42z" />
    <glyph glyph-name="cdotaccent" unicode="&#x10b;" horiz-adv-x="465" 
d="M427 39q-28 -23 -68.5 -36.5t-81.5 -13.5q-70 0 -123 27.5t-82.5 77t-29.5 118.5t31.5 119t83 76.5t108.5 26.5q54 0 95 -14.5t70 -39.5l-55 -73q-16 13 -41.5 24.5t-58.5 11.5t-61 -17t-44 -46.5t-16 -67.5q0 -36 17 -66t46.5 -47.5t68.5 -17.5q26 0 47 7.5t38 20.5z
M191 582q0 26 20.5 43t44.5 17t43 -17t19 -43t-19 -42.5t-43 -16.5t-44.5 17t-20.5 42z" />
    <glyph glyph-name="Ccaron" unicode="&#x10c;" horiz-adv-x="695" 
d="M640 57q-16 -11 -47.5 -27t-75 -27.5t-96.5 -10.5q-85 1 -153 30.5t-115 80t-72.5 116t-25.5 139.5q0 83 26 152t74 119.5t114 78.5t144 28q69 0 123.5 -18.5t91.5 -41.5l-46 -109q-28 19 -70 38t-95 19q-48 0 -92 -19.5t-77 -55t-52.5 -82.5t-19.5 -102q0 -57 17.5 -105
t50 -82.5t78 -54t102.5 -19.5q56 0 98.5 17.5t68.5 39.5zM319 944l88 -88l-31 -8l89 96h102l-173 -176h-1l-176 176h102z" />
    <glyph glyph-name="ccaron" unicode="&#x10d;" horiz-adv-x="465" 
d="M427 39q-28 -23 -68.5 -36.5t-81.5 -13.5q-70 0 -123 27.5t-82.5 77t-29.5 118.5t31.5 119t83 76.5t108.5 26.5q54 0 95 -14.5t70 -39.5l-55 -73q-16 13 -41.5 24.5t-58.5 11.5t-61 -17t-44 -46.5t-16 -67.5q0 -36 17 -66t46.5 -47.5t68.5 -17.5q26 0 47 7.5t38 20.5z
M190 659l88 -88l-31 -8l89 96h102l-173 -176h-1l-176 176h102z" />
    <glyph glyph-name="Dcaron" unicode="&#x10e;" horiz-adv-x="760" 
d="M100 0v728h207q108 0 184.5 -33t123.5 -87t68.5 -120.5t21.5 -133.5q0 -82 -29 -147t-79.5 -111.5t-116 -71t-138.5 -24.5h-242zM217 112h104q58 0 106 16.5t83.5 48t55 78.5t19.5 107q0 68 -22.5 116.5t-59 79t-79.5 45t-85 14.5h-122v-505zM236 926l88 -88l-31 -8
l89 96h102l-173 -176h-1l-176 176h102z" />
    <glyph glyph-name="dcaron" unicode="&#x10f;" horiz-adv-x="710" 
d="M250 -11q-59 0 -106.5 28t-74.5 80t-27 121q0 71 29 121t79.5 76.5t113.5 26.5q46 0 88 -17.5t67 -50.5l-2 -38v444h111v-780h-112v96l11 -28q-32 -34 -76 -56.5t-101 -22.5zM285 84q34 0 59.5 11t44 31.5t27.5 48.5v90q-8 26 -26.5 46t-45.5 31.5t-59 11.5
q-35 0 -64.5 -17.5t-47.5 -47.5t-18 -69q0 -38 18 -69t48 -49t64 -18zM648 617l-57 26q21 20 34 56t6 71l88 7q6 -28 -3 -60t-27 -58.5t-41 -41.5v0z" />
    <glyph glyph-name="Dcroat" unicode="&#x110;" horiz-adv-x="770" 
d="M110 0v728h207q108 0 184.5 -33t123.5 -87t68.5 -120.5t21.5 -133.5q0 -82 -29 -147t-79.5 -111.5t-116 -71t-138.5 -24.5h-242zM227 112h104q58 0 106 16.5t83.5 48t55 78.5t19.5 107q0 68 -22.5 116.5t-59 79t-79.5 45t-85 14.5h-122v-505zM29 413h292v-104h-292v104z
" />
    <glyph glyph-name="dcroat" unicode="&#x111;" horiz-adv-x="605" 
d="M250 -11q-59 0 -106.5 28t-74.5 80t-27 121q0 71 29 121t79.5 76.5t113.5 26.5q46 0 88 -17.5t67 -50.5l-2 -38v444h111v-780h-112v96l11 -28q-32 -34 -76 -56.5t-101 -22.5zM285 84q34 0 59.5 11t44 31.5t27.5 48.5v90q-8 26 -26.5 46t-45.5 31.5t-59 11.5
q-35 0 -64.5 -17.5t-47.5 -47.5t-18 -69q0 -38 18 -69t48 -49t64 -18zM320 687h292v-104h-292v104z" />
    <glyph glyph-name="Emacron" unicode="&#x112;" horiz-adv-x="658" 
d="M100 728h483v-112h-366v-194h326v-112h-326v-198h380v-112h-497v728zM211 861h249v-79h-249v79z" />
    <glyph glyph-name="emacron" unicode="&#x113;" horiz-adv-x="533" 
d="M279 -11q-75 0 -128 29t-81 80t-28 117q0 63 32 114.5t86.5 82t120.5 30.5q87 0 143.5 -50.5t75.5 -142.5l-341 -115l-26 63l267 95l-24 -13q-10 30 -35 52.5t-69 22.5q-35 0 -62 -17t-42.5 -46.5t-15.5 -69.5q0 -42 17 -72.5t46 -47t66 -16.5q26 0 49.5 9t45.5 24
l51 -83q-33 -21 -72.5 -33.5t-75.5 -12.5zM153 569h249v-79h-249v79z" />
    <glyph glyph-name="Ebreve" unicode="&#x114;" horiz-adv-x="658" 
d="M100 728h483v-112h-366v-194h326v-112h-326v-198h380v-112h-497v728zM340 778q-44 0 -76.5 20.5t-52.5 60.5t-29 99h75q5 -30 15 -54t27 -37.5t41 -13.5q26 0 42 13.5t25 37.5t14 54h76q-9 -60 -29 -100.5t-52 -60t-76 -19.5z" />
    <glyph glyph-name="ebreve" unicode="&#x115;" horiz-adv-x="533" 
d="M279 -11q-75 0 -128 29t-81 80t-28 117q0 63 32 114.5t86.5 82t120.5 30.5q87 0 143.5 -50.5t75.5 -142.5l-341 -115l-26 63l267 95l-24 -13q-10 30 -35 52.5t-69 22.5q-35 0 -62 -17t-42.5 -46.5t-15.5 -69.5q0 -42 17 -72.5t46 -47t66 -16.5q26 0 49.5 9t45.5 24
l51 -83q-33 -21 -72.5 -33.5t-75.5 -12.5zM279 484q-44 0 -76.5 20.5t-52.5 60.5t-29 99h75q5 -30 15 -54t27 -37.5t41 -13.5q26 0 42 13.5t25 37.5t14 54h76q-9 -60 -29 -100.5t-52 -60t-76 -19.5z" />
    <glyph glyph-name="Edotaccent" unicode="&#x116;" horiz-adv-x="658" 
d="M100 728h483v-112h-366v-194h326v-112h-326v-198h380v-112h-497v728zM276 835q0 26 20.5 43t44.5 17t43 -17t19 -43t-19 -42.5t-43 -16.5t-44.5 17t-20.5 42z" />
    <glyph glyph-name="edotaccent" unicode="&#x117;" horiz-adv-x="533" 
d="M279 -11q-75 0 -128 29t-81 80t-28 117q0 63 32 114.5t86.5 82t120.5 30.5q87 0 143.5 -50.5t75.5 -142.5l-341 -115l-26 63l267 95l-24 -13q-10 30 -35 52.5t-69 22.5q-35 0 -62 -17t-42.5 -46.5t-15.5 -69.5q0 -42 17 -72.5t46 -47t66 -16.5q26 0 49.5 9t45.5 24
l51 -83q-33 -21 -72.5 -33.5t-75.5 -12.5zM214 591q0 26 20.5 43t44.5 17t43 -17t19 -43t-19 -42.5t-43 -16.5t-44.5 17t-20.5 42z" />
    <glyph glyph-name="Eogonek" unicode="&#x118;" horiz-adv-x="658" 
d="M100 728h483v-112h-366v-194h326v-112h-326v-198h380v-112h-497v728zM513 -222q-54 0 -91.5 32.5t-37.5 84.5q0 34 23.5 66t64.5 49l125 -10q-54 -23 -87 -45t-33 -51q0 -26 14.5 -36t31.5 -10q20 0 37.5 12t32.5 36l41 -58q-19 -30 -53.5 -50t-67.5 -20z" />
    <glyph glyph-name="eogonek" unicode="&#x119;" horiz-adv-x="536" 
d="M326 -222q-61 0 -98 33t-37 86q0 33 20 64t58 49l116 17q-8 -11 -28.5 -19.5t-41 -13.5t-33.5 -5q-75 0 -127.5 29t-81 80t-28.5 117q0 63 32 114.5t86.5 82t120.5 30.5q87 0 143.5 -50.5t75.5 -142.5l-341 -115l-25 62l266 95l-24 -12q-11 31 -35.5 53t-68.5 22
q-35 0 -62 -17t-42.5 -46.5t-15.5 -69.5q0 -42 17 -72.5t46.5 -47t65.5 -16.5q26 0 50 9t45 24l51 -83q-25 -15 -51 -26t-47.5 -23.5t-34.5 -29t-13 -42.5t17 -41t35 -15q19 0 36 10.5t31 33.5l41 -59q-19 -28 -53 -46.5t-65 -18.5z" />
    <glyph glyph-name="Ecaron" unicode="&#x11a;" horiz-adv-x="658" 
d="M100 728h483v-112h-366v-194h326v-112h-326v-198h380v-112h-497v728zM264 942l88 -88l-31 -8l89 96h102l-173 -176h-1l-176 176h102z" />
    <glyph glyph-name="ecaron" unicode="&#x11b;" horiz-adv-x="533" 
d="M279 -11q-75 0 -128 29t-81 80t-28 117q0 63 32 114.5t86.5 82t120.5 30.5q87 0 143.5 -50.5t75.5 -142.5l-341 -115l-26 63l267 95l-24 -13q-10 30 -35 52.5t-69 22.5q-35 0 -62 -17t-42.5 -46.5t-15.5 -69.5q0 -42 17 -72.5t46 -47t66 -16.5q26 0 49.5 9t45.5 24
l51 -83q-33 -21 -72.5 -33.5t-75.5 -12.5zM213 667l88 -88l-31 -8l89 96h102l-173 -176h-1l-176 176h102z" />
    <glyph glyph-name="Gcircumflex" unicode="&#x11c;" horiz-adv-x="756" 
d="M679 67q-14 -14 -41.5 -27t-61.5 -24t-70 -17.5t-68 -6.5q-88 0 -158.5 27t-120.5 74.5t-77 112.5t-27 141q0 95 30 167.5t82 122t119.5 74.5t142.5 25q66 0 122.5 -15t96.5 -38l-38 -108q-19 11 -49 21.5t-61 16.5t-56 6q-63 0 -112.5 -17.5t-84.5 -51.5t-53.5 -82.5
t-18.5 -110.5q0 -56 19.5 -102t54.5 -79t84 -50.5t108 -17.5q34 0 66 6t55 19v121h-137v112h254v-299zM475 774l-87 88l30 8l-88 -96h-103l173 176h1l176 -176h-102z" />
    <glyph glyph-name="gcircumflex" unicode="&#x11d;" horiz-adv-x="612" 
d="M287 -211q-51 0 -88 12t-65.5 31.5t-53.5 40.5l66 77q29 -27 61.5 -45t77.5 -18q42 0 72.5 13.5t48 39t17.5 60.5v105l7 -21q-17 -39 -62 -67t-112 -28q-58 0 -107 29.5t-78 80.5t-29 115q0 66 31 117.5t81 81t107 29.5q56 0 99.5 -20t65.5 -50l-6 -16l12 67h103v-425
q0 -59 -31.5 -106.5t-87 -75t-129.5 -27.5zM155 217q0 -38 17.5 -69t48 -49t68.5 -18q33 0 60 11t46 31t28 47v92q-9 27 -28.5 46.5t-46.5 30.5t-59 11q-38 0 -68.5 -17t-48 -47t-17.5 -69zM378 503l-87 88l30 8l-88 -96h-103l173 176h1l176 -176h-102z" />
    <glyph glyph-name="Gbreve" unicode="&#x11e;" horiz-adv-x="756" 
d="M679 67q-14 -14 -41.5 -27t-61.5 -24t-70 -17.5t-68 -6.5q-88 0 -158.5 27t-120.5 74.5t-77 112.5t-27 141q0 95 30 167.5t82 122t119.5 74.5t142.5 25q66 0 122.5 -15t96.5 -38l-38 -108q-19 11 -49 21.5t-61 16.5t-56 6q-63 0 -112.5 -17.5t-84.5 -51.5t-53.5 -82.5
t-18.5 -110.5q0 -56 19.5 -102t54.5 -79t84 -50.5t108 -17.5q34 0 66 6t55 19v121h-137v112h254v-299zM409 762q-44 0 -76.5 20.5t-52.5 60.5t-29 99h75q5 -30 15 -54t27 -37.5t41 -13.5q26 0 42 13.5t25 37.5t14 54h76q-9 -60 -29 -100.5t-52 -60t-76 -19.5z" />
    <glyph glyph-name="gbreve" unicode="&#x11f;" horiz-adv-x="612" 
d="M287 -211q-51 0 -88 12t-65.5 31.5t-53.5 40.5l66 77q29 -27 61.5 -45t77.5 -18q42 0 72.5 13.5t48 39t17.5 60.5v105l7 -21q-17 -39 -62 -67t-112 -28q-58 0 -107 29.5t-78 80.5t-29 115q0 66 31 117.5t81 81t107 29.5q56 0 99.5 -20t65.5 -50l-6 -16l12 67h103v-425
q0 -59 -31.5 -106.5t-87 -75t-129.5 -27.5zM155 217q0 -38 17.5 -69t48 -49t68.5 -18q33 0 60 11t46 31t28 47v92q-9 27 -28.5 46.5t-46.5 30.5t-59 11q-38 0 -68.5 -17t-48 -47t-17.5 -69zM308 484q-44 0 -76.5 20.5t-52.5 60.5t-29 99h75q5 -30 15 -54t27 -37.5t41 -13.5
q26 0 42 13.5t25 37.5t14 54h76q-9 -60 -29 -100.5t-52 -60t-76 -19.5z" />
    <glyph glyph-name="Gdotaccent" unicode="&#x120;" horiz-adv-x="756" 
d="M679 67q-14 -14 -41.5 -27t-61.5 -24t-70 -17.5t-68 -6.5q-88 0 -158.5 27t-120.5 74.5t-77 112.5t-27 141q0 95 30 167.5t82 122t119.5 74.5t142.5 25q66 0 122.5 -15t96.5 -38l-38 -108q-19 11 -49 21.5t-61 16.5t-56 6q-63 0 -112.5 -17.5t-84.5 -51.5t-53.5 -82.5
t-18.5 -110.5q0 -56 19.5 -102t54.5 -79t84 -50.5t108 -17.5q34 0 66 6t55 19v121h-137v112h254v-299zM345 820q0 26 20.5 43t44.5 17t43 -17t19 -43t-19 -42.5t-43 -16.5t-44.5 17t-20.5 42z" />
    <glyph glyph-name="gdotaccent" unicode="&#x121;" horiz-adv-x="612" 
d="M287 -211q-51 0 -88 12t-65.5 31.5t-53.5 40.5l66 77q29 -27 61.5 -45t77.5 -18q42 0 72.5 13.5t48 39t17.5 60.5v105l7 -21q-17 -39 -62 -67t-112 -28q-58 0 -107 29.5t-78 80.5t-29 115q0 66 31 117.5t81 81t107 29.5q56 0 99.5 -20t65.5 -50l-6 -16l12 67h103v-425
q0 -59 -31.5 -106.5t-87 -75t-129.5 -27.5zM155 217q0 -38 17.5 -69t48 -49t68.5 -18q33 0 60 11t46 31t28 47v92q-9 27 -28.5 46.5t-46.5 30.5t-59 11q-38 0 -68.5 -17t-48 -47t-17.5 -69zM243 590q0 26 20.5 43t44.5 17t43 -17t19 -43t-19 -42.5t-43 -16.5t-44.5 17
t-20.5 42z" />
    <glyph glyph-name="uni0122" unicode="&#x122;" horiz-adv-x="756" 
d="M679 67q-14 -14 -41.5 -27t-61.5 -24t-70 -17.5t-68 -6.5q-88 0 -158.5 27t-120.5 74.5t-77 112.5t-27 141q0 95 30 167.5t82 122t119.5 74.5t142.5 25q66 0 122.5 -15t96.5 -38l-38 -108q-19 11 -49 21.5t-61 16.5t-56 6q-63 0 -112.5 -17.5t-84.5 -51.5t-53.5 -82.5
t-18.5 -110.5q0 -56 19.5 -102t54.5 -79t84 -50.5t108 -17.5q34 0 66 6t55 19v121h-137v112h254v-299zM353 -222l-57 39q23 21 33 60t4 75l98 -1q5 -27 -3 -60.5t-26.5 -63.5t-48.5 -49z" />
    <glyph glyph-name="uni0123" unicode="&#x123;" horiz-adv-x="580" 
d="M228 507q23 53 44.5 105t43.5 104h90q-20 -52 -39 -104t-39 -105h-100zM287 -211q-51 0 -88 12t-65.5 31.5t-53.5 40.5l66 77q29 -27 61.5 -45t77.5 -18q42 0 72.5 13.5t48 39t17.5 60.5v105l7 -21q-17 -39 -62 -67t-112 -28q-58 0 -107 29.5t-78 80.5t-29 115
q0 66 31 117.5t81 81t107 29.5q56 0 99.5 -20t65.5 -50l-6 -16l12 67h103v-425q0 -59 -31.5 -106.5t-87 -75t-129.5 -27.5zM155 217q0 -38 17.5 -69t48 -49t68.5 -18q33 0 60 11t46 31t28 47v92q-9 27 -28.5 46.5t-46.5 30.5t-59 11q-38 0 -68.5 -17t-48 -47t-17.5 -69z" />
    <glyph glyph-name="Hcircumflex" unicode="&#x124;" horiz-adv-x="792" 
d="M691 728v-728h-116v310h-358v-310h-117v728h117v-307h358v307h116zM463 774l-87 88l30 8l-88 -96h-103l173 176h1l176 -176h-102z" />
    <glyph glyph-name="hcircumflex" unicode="&#x125;" horiz-adv-x="569" 
d="M77 0v780h110v-450l-2 17q22 41 65 67.5t103 26.5t99 -35t40 -92v-314h-112v274q-1 32 -18 51.5t-54 20.5q-34 0 -61 -21t-42.5 -56.5t-15.5 -80.5v-188h-112zM197 823l-87 88l30 8l-88 -96h-103l173 176h1l176 -176h-102z" />
    <glyph glyph-name="Hbar" unicode="&#x126;" horiz-adv-x="956" 
d="M100 584h756v-87h-756v87zM774 728v-728h-116v310h-359v-310h-116v728h116v-307h359v307h116z" />
    <glyph glyph-name="hbar" unicode="&#x127;" horiz-adv-x="569" 
d="M77 0v780h110v-450l-2 17q22 41 65 67.5t103 26.5t99 -35t40 -92v-314h-112v274q-1 32 -18 51.5t-54 20.5q-34 0 -61 -21t-42.5 -56.5t-15.5 -80.5v-188h-112zM-6 660h292v-104h-292v104z" />
    <glyph glyph-name="Itilde" unicode="&#x128;" horiz-adv-x="317" 
d="M100 728h117v-728h-117v728zM236 810q-33 0 -54.5 14.5t-39.5 30.5q-12 10 -23 18.5t-25 8.5q-13 0 -21.5 -9.5t-12.5 -25.5t-3 -37l-58 1q-4 39 7.5 71.5t35.5 52t58 19.5q26 0 45 -14t36 -28q14 -13 26.5 -23t26.5 -10q19 0 25.5 21.5t6.5 53.5l58 -1q5 -42 -5.5 -74.5
t-32.5 -50.5t-50 -18z" />
    <glyph glyph-name="itilde" unicode="&#x129;" horiz-adv-x="266" 
d="M77 423h112v-423h-112v423zM212 462q-33 0 -54.5 14.5t-39.5 29.5q-12 11 -23 19t-25 8q-13 0 -21.5 -9.5t-12.5 -25.5t-3 -36h-58q-4 39 7.5 72t35.5 52.5t58 19.5q26 0 45 -14t36 -29q14 -13 26.5 -23t26.5 -10q19 0 25.5 22t6.5 53h58q5 -42 -5.5 -74.5t-32.5 -50.5
t-50 -18z" />
    <glyph glyph-name="Imacron" unicode="&#x12a;" horiz-adv-x="317" 
d="M100 728h117v-728h-117v728zM31 861h249v-79h-249v79z" />
    <glyph glyph-name="imacron" unicode="&#x12b;" horiz-adv-x="266" 
d="M77 423h112v-423h-112v423zM11 553h249v-79h-249v79z" />
    <glyph glyph-name="Ibreve" unicode="&#x12c;" horiz-adv-x="317" 
d="M100 728h117v-728h-117v728zM160 778q-44 0 -76.5 20.5t-52.5 60.5t-29 99h75q5 -30 15 -54t27 -37.5t41 -13.5q26 0 42 13.5t25 37.5t14 54h76q-9 -60 -29 -100.5t-52 -60t-76 -19.5z" />
    <glyph glyph-name="ibreve" unicode="&#x12d;" horiz-adv-x="266" 
d="M77 423h112v-423h-112v423zM136 468q-44 0 -76.5 20.5t-52.5 60.5t-29 99h75q5 -30 15 -54t27 -37.5t41 -13.5q26 0 42 13.5t25 37.5t14 54h76q-9 -60 -29 -100.5t-52 -60t-76 -19.5z" />
    <glyph glyph-name="Iogonek" unicode="&#x12e;" horiz-adv-x="278" 
d="M140 -222q-53 0 -91 28.5t-38 80.5q0 35 24 67t64 49l93 3l20 -6q-49 -21 -78.5 -43t-29.5 -53q0 -26 14.5 -36t32.5 -10q20 0 37 12t32 36l42 -58q-20 -30 -54.5 -50t-67.5 -20zM100 728h117v-728h-117v728z" />
    <glyph glyph-name="iogonek" unicode="&#x12f;" horiz-adv-x="271" 
d="M126 -222q-54 0 -91.5 32.5t-37.5 84.5q0 34 23.5 66t64.5 49l85 -1l21 -9q-47 -21 -74 -42.5t-27 -53.5q0 -26 14 -36t32 -10q20 0 37.5 12t32.5 36l41 -58q-19 -30 -53.5 -50t-67.5 -20zM77 423h112v-423h-112v423zM70 571q0 26 20.5 42.5t44.5 16.5q23 0 42.5 -16.5
t19.5 -42.5t-19.5 -42.5t-42.5 -16.5q-24 0 -44.5 16.5t-20.5 42.5z" />
    <glyph glyph-name="Idotaccent" unicode="&#x130;" horiz-adv-x="317" 
d="M100 728h117v-728h-117v728zM96 835q0 26 20.5 43t44.5 17t43 -17t19 -43t-19 -42.5t-43 -16.5t-44.5 17t-20.5 42z" />
    <glyph glyph-name="dotlessi" unicode="&#x131;" horiz-adv-x="266" 
d="M77 423h112v-423h-112v423z" />
    <glyph glyph-name="IJ" unicode="&#x132;" horiz-adv-x="696" 
d="M100 728h117v-728h-117v728zM596 141q0 -91 -35.5 -155.5t-97.5 -99t-142 -37.5v0v113q69 4 113.5 46.5t44.5 135.5v584h117v-587z" />
    <glyph glyph-name="ij" unicode="&#x133;" horiz-adv-x="527" 
d="M77 423h112v-423h-112v423zM72 575q0 26 20.5 43t44.5 17t43 -17t19 -43t-19 -42.5t-43 -16.5t-44.5 17t-20.5 42zM337 -204l-65 69q28 24 44.5 58t16.5 81v419h112v-425q0 -73 -25 -122.5t-83 -79.5zM326 575q0 26 20.5 43t44.5 17t43 -17t19 -43t-19 -42.5t-43 -16.5
t-44.5 17t-20.5 42z" />
    <glyph glyph-name="Jcircumflex" unicode="&#x134;" horiz-adv-x="379" 
d="M279 141q0 -91 -35.5 -155.5t-97.5 -99t-142 -37.5v0v113q69 4 113.5 46.5t44.5 135.5v584h117v-587zM289 790l-87 88l30 8l-88 -96h-103l173 176h1l176 -176h-102z" />
    <glyph glyph-name="jcircumflex" unicode="&#x135;" horiz-adv-x="274" 
d="M92 -204l-65 69q28 24 44.5 58t16.5 81v419h112v-425q0 -73 -25 -122.5t-83 -79.5zM216 487l-87 88l30 8l-88 -96h-103l173 176h1l176 -176h-102z" />
    <glyph glyph-name="uni0136" unicode="&#x136;" horiz-adv-x="689" 
d="M218 449l-3 -37l16 23l274 293h150l-301 -318l312 -410h-148l-249 336l-51 -50v-286h-118v728h118v-279zM294 -222l-57 39q23 21 33 60t4 75l98 -1q5 -27 -3 -60.5t-26.5 -63.5t-48.5 -49z" />
    <glyph glyph-name="uni0137" unicode="&#x137;" horiz-adv-x="517" 
d="M77 0v780h112v-780h-112zM294 284l193 -284h-131l-136 220zM155 127l-11 107l256 199l69 -60zM229 -207l-57 39q23 21 33 60t4 75l98 -1q5 -27 -3 -60.5t-26.5 -63.5t-48.5 -49z" />
    <glyph glyph-name="kgreenlandic" unicode="&#x138;" horiz-adv-x="529" 
d="M181 122l-17 99l189 202h135zM189 0h-112v423h112v-423zM292 244l195 -244h-130l-151 195z" />
    <glyph glyph-name="Lacute" unicode="&#x139;" horiz-adv-x="630" 
d="M100 728h117v-616h358v-112h-475v728zM323 908l-136 -134h-69l81 134h124z" />
    <glyph glyph-name="lacute" unicode="&#x13a;" horiz-adv-x="266" 
d="M77 780h112v-780h-112v780zM302 959l-136 -134h-69l81 134h124z" />
    <glyph glyph-name="uni013B" unicode="&#x13b;" horiz-adv-x="630" 
d="M100 728h117v-616h358v-112h-475v728zM294 -222l-57 39q23 21 33 60t4 75l98 -1q5 -27 -3 -60.5t-26.5 -63.5t-48.5 -49z" />
    <glyph glyph-name="uni013C" unicode="&#x13c;" horiz-adv-x="266" 
d="M77 780h112v-780h-112v780zM104 -207l-57 39q23 21 33 60t4 75l98 -1q5 -27 -3 -60.5t-26.5 -63.5t-48.5 -49z" />
    <glyph glyph-name="Lcaron" unicode="&#x13d;" horiz-adv-x="625" 
d="M100 728h117v-616h358v-112h-475v728zM448 562l-57 26q21 20 34 56t6 71l88 7q6 -28 -3 -60t-27 -58.5t-41 -41.5v0z" />
    <glyph glyph-name="lcaron" unicode="&#x13e;" horiz-adv-x="386" 
d="M77 780h112v-780h-112v780zM312 609l-57 26q21 20 34 56t6 71l88 7q6 -28 -3 -60t-27 -58.5t-41 -41.5v0z" />
    <glyph glyph-name="Ldot" unicode="&#x13f;" horiz-adv-x="631" 
d="M100 728h117v-616h358v-112h-475v728zM466 389q0 25 19 43t42 18q21 0 40 -18t19 -43q0 -28 -19 -44.5t-40 -16.5q-23 0 -42 16.5t-19 44.5v0z" />
    <glyph glyph-name="ldot" unicode="&#x140;" horiz-adv-x="368" 
d="M77 780h112v-780h-112v780zM258 327q0 25 19 43t42 18q21 0 40 -18t19 -43q0 -28 -19 -44.5t-40 -16.5q-23 0 -42 16.5t-19 44.5v0z" />
    <glyph glyph-name="Lslash" unicode="&#x141;" horiz-adv-x="625" 
d="M397 475l23 -91l-385 -124l-24 91zM100 728h117v-616h358v-112h-475v728z" />
    <glyph glyph-name="lslash" unicode="&#x142;" horiz-adv-x="286" 
d="M273 399v-97l-255 -65v97zM85 780h112v-780h-112v780z" />
    <glyph glyph-name="Nacute" unicode="&#x143;" horiz-adv-x="844" 
d="M740 -26l-559 542l34 -14l3 -502h-118v753h6l550 -542l-27 8l-2 509h116v-754h-3zM573 893l-136 -134h-69l81 134h124z" />
    <glyph glyph-name="nacute" unicode="&#x144;" horiz-adv-x="569" 
d="M178 423l9 -91l-3 12q21 44 65 70.5t104 26.5t99 -35t40 -92v-314h-112v274q-1 32 -18 51.5t-54 20.5q-34 0 -61 -20.5t-42.5 -56t-15.5 -81.5v-188h-112v423h101zM412 624l-136 -134h-69l81 134h124z" />
    <glyph glyph-name="uni0145" unicode="&#x145;" horiz-adv-x="844" 
d="M740 -26l-559 542l34 -14l3 -502h-118v753h6l550 -542l-27 8l-2 509h116v-754h-3zM392 -222l-57 39q23 21 33 60t4 75l98 -1q5 -27 -3 -60.5t-26.5 -63.5t-48.5 -49z" />
    <glyph glyph-name="uni0146" unicode="&#x146;" horiz-adv-x="569" 
d="M178 423l9 -91l-3 12q21 44 65 70.5t104 26.5t99 -35t40 -92v-314h-112v274q-1 32 -18 51.5t-54 20.5q-34 0 -61 -20.5t-42.5 -56t-15.5 -81.5v-188h-112v423h101zM255 -207l-57 39q23 21 33 60t4 75l98 -1q5 -27 -3 -60.5t-26.5 -63.5t-48.5 -49z" />
    <glyph glyph-name="Ncaron" unicode="&#x147;" horiz-adv-x="844" 
d="M740 -26l-559 542l34 -14l3 -502h-118v753h6l550 -542l-27 8l-2 509h116v-754h-3zM331 926l88 -88l-31 -8l89 96h102l-173 -176h-1l-176 176h102z" />
    <glyph glyph-name="ncaron" unicode="&#x148;" horiz-adv-x="569" 
d="M178 423l9 -91l-3 12q21 44 65 70.5t104 26.5t99 -35t40 -92v-314h-112v274q-1 32 -18 51.5t-54 20.5q-34 0 -61 -20.5t-42.5 -56t-15.5 -81.5v-188h-112v423h101zM220 659l88 -88l-31 -8l89 96h102l-173 -176h-1l-176 176h102z" />
    <glyph glyph-name="napostrophe" unicode="&#x149;" horiz-adv-x="588" 
d="M2 415l-57 39q23 21 33 60t4 75l98 -1q5 -27 -3 -60.5t-26.5 -63.5t-48.5 -49zM196 423l9 -91l-3 12q21 44 65 70.5t104 26.5t99 -35t40 -92v-314h-112v274q-1 32 -18 51.5t-54 20.5q-34 0 -61 -20.5t-42.5 -56t-15.5 -81.5v-188h-112v423h101z" />
    <glyph glyph-name="Eng" unicode="&#x14a;" horiz-adv-x="805" 
d="M720 -26l-558 543l34 -15l2 -502h-117v753h5l550 -543l-26 9l-3 509h117v-728zM724 37v-39q0 -68 -26.5 -119t-81.5 -83l-65 69q29 24 45 58t16 81v137z" />
    <glyph glyph-name="eng" unicode="&#x14b;" horiz-adv-x="569" 
d="M492 4q0 -69 -26 -122.5t-81 -85.5l-65 69q28 24 44 58t16 81v270q-1 32 -18 51.5t-54 20.5q-34 0 -61 -20.5t-42.5 -56t-15.5 -81.5v-188h-112v423h101l9 -79q21 44 63.5 70.5t102.5 26.5t99 -35t40 -92v-310z" />
    <glyph glyph-name="Omacron" unicode="&#x14c;" horiz-adv-x="855" 
d="M55 363q0 76 29 143t80 119t118.5 81.5t144.5 29.5q76 0 143.5 -29.5t119 -81.5t81 -119t29.5 -143q0 -77 -29.5 -144.5t-81 -118.5t-119 -79.5t-143.5 -28.5q-78 0 -145 28.5t-118 79t-80 118t-29 145.5zM175 363q0 -54 19.5 -101t54.5 -82.5t81 -55.5t100 -20
q52 0 97.5 20t79.5 55.5t53.5 82.5t19.5 101q0 55 -20 102t-54 83t-80 56t-99 20t-99 -20t-80.5 -56t-53.5 -83.5t-19 -101.5zM300 853h249v-79h-249v79z" />
    <glyph glyph-name="omacron" unicode="&#x14d;" horiz-adv-x="555" 
d="M42 216q0 64 30.5 115.5t84.5 81t123 29.5q71 0 123.5 -29.5t81 -81t28.5 -115.5t-28.5 -115.5t-81.5 -81.5t-124 -30q-69 0 -122.5 27.5t-84 78.5t-30.5 121zM155 215q0 -37 16 -67.5t44 -48.5t62 -18q37 0 64.5 18t43 48.5t15.5 67.5q0 38 -15.5 68.5t-43 48.5
t-64.5 18q-35 0 -62.5 -18.5t-43.5 -48.5t-16 -68zM154 568h249v-79h-249v79z" />
    <glyph glyph-name="Obreve" unicode="&#x14e;" horiz-adv-x="855" 
d="M55 363q0 76 29 143t80 119t118.5 81.5t144.5 29.5q76 0 143.5 -29.5t119 -81.5t81 -119t29.5 -143q0 -77 -29.5 -144.5t-81 -118.5t-119 -79.5t-143.5 -28.5q-78 0 -145 28.5t-118 79t-80 118t-29 145.5zM175 363q0 -54 19.5 -101t54.5 -82.5t81 -55.5t100 -20
q52 0 97.5 20t79.5 55.5t53.5 82.5t19.5 101q0 55 -20 102t-54 83t-80 56t-99 20t-99 -20t-80.5 -56t-53.5 -83.5t-19 -101.5zM428 770q-44 0 -76.5 20.5t-52.5 60.5t-29 99h75q5 -30 15 -54t27 -37.5t41 -13.5q26 0 42 13.5t25 37.5t14 54h76q-9 -60 -29 -100.5t-52 -60
t-76 -19.5z" />
    <glyph glyph-name="obreve" unicode="&#x14f;" horiz-adv-x="555" 
d="M42 216q0 64 30.5 115.5t84.5 81t123 29.5q71 0 123.5 -29.5t81 -81t28.5 -115.5t-28.5 -115.5t-81.5 -81.5t-124 -30q-69 0 -122.5 27.5t-84 78.5t-30.5 121zM155 215q0 -37 16 -67.5t44 -48.5t62 -18q37 0 64.5 18t43 48.5t15.5 67.5q0 38 -15.5 68.5t-43 48.5
t-64.5 18q-35 0 -62.5 -18.5t-43.5 -48.5t-16 -68zM280 484q-44 0 -76.5 20.5t-52.5 60.5t-29 99h75q5 -30 15 -54t27 -37.5t41 -13.5q26 0 42 13.5t25 37.5t14 54h76q-9 -60 -29 -100.5t-52 -60t-76 -19.5z" />
    <glyph glyph-name="Ohungarumlaut" unicode="&#x150;" horiz-adv-x="855" 
d="M55 363q0 76 29 143t80 119t118.5 81.5t144.5 29.5q76 0 143.5 -29.5t119 -81.5t81 -119t29.5 -143q0 -77 -29.5 -144.5t-81 -118.5t-119 -79.5t-143.5 -28.5q-78 0 -145 28.5t-118 79t-80 118t-29 145.5zM175 363q0 -54 19.5 -101t54.5 -82.5t81 -55.5t100 -20
q52 0 97.5 20t79.5 55.5t53.5 82.5t19.5 101q0 55 -20 102t-54 83t-80 56t-99 20t-99 -20t-80.5 -56t-53.5 -83.5t-19 -101.5zM483 910l-136 -134h-69l81 134h124zM647 908l-136 -134h-69l81 134h124z" />
    <glyph glyph-name="ohungarumlaut" unicode="&#x151;" horiz-adv-x="555" 
d="M42 216q0 64 30.5 115.5t84.5 81t123 29.5q71 0 123.5 -29.5t81 -81t28.5 -115.5t-28.5 -115.5t-81.5 -81.5t-124 -30q-69 0 -122.5 27.5t-84 78.5t-30.5 121zM155 215q0 -37 16 -67.5t44 -48.5t62 -18q37 0 64.5 18t43 48.5t15.5 67.5q0 38 -15.5 68.5t-43 48.5
t-64.5 18q-35 0 -62.5 -18.5t-43.5 -48.5t-16 -68zM347 637l-136 -134h-69l81 134h124zM511 635l-136 -134h-69l81 134h124z" />
    <glyph glyph-name="OE" unicode="&#x152;" horiz-adv-x="1018" 
d="M490 614q-13 4 -26.5 5.5t-28.5 1.5q-52 0 -97.5 -20t-80 -55.5t-54.5 -82.5t-20 -100t20 -100t55 -82.5t81.5 -55.5t99.5 -20q28 0 55 6l32 -107q-22 -6 -45 -9t-47 -3q-76 0 -143.5 28.5t-118.5 79.5t-79.5 118.5t-28.5 144.5q0 76 28.5 143t79.5 119t118.5 81.5
t143.5 29.5q25 0 49 -3.5t46 -9.5zM483 728h453v-108h-333v-200h293v-110h-293v-199h347v-111h-467v728z" />
    <glyph glyph-name="oe" unicode="&#x153;" horiz-adv-x="821" 
d="M427 39q-28 -23 -68.5 -36.5t-81.5 -13.5q-70 0 -123 27.5t-82.5 77t-29.5 118.5t31.5 119t83 76.5t108.5 26.5q54 0 95 -14.5t70 -39.5l-55 -73q-16 13 -41.5 24.5t-58.5 11.5t-61 -17t-44 -46.5t-16 -67.5q0 -36 17 -66t46.5 -47.5t68.5 -17.5q26 0 47 7.5t38 20.5z
M567 -11q-75 0 -128 29t-81 80t-28 117q0 63 32 114.5t86.5 82t120.5 30.5q87 0 143.5 -50.5t75.5 -142.5l-341 -115l-26 63l267 95l-24 -13q-10 30 -35 52.5t-69 22.5q-35 0 -62 -17t-42.5 -46.5t-15.5 -69.5q0 -42 17 -72.5t46 -47t66 -16.5q26 0 49.5 9t45.5 24l51 -83
q-33 -21 -72.5 -33.5t-75.5 -12.5z" />
    <glyph glyph-name="Racute" unicode="&#x154;" horiz-adv-x="670" 
d="M305 728q60 0 110 -15.5t85 -45.5t54.5 -73.5t19.5 -99.5q0 -43 -13 -86t-42.5 -77.5t-77.5 -56t-119 -21.5h-105v-253h-117v728h205zM321 365q39 0 65 12.5t40.5 31.5t21 40.5t6.5 40.5q0 18 -6 39.5t-20.5 41t-39.5 32.5t-63 13h-108v-251h104zM447 296l186 -296h-135
l-190 293zM475 908l-136 -134h-69l81 134h124z" />
    <glyph glyph-name="racute" unicode="&#x155;" horiz-adv-x="390" 
d="M178 423l10 -120l-4 17q17 38 48.5 65t65 42t54.5 15l-5 -112q-48 4 -83.5 -17t-55.5 -56.5t-20 -74.5v-182h-111v423h101zM313 616l-136 -134h-69l81 134h124z" />
    <glyph glyph-name="uni0156" unicode="&#x156;" horiz-adv-x="670" 
d="M305 728q60 0 110 -15.5t85 -45.5t54.5 -73.5t19.5 -99.5q0 -43 -13 -86t-42.5 -77.5t-77.5 -56t-119 -21.5h-105v-253h-117v728h205zM321 365q39 0 65 12.5t40.5 31.5t21 40.5t6.5 40.5q0 18 -6 39.5t-20.5 41t-39.5 32.5t-63 13h-108v-251h104zM447 296l186 -296h-135
l-190 293zM309 -222l-57 39q23 21 33 60t4 75l98 -1q5 -27 -3 -60.5t-26.5 -63.5t-48.5 -49z" />
    <glyph glyph-name="uni0157" unicode="&#x157;" horiz-adv-x="390" 
d="M178 423l10 -120l-4 17q17 38 48.5 65t65 42t54.5 15l-5 -112q-48 4 -83.5 -17t-55.5 -56.5t-20 -74.5v-182h-111v423h101zM105 -207l-57 39q23 21 33 60t4 75l98 -1q5 -27 -3 -60.5t-26.5 -63.5t-48.5 -49z" />
    <glyph glyph-name="Rcaron" unicode="&#x158;" horiz-adv-x="670" 
d="M305 728q60 0 110 -15.5t85 -45.5t54.5 -73.5t19.5 -99.5q0 -43 -13 -86t-42.5 -77.5t-77.5 -56t-119 -21.5h-105v-253h-117v728h205zM321 365q39 0 65 12.5t40.5 31.5t21 40.5t6.5 40.5q0 18 -6 39.5t-20.5 41t-39.5 32.5t-63 13h-108v-251h104zM447 296l186 -296h-135
l-190 293zM233 942l88 -88l-31 -8l89 96h102l-173 -176h-1l-176 176h102z" />
    <glyph glyph-name="rcaron" unicode="&#x159;" horiz-adv-x="390" 
d="M178 423l10 -120l-4 17q17 38 48.5 65t65 42t54.5 15l-5 -112q-48 4 -83.5 -17t-55.5 -56.5t-20 -74.5v-182h-111v423h101zM122 651l88 -88l-31 -8l89 96h102l-173 -176h-1l-176 176h102z" />
    <glyph glyph-name="Sacute" unicode="&#x15a;" horiz-adv-x="582" 
d="M482 580q-39 20 -83 34.5t-84 14.5q-54 0 -85.5 -24t-31.5 -66q0 -30 21.5 -52.5t56 -39t72.5 -31.5q33 -12 65.5 -28.5t58.5 -40.5t41 -59.5t15 -87.5q0 -57 -28.5 -104.5t-82.5 -75.5t-131 -28q-46 0 -89.5 10t-82.5 27.5t-72 39.5l52 91q24 -18 55 -33t64 -24t62 -9
q31 0 61.5 10.5t51 33.5t20.5 61q0 31 -17.5 53t-46.5 38.5t-63 29.5t-69 29t-65.5 39.5t-49.5 57.5t-19 84q0 60 28 104t77.5 70t114.5 28q77 0 131.5 -18.5t96.5 -44.5zM456 897l-136 -134h-69l81 134h124z" />
    <glyph glyph-name="sacute" unicode="&#x15b;" horiz-adv-x="423" 
d="M204 -9q-48 0 -91.5 17t-72.5 50l47 63q28 -27 55.5 -39.5t52.5 -12.5q19 0 34.5 4.5t25 14.5t9.5 27q0 20 -14 31.5t-36 19t-47 14.5q-54 18 -81 50.5t-27 75.5q0 33 17 63.5t52 50.5t88 20q48 0 83.5 -11t66.5 -35l-43 -68q-18 18 -42.5 27.5t-44.5 10.5
q-18 1 -32 -4.5t-23 -15.5t-9 -23q0 -20 14.5 -32t37.5 -19t46 -15q31 -9 54.5 -25t37.5 -38.5t14 -55.5q0 -38 -19 -71.5t-57 -53.5t-96 -20zM340 624l-136 -134h-69l81 134h124z" />
    <glyph glyph-name="Scircumflex" unicode="&#x15c;" horiz-adv-x="582" 
d="M482 580q-39 20 -83 34.5t-84 14.5q-54 0 -85.5 -24t-31.5 -66q0 -30 21.5 -52.5t56 -39t72.5 -31.5q33 -12 65.5 -28.5t58.5 -40.5t41 -59.5t15 -87.5q0 -57 -28.5 -104.5t-82.5 -75.5t-131 -28q-46 0 -89.5 10t-82.5 27.5t-72 39.5l52 91q24 -18 55 -33t64 -24t62 -9
q31 0 61.5 10.5t51 33.5t20.5 61q0 31 -17.5 53t-46.5 38.5t-63 29.5t-69 29t-65.5 39.5t-49.5 57.5t-19 84q0 60 28 104t77.5 70t114.5 28q77 0 131.5 -18.5t96.5 -44.5zM356 779l-87 88l30 8l-88 -96h-103l173 176h1l176 -176h-102z" />
    <glyph glyph-name="scircumflex" unicode="&#x15d;" horiz-adv-x="423" 
d="M204 -9q-48 0 -91.5 17t-72.5 50l47 63q28 -27 55.5 -39.5t52.5 -12.5q19 0 34.5 4.5t25 14.5t9.5 27q0 20 -14 31.5t-36 19t-47 14.5q-54 18 -81 50.5t-27 75.5q0 33 17 63.5t52 50.5t88 20q48 0 83.5 -11t66.5 -35l-43 -68q-18 18 -42.5 27.5t-44.5 10.5
q-18 1 -32 -4.5t-23 -15.5t-9 -23q0 -20 14.5 -32t37.5 -19t46 -15q31 -9 54.5 -25t37.5 -38.5t14 -55.5q0 -38 -19 -71.5t-57 -53.5t-96 -20zM285 495l-87 88l30 8l-88 -96h-103l173 176h1l176 -176h-102z" />
    <glyph glyph-name="Scedilla" unicode="&#x15e;" horiz-adv-x="582" 
d="M482 580q-39 20 -83 34.5t-84 14.5q-54 0 -85.5 -24t-31.5 -66q0 -30 21.5 -52.5t56 -39t72.5 -31.5q33 -12 65.5 -28.5t58.5 -40.5t41 -59.5t15 -87.5q0 -57 -28.5 -104.5t-82.5 -75.5t-131 -28q-46 0 -89.5 10t-82.5 27.5t-72 39.5l52 91q24 -18 55 -33t64 -24t62 -9
q31 0 61.5 10.5t51 33.5t20.5 61q0 31 -17.5 53t-46.5 38.5t-63 29.5t-69 29t-65.5 39.5t-49.5 57.5t-19 84q0 60 28 104t77.5 70t114.5 28q77 0 131.5 -18.5t96.5 -44.5zM208 -155q11 -11 27.5 -18.5t36.5 -7.5q23 0 43 10.5t20 30.5q0 15 -12.5 28t-47.5 13q-16 0 -33 -4
t-30 -8l-18 53l69 60l86 -3l-74 -84l-23 27q11 4 24.5 6t26.5 3q54 1 90 -21.5t36 -67.5q0 -35 -21 -58t-53.5 -34t-70.5 -11q-40 0 -67 12t-44 29z" />
    <glyph glyph-name="scedilla" unicode="&#x15f;" horiz-adv-x="423" 
d="M204 -9q-48 0 -91.5 17t-72.5 50l47 63q28 -27 55.5 -39.5t52.5 -12.5q19 0 34.5 4.5t25 14.5t9.5 27q0 20 -14 31.5t-36 19t-47 14.5q-54 18 -81 50.5t-27 75.5q0 33 17 63.5t52 50.5t88 20q48 0 83.5 -11t66.5 -35l-43 -68q-18 18 -42.5 27.5t-44.5 10.5
q-18 1 -32 -4.5t-23 -15.5t-9 -23q0 -20 14.5 -32t37.5 -19t46 -15q31 -9 54.5 -25t37.5 -38.5t14 -55.5q0 -38 -19 -71.5t-57 -53.5t-96 -20zM128 -154q11 -11 27.5 -18.5t36.5 -7.5q23 0 43 10.5t20 30.5q0 15 -12.5 28t-47.5 13q-16 0 -33 -4t-30 -8l-18 53l69 60l86 -3
l-74 -84l-23 27q11 4 24.5 6t26.5 3q54 1 90 -21.5t36 -67.5q0 -35 -21 -58t-53.5 -34t-70.5 -11q-40 0 -67 12t-44 29z" />
    <glyph glyph-name="Scaron" unicode="&#x160;" horiz-adv-x="582" 
d="M482 580q-39 20 -83 34.5t-84 14.5q-54 0 -85.5 -24t-31.5 -66q0 -30 21.5 -52.5t56 -39t72.5 -31.5q33 -12 65.5 -28.5t58.5 -40.5t41 -59.5t15 -87.5q0 -57 -28.5 -104.5t-82.5 -75.5t-131 -28q-46 0 -89.5 10t-82.5 27.5t-72 39.5l52 91q24 -18 55 -33t64 -24t62 -9
q31 0 61.5 10.5t51 33.5t20.5 61q0 31 -17.5 53t-46.5 38.5t-63 29.5t-69 29t-65.5 39.5t-49.5 57.5t-19 84q0 60 28 104t77.5 70t114.5 28q77 0 131.5 -18.5t96.5 -44.5zM214 931l88 -88l-31 -8l89 96h102l-173 -176h-1l-176 176h102z" />
    <glyph glyph-name="scaron" unicode="&#x161;" horiz-adv-x="423" 
d="M204 -9q-48 0 -91.5 17t-72.5 50l47 63q28 -27 55.5 -39.5t52.5 -12.5q19 0 34.5 4.5t25 14.5t9.5 27q0 20 -14 31.5t-36 19t-47 14.5q-54 18 -81 50.5t-27 75.5q0 33 17 63.5t52 50.5t88 20q48 0 83.5 -11t66.5 -35l-43 -68q-18 18 -42.5 27.5t-44.5 10.5
q-18 1 -32 -4.5t-23 -15.5t-9 -23q0 -20 14.5 -32t37.5 -19t46 -15q31 -9 54.5 -25t37.5 -38.5t14 -55.5q0 -38 -19 -71.5t-57 -53.5t-96 -20zM149 659l88 -88l-31 -8l89 96h102l-173 -176h-1l-176 176h102z" />
    <glyph glyph-name="uni0162" unicode="&#x162;" horiz-adv-x="583" 
d="M48 728h487v-112h-188v-616h-116v616h-183v112zM211 -147q11 -11 27.5 -18.5t36.5 -7.5q23 0 43 10.5t20 30.5q0 15 -12.5 28t-47.5 13q-16 0 -33 -4t-30 -8l-18 53l69 60l86 -3l-74 -84l-23 27q11 4 24.5 6t26.5 3q54 1 90 -21.5t36 -67.5q0 -35 -21 -58t-53.5 -34
t-70.5 -11q-40 0 -67 12t-44 29z" />
    <glyph glyph-name="uni0163" unicode="&#x163;" horiz-adv-x="373" 
d="M118 609h112v-186h110v-88h-110v-335h-112v335h-73v88h73v186zM88 -146q11 -11 27.5 -18.5t36.5 -7.5q23 0 43 10.5t20 30.5q0 15 -12.5 28t-47.5 13q-16 0 -33 -4t-30 -8l-18 53l69 60l86 -3l-74 -84l-23 27q11 4 24.5 6t26.5 3q54 1 90 -21.5t36 -67.5q0 -35 -21 -58
t-53.5 -34t-70.5 -11q-40 0 -67 12t-44 29z" />
    <glyph glyph-name="Tcaron" unicode="&#x164;" horiz-adv-x="583" 
d="M48 728h487v-112h-188v-616h-116v616h-183v112zM217 926l88 -88l-31 -8l89 96h102l-173 -176h-1l-176 176h102z" />
    <glyph glyph-name="tcaron" unicode="&#x165;" horiz-adv-x="373" 
d="M118 609h112v-186h110v-88h-110v-335h-112v335h-73v88h73v186zM322 494l-57 39q23 21 33 60t4 75l98 -1q5 -27 -3 -60.5t-26.5 -63.5t-48.5 -49z" />
    <glyph glyph-name="Tbar" unicode="&#x166;" horiz-adv-x="583" 
d="M48 728h487v-112h-188v-616h-116v616h-183v112zM142 413h292v-104h-292v104z" />
    <glyph glyph-name="tbar" unicode="&#x167;" horiz-adv-x="373" 
d="M118 609h112v-186h110v-88h-110v-335h-112v335h-73v88h73v186zM30 242h292v-104h-292v104z" />
    <glyph glyph-name="Utilde" unicode="&#x168;" horiz-adv-x="741" 
d="M205 262q0 -43 22.5 -79t59.5 -57t83 -21q48 0 86 21t60 57t22 79v466h115v-469q0 -79 -38 -139.5t-102 -94t-143 -33.5v0q-78 0 -142 33.5t-101.5 94t-37.5 139.5v469h116v-466zM448 810q-33 0 -54.5 14.5t-39.5 30.5q-12 10 -23 18.5t-25 8.5q-13 0 -21.5 -9.5
t-12.5 -25.5t-3 -37l-58 1q-4 39 7.5 71.5t35.5 52t58 19.5q26 0 45 -14t36 -28q14 -13 26.5 -23t26.5 -10q19 0 25.5 21.5t6.5 53.5l58 -1q5 -42 -5.5 -74.5t-32.5 -50.5t-50 -18z" />
    <glyph glyph-name="utilde" unicode="&#x169;" horiz-adv-x="561" 
d="M213 -18q-58 0 -96 35.5t-40 91.5v314h112v-274q2 -31 18 -51t51 -20q33 0 58.5 20.5t40.5 56.5t15 81v187h112v-423h-101l-9 93l3 -14q-13 -28 -37 -50t-56.5 -34.5t-70.5 -12.5zM360 478q-33 0 -54.5 14.5t-39.5 29.5q-12 11 -23 19t-25 8q-13 0 -21.5 -9.5
t-12.5 -25.5t-3 -36h-58q-4 39 7.5 72t35.5 52.5t58 19.5q26 0 45 -14t36 -29q14 -13 26.5 -23t26.5 -10q19 0 25.5 22t6.5 53h58q5 -42 -5.5 -74.5t-32.5 -50.5t-50 -18z" />
    <glyph glyph-name="Umacron" unicode="&#x16a;" horiz-adv-x="741" 
d="M205 262q0 -43 22.5 -79t59.5 -57t83 -21q48 0 86 21t60 57t22 79v466h115v-469q0 -79 -38 -139.5t-102 -94t-143 -33.5v0q-78 0 -142 33.5t-101.5 94t-37.5 139.5v469h116v-466zM243 861h249v-79h-249v79z" />
    <glyph glyph-name="umacron" unicode="&#x16b;" horiz-adv-x="561" 
d="M213 -18q-58 0 -96 35.5t-40 91.5v314h112v-274q2 -31 18 -51t51 -20q33 0 58.5 20.5t40.5 56.5t15 81v187h112v-423h-101l-9 93l3 -14q-13 -28 -37 -50t-56.5 -34.5t-70.5 -12.5zM158 568h249v-79h-249v79z" />
    <glyph glyph-name="Ubreve" unicode="&#x16c;" horiz-adv-x="741" 
d="M205 262q0 -43 22.5 -79t59.5 -57t83 -21q48 0 86 21t60 57t22 79v466h115v-469q0 -79 -38 -139.5t-102 -94t-143 -33.5v0q-78 0 -142 33.5t-101.5 94t-37.5 139.5v469h116v-466zM371 778q-44 0 -76.5 20.5t-52.5 60.5t-29 99h75q5 -30 15 -54t27 -37.5t41 -13.5
q26 0 42 13.5t25 37.5t14 54h76q-9 -60 -29 -100.5t-52 -60t-76 -19.5z" />
    <glyph glyph-name="ubreve" unicode="&#x16d;" horiz-adv-x="561" 
d="M213 -18q-58 0 -96 35.5t-40 91.5v314h112v-274q2 -31 18 -51t51 -20q33 0 58.5 20.5t40.5 56.5t15 81v187h112v-423h-101l-9 93l3 -14q-13 -28 -37 -50t-56.5 -34.5t-70.5 -12.5zM284 484q-44 0 -76.5 20.5t-52.5 60.5t-29 99h75q5 -30 15 -54t27 -37.5t41 -13.5
q26 0 42 13.5t25 37.5t14 54h76q-9 -60 -29 -100.5t-52 -60t-76 -19.5z" />
    <glyph glyph-name="Uring" unicode="&#x16e;" horiz-adv-x="741" 
d="M205 262q0 -43 22.5 -79t59.5 -57t83 -21q48 0 86 21t60 57t22 79v466h115v-469q0 -79 -38 -139.5t-102 -94t-143 -33.5v0q-78 0 -142 33.5t-101.5 94t-37.5 139.5v469h116v-466zM273 870q0 43 28.5 69t72.5 26q43 0 72 -26t29 -69t-29 -69.5t-72 -26.5t-72 26.5
t-29 69.5zM333 868q0 -19 11.5 -31t29.5 -12q19 0 30 12t11 31q0 21 -11 32t-30 11q-18 0 -29.5 -11t-11.5 -32z" />
    <glyph glyph-name="uring" unicode="&#x16f;" horiz-adv-x="561" 
d="M213 -18q-58 0 -96 35.5t-40 91.5v314h112v-274q2 -31 18 -51t51 -20q33 0 58.5 20.5t40.5 56.5t15 81v187h112v-423h-101l-9 93l3 -14q-13 -28 -37 -50t-56.5 -34.5t-70.5 -12.5zM170 567q0 43 28.5 69t72.5 26q43 0 72 -26t29 -69t-29 -69.5t-72 -26.5t-72 26.5
t-29 69.5zM230 565q0 -19 11.5 -31t29.5 -12q19 0 30 12t11 31q0 21 -11 32t-30 11q-18 0 -29.5 -11t-11.5 -32z" />
    <glyph glyph-name="Uhungarumlaut" unicode="&#x170;" horiz-adv-x="741" 
d="M205 262q0 -43 22.5 -79t59.5 -57t83 -21q48 0 86 21t60 57t22 79v466h115v-469q0 -79 -38 -139.5t-102 -94t-143 -33.5v0q-78 0 -142 33.5t-101.5 94t-37.5 139.5v469h116v-466zM427 918l-136 -134h-69l81 134h124zM591 916l-136 -134h-69l81 134h124z" />
    <glyph glyph-name="uhungarumlaut" unicode="&#x171;" horiz-adv-x="561" 
d="M213 -18q-58 0 -96 35.5t-40 91.5v314h112v-274q2 -31 18 -51t51 -20q33 0 58.5 20.5t40.5 56.5t15 81v187h112v-423h-101l-9 93l3 -14q-13 -28 -37 -50t-56.5 -34.5t-70.5 -12.5zM352 637l-136 -134h-69l81 134h124zM516 635l-136 -134h-69l81 134h124z" />
    <glyph glyph-name="Uogonek" unicode="&#x172;" horiz-adv-x="741" 
d="M476 -222q-54 0 -91.5 32.5t-37.5 84.5q0 33 21 65.5t59 49.5l34 46l11 -47q-48 -17 -102 -17q-85 0 -148 34t-98 94t-35 139v469h116v-466q0 -43 22.5 -79t59.5 -57t83 -21q48 0 86 21t60 57t22 79v466h115v-476q0 -57 -19 -98.5t-48.5 -72t-60.5 -54.5
q-36 -29 -60.5 -58t-24.5 -65q0 -26 14.5 -36t31.5 -10q20 0 37.5 12t32.5 36l41 -58q-19 -30 -53.5 -50t-67.5 -20z" />
    <glyph glyph-name="uogonek" unicode="&#x173;" horiz-adv-x="566" 
d="M429 -222q-54 0 -91.5 32.5t-37.5 84.5q0 34 23 66t63 49l61 9l40 -19q-43 -20 -69 -42t-26 -54q0 -26 14.5 -36t32.5 -10q20 0 37.5 12t31.5 36l42 -58q-19 -30 -54 -50t-67 -20zM213 -18q-58 0 -96 35.5t-40 91.5v314h112v-274q2 -31 18 -51t51 -20q33 0 58.5 20.5
t40.5 56.5t15 81v187h112v-423h-101l-9 93l3 -14q-13 -28 -37 -50t-56.5 -34.5t-70.5 -12.5z" />
    <glyph glyph-name="Wcircumflex" unicode="&#x174;" horiz-adv-x="1014" 
d="M37 724h136l180 -516l-19 8l140 359l54 -159l-200 -450zM393 724h116l200 -505l-23 4l166 501h125l-284 -756zM574 782l-87 88l30 8l-88 -96h-103l173 176h1l176 -176h-102z" />
    <glyph glyph-name="wcircumflex" unicode="&#x175;" horiz-adv-x="678" 
d="M361 423l112 -257l-21 -2l101 259h110l-193 -448l-136 286l-124 -286l-195 448h110l119 -272l-38 6l88 203l-29 63h96zM411 487l-87 88l30 8l-88 -96h-103l173 176h1l176 -176h-102z" />
    <glyph glyph-name="Ycircumflex" unicode="&#x176;" horiz-adv-x="704" 
d="M292 236l-269 492h143l205 -392l-35 -2l202 394h143l-273 -492v-236h-116v236zM434 788l-87 88l30 8l-88 -96h-103l173 176h1l176 -176h-102z" />
    <glyph glyph-name="ycircumflex" unicode="&#x177;" horiz-adv-x="510" 
d="M112 -203l281 626h102l-273 -626h-110zM221 -3l-206 426h126l166 -369zM335 487l-87 88l30 8l-88 -96h-103l173 176h1l176 -176h-102z" />
    <glyph glyph-name="Ydieresis" unicode="&#x178;" horiz-adv-x="704" 
d="M292 236l-269 492h143l205 -392l-35 -2l202 394h143l-273 -492v-236h-116v236zM206 837q0 26 19 43.5t41 17.5t41 -17.5t19 -43.5q0 -27 -19 -44t-41 -17t-41 17t-19 44v0zM398 837q0 26 19 43.5t42 17.5q21 0 40 -17.5t19 -43.5q0 -27 -19 -44t-40 -17q-23 0 -42 17
t-19 44v0z" />
    <glyph glyph-name="Zacute" unicode="&#x179;" horiz-adv-x="716" 
d="M48 0q7 10 27.5 40.5t50 75.5t64 99t71.5 110.5t72 110t64.5 98t49.5 75t27 39.5l14 -32h-306q-20 0 -40.5 8t-34 23t-13.5 35v83h108v-14q0 -19 7 -21t24 -2h424l-418 -630l-7 14h431v-112h-615zM525 893l-136 -134h-69l81 134h124z" />
    <glyph glyph-name="zacute" unicode="&#x17a;" horiz-adv-x="487" 
d="M128 332q-33 0 -57 22t-24 62v48h84v-14q0 -18 8 -22.5t26 -4.5h270l-246 -355l-21 24h264v-92h-407l251 364l18 -32h-166zM372 616l-136 -134h-69l81 134h124z" />
    <glyph glyph-name="Zdotaccent" unicode="&#x17b;" horiz-adv-x="716" 
d="M48 0q7 10 27.5 40.5t50 75.5t64 99t71.5 110.5t72 110t64.5 98t49.5 75t27 39.5l14 -32h-306q-20 0 -40.5 8t-34 23t-13.5 35v83h108v-14q0 -19 7 -21t24 -2h424l-418 -630l-7 14h431v-112h-615zM295 820q0 26 20.5 43t44.5 17t43 -17t19 -43t-19 -42.5t-43 -16.5
t-44.5 17t-20.5 42z" />
    <glyph glyph-name="zdotaccent" unicode="&#x17c;" horiz-adv-x="487" 
d="M128 332q-33 0 -57 22t-24 62v48h84v-14q0 -18 8 -22.5t26 -4.5h270l-246 -355l-21 24h264v-92h-407l251 364l18 -32h-166zM182 575q0 26 20.5 43t44.5 17t43 -17t19 -43t-19 -42.5t-43 -16.5t-44.5 17t-20.5 42z" />
    <glyph glyph-name="Zcaron" unicode="&#x17d;" horiz-adv-x="716" 
d="M48 0q7 10 27.5 40.5t50 75.5t64 99t71.5 110.5t72 110t64.5 98t49.5 75t27 39.5l14 -32h-306q-20 0 -40.5 8t-34 23t-13.5 35v83h108v-14q0 -19 7 -21t24 -2h424l-418 -630l-7 14h431v-112h-615zM283 926l88 -88l-31 -8l89 96h102l-173 -176h-1l-176 176h102z" />
    <glyph glyph-name="zcaron" unicode="&#x17e;" horiz-adv-x="487" 
d="M128 332q-33 0 -57 22t-24 62v48h84v-14q0 -18 8 -22.5t26 -4.5h270l-246 -355l-21 24h264v-92h-407l251 364l18 -32h-166zM181 651l88 -88l-31 -8l89 96h102l-173 -176h-1l-176 176h102z" />
    <glyph glyph-name="uni018F" unicode="&#x18f;" horiz-adv-x="791" 
d="M376 735q82 0 148.5 -27t113.5 -75.5t72.5 -114t25.5 -141.5q0 -81 -28.5 -150t-79 -120t-115.5 -80t-140 -29q-86 0 -153 37t-111.5 106t-63.5 165l584 201l25 -86l-509 -181l36 36q22 -75 72.5 -124.5t128.5 -49.5q46 0 88 20.5t74 57t50.5 85.5t18.5 105t-19.5 102
t-53.5 79.5t-77 52t-90 18.5q-35 0 -73 -11.5t-71 -31t-54 -44.5l-58 94q29 29 74 53t94 38.5t91 14.5z" />
    <glyph glyph-name="florin" unicode="&#x192;" horiz-adv-x="347" 
d="M97 516q0 88 33.5 146t93 87t136.5 31v-111q-52 -3 -84.5 -22t-47.5 -53t-15 -81v-89h132v-107h-132v-218q0 -89 -29 -146.5t-87 -86.5t-147 -32v111q52 3 84.5 22.5t47.5 53t15 81.5v215h-72v107h72v92z" />
    <glyph glyph-name="uni019D" unicode="&#x19d;" horiz-adv-x="824" 
d="M720 -26l-558 543l34 -15l2 -502h-117v753h5l550 -542l-26 8l-3 509h117v-728zM198 37v-39q0 -68 -26 -119t-81 -83l-71 69q29 24 45 58t16 81v137z" />
    <glyph glyph-name="Ohorn" unicode="&#x1a0;" horiz-adv-x="855" 
d="M55 363q0 76 29 143t80 119t118.5 81.5t144.5 29.5q76 0 143.5 -29.5t119 -81.5t81 -119t29.5 -143q0 -77 -29.5 -144.5t-81 -118.5t-119 -79.5t-143.5 -28.5q-78 0 -145 28.5t-118 79t-80 118t-29 145.5zM175 363q0 -54 19.5 -101t54.5 -82.5t81 -55.5t100 -20
q52 0 97.5 20t79.5 55.5t53.5 82.5t19.5 101q0 55 -20 102t-54 83t-80 56t-99 20t-99 -20t-80.5 -56t-53.5 -83.5t-19 -101.5zM499 729q39 0 54.5 17.5t22.5 66.5h83q-9 -64 -29.5 -97t-53.5 -44t-77 -11v68z" />
    <glyph glyph-name="ohorn" unicode="&#x1a1;" horiz-adv-x="555" 
d="M42 216q0 64 30.5 115.5t84.5 81t123 29.5q71 0 123.5 -29.5t81 -81t28.5 -115.5t-28.5 -115.5t-81.5 -81.5t-124 -30q-69 0 -122.5 27.5t-84 78.5t-30.5 121zM155 215q0 -37 16 -67.5t44 -48.5t62 -18q37 0 64.5 18t43 48.5t15.5 67.5q0 38 -15.5 68.5t-43 48.5
t-64.5 18q-35 0 -62.5 -18.5t-43.5 -48.5t-16 -68zM361 423q39 0 60.5 21.5t28.5 68.5h83q-8 -62 -32 -96.5t-60 -47.5t-80 -13v67z" />
    <glyph glyph-name="Uhorn" unicode="&#x1af;" horiz-adv-x="766" 
d="M205 262q0 -43 22.5 -79t59.5 -57t83 -21q48 0 86 21t60 57t22 79v466h115v-469q0 -79 -38 -139.5t-102 -94t-143 -33.5v0q-78 0 -142 33.5t-101.5 94t-37.5 139.5v469h116v-466zM633 674q39 0 54.5 17.5t22.5 66.5h83q-9 -64 -29.5 -97t-53.5 -44t-77 -11v68z" />
    <glyph glyph-name="uhorn" unicode="&#x1b0;" horiz-adv-x="569" 
d="M213 -18q-58 0 -96 35.5t-40 91.5v314h112v-274q2 -31 18 -51t51 -20q33 0 58.5 20.5t40.5 56.5t15 81v187h112v-423h-101l-9 93l3 -14q-13 -28 -37 -50t-56.5 -34.5t-70.5 -12.5zM421 423q39 0 60.5 21.5t28.5 68.5h83q-8 -62 -32 -96.5t-60 -47.5t-80 -13v67z" />
    <glyph glyph-name="uni01C4" unicode="&#x1c4;" horiz-adv-x="1410" 
d="M100 0v728h207q108 0 184.5 -33t123.5 -87t68.5 -120.5t21.5 -133.5q0 -82 -29 -147t-79.5 -111.5t-116 -71t-138.5 -24.5h-242zM217 112h104q58 0 106 16.5t83.5 48t55 78.5t19.5 107q0 68 -22.5 116.5t-59 79t-79.5 45t-85 14.5h-122v-505zM742 0q7 10 27.5 40.5
t50 75.5t64 99t71.5 110.5t72 110t64.5 98t49.5 75t27 39.5l14 -32h-306q-20 0 -40.5 8t-34 23t-13.5 35v83h108v-14q0 -19 7 -21t24 -2h424l-418 -630l-7 14h431v-112h-615zM977 926l88 -88l-31 -8l89 96h102l-173 -176h-1l-176 176h102z" />
    <glyph glyph-name="uni01C5" unicode="&#x1c5;" horiz-adv-x="1247" 
d="M100 0v728h207q108 0 184.5 -33t123.5 -87t68.5 -120.5t21.5 -133.5q0 -82 -29 -147t-79.5 -111.5t-116 -71t-138.5 -24.5h-242zM217 112h104q58 0 106 16.5t83.5 48t55 78.5t19.5 107q0 68 -22.5 116.5t-59 79t-79.5 45t-85 14.5h-122v-505zM888 332q-33 0 -57 22
t-24 62v48h84v-14q0 -18 8 -22.5t26 -4.5h270l-246 -355l-21 24h264v-92h-407l251 364l18 -32h-166zM941 651l88 -88l-31 -8l89 96h102l-173 -176h-1l-176 176h102z" />
    <glyph glyph-name="uni01C6" unicode="&#x1c6;" horiz-adv-x="1092" 
d="M250 -11q-59 0 -106.5 28t-74.5 80t-27 121q0 71 29 121t79.5 76.5t113.5 26.5q46 0 88 -17.5t67 -50.5l-2 -38v444h111v-780h-112v96l11 -28q-32 -34 -76 -56.5t-101 -22.5zM285 84q34 0 59.5 11t44 31.5t27.5 48.5v90q-8 26 -26.5 46t-45.5 31.5t-59 11.5
q-35 0 -64.5 -17.5t-47.5 -47.5t-18 -69q0 -38 18 -69t48 -49t64 -18zM733 332q-33 0 -57 22t-24 62v48h84v-14q0 -18 8 -22.5t26 -4.5h270l-246 -355l-21 24h264v-92h-407l251 364l18 -32h-166zM786 651l88 -88l-31 -8l89 96h102l-173 -176h-1l-176 176h102z" />
    <glyph glyph-name="uni01C7" unicode="&#x1c7;" horiz-adv-x="1009" 
d="M100 728h117v-616h358v-112h-475v728zM909 141q0 -91 -35.5 -155.5t-97.5 -99t-142 -37.5v0v113q69 4 113.5 46.5t44.5 135.5v584h117v-587z" />
    <glyph glyph-name="uni01C8" unicode="&#x1c8;" horiz-adv-x="903" 
d="M100 728h117v-616h358v-112h-475v728zM722 -204l-65 69q28 24 44.5 58t16.5 81v419h112v-425q0 -73 -25 -122.5t-83 -79.5zM711 575q0 26 20.5 43t44.5 17t43 -17t19 -43t-19 -42.5t-43 -16.5t-44.5 17t-20.5 42z" />
    <glyph glyph-name="uni01C9" unicode="&#x1c9;" horiz-adv-x="540" 
d="M77 780h112v-780h-112v780zM358 -204l-65 69q28 24 44.5 58t16.5 81v419h112v-425q0 -73 -25 -122.5t-83 -79.5zM347 575q0 26 20.5 43t44.5 17t43 -17t19 -43t-19 -42.5t-43 -16.5t-44.5 17t-20.5 42z" />
    <glyph glyph-name="uni01CA" unicode="&#x1ca;" horiz-adv-x="1223" 
d="M740 -26l-559 542l34 -14l3 -502h-118v753h6l550 -542l-27 8l-2 509h116v-754h-3zM1123 141q0 -91 -35.5 -155.5t-97.5 -99t-142 -37.5v0v113q69 4 113.5 46.5t44.5 135.5v584h117v-587z" />
    <glyph glyph-name="uni01CB" unicode="&#x1cb;" horiz-adv-x="1117" 
d="M740 -26l-559 542l34 -14l3 -502h-118v753h6l550 -542l-27 8l-2 509h116v-754h-3zM936 -204l-65 69q28 24 44.5 58t16.5 81v419h112v-425q0 -73 -25 -122.5t-83 -79.5zM925 575q0 26 20.5 43t44.5 17t43 -17t19 -43t-19 -42.5t-43 -16.5t-44.5 17t-20.5 42z" />
    <glyph glyph-name="uni01CC" unicode="&#x1cc;" horiz-adv-x="833" 
d="M178 423l9 -91l-3 12q21 44 65 70.5t104 26.5t99 -35t40 -92v-314h-112v274q-1 32 -18 51.5t-54 20.5q-34 0 -61 -20.5t-42.5 -56t-15.5 -81.5v-188h-112v423h101zM643 -204l-65 69q28 24 44.5 58t16.5 81v419h112v-425q0 -73 -25 -122.5t-83 -79.5zM632 575
q0 26 20.5 43t44.5 17t43 -17t19 -43t-19 -42.5t-43 -16.5t-44.5 17t-20.5 42z" />
    <glyph glyph-name="uni01D3" unicode="&#x1d3;" horiz-adv-x="741" 
d="M205 262q0 -43 22.5 -79t59.5 -57t83 -21q48 0 86 21t60 57t22 79v466h115v-469q0 -79 -38 -139.5t-102 -94t-143 -33.5v0q-78 0 -142 33.5t-101.5 94t-37.5 139.5v469h116v-466zM296 942l88 -88l-31 -8l89 96h102l-173 -176h-1l-176 176h102z" />
    <glyph glyph-name="Gcaron" unicode="&#x1e6;" horiz-adv-x="756" 
d="M679 67q-14 -14 -41.5 -27t-61.5 -24t-70 -17.5t-68 -6.5q-88 0 -158.5 27t-120.5 74.5t-77 112.5t-27 141q0 95 30 167.5t82 122t119.5 74.5t142.5 25q66 0 122.5 -15t96.5 -38l-38 -108q-19 11 -49 21.5t-61 16.5t-56 6q-63 0 -112.5 -17.5t-84.5 -51.5t-53.5 -82.5
t-18.5 -110.5q0 -56 19.5 -102t54.5 -79t84 -50.5t108 -17.5q34 0 66 6t55 19v121h-137v112h254v-299zM333 926l88 -88l-31 -8l89 96h102l-173 -176h-1l-176 176h102z" />
    <glyph glyph-name="gcaron" unicode="&#x1e7;" horiz-adv-x="612" 
d="M287 -211q-51 0 -88 12t-65.5 31.5t-53.5 40.5l66 77q29 -27 61.5 -45t77.5 -18q42 0 72.5 13.5t48 39t17.5 60.5v105l7 -21q-17 -39 -62 -67t-112 -28q-58 0 -107 29.5t-78 80.5t-29 115q0 66 31 117.5t81 81t107 29.5q56 0 99.5 -20t65.5 -50l-6 -16l12 67h103v-425
q0 -59 -31.5 -106.5t-87 -75t-129.5 -27.5zM155 217q0 -38 17.5 -69t48 -49t68.5 -18q33 0 60 11t46 31t28 47v92q-9 27 -28.5 46.5t-46.5 30.5t-59 11q-38 0 -68.5 -17t-48 -47t-17.5 -69zM241 667l88 -88l-31 -8l89 96h102l-173 -176h-1l-176 176h102z" />
    <glyph glyph-name="uni01EA" unicode="&#x1ea;" horiz-adv-x="855" 
d="M427 -8q-78 0 -145 28.5t-118 79t-80 118t-29 145.5q0 76 29 143t80 119t118.5 81.5t144.5 29.5q76 0 143.5 -29.5t119 -81.5t81 -119t29.5 -143q0 -74 -20.5 -130.5t-52 -97.5t-68.5 -71q-29 -25 -58 -44.5t-52.5 -37t-37.5 -35.5t-14 -42q0 -27 14.5 -37t32.5 -10
q20 0 37.5 12t31.5 36l42 -58q-20 -30 -54.5 -50t-66.5 -20q-54 0 -91.5 28.5t-37.5 80.5q0 26 11.5 48.5t32.5 40.5t48 29l102 34q-38 -22 -81.5 -34.5t-90.5 -12.5zM430 105q53 0 98 20t79 55t53.5 82t19.5 101q0 53 -20 100t-54 82.5t-80 55.5t-99 20t-99 -20t-80.5 -56
t-53.5 -83t-19 -99q0 -53 19.5 -100t54.5 -82.5t81.5 -55.5t99.5 -20z" />
    <glyph glyph-name="uni01EB" unicode="&#x1eb;" horiz-adv-x="561" 
d="M349 -222q-32 0 -59.5 13.5t-45 40t-17.5 66.5q0 38 24 70t64 50l37 -2q-11 -10 -31.5 -18.5t-39.5 -8.5q-68 0 -121.5 27.5t-84 78.5t-30.5 121q0 64 30 115t84.5 81t123.5 30q71 0 123.5 -29.5t81 -81t28.5 -115.5q0 -63 -31 -115t-82 -88q-36 -26 -59.5 -48.5
t-23.5 -57.5q0 -24 14.5 -36.5t32.5 -12.5q20 0 37 12t32 36l42 -58q-20 -30 -55.5 -50t-73.5 -20zM280 81q37 0 64.5 18t43 48.5t15.5 67.5q0 38 -15.5 68.5t-43 48.5t-64.5 18q-35 0 -62.5 -18.5t-44 -48.5t-16.5 -68q0 -37 16.5 -67.5t44 -48.5t62.5 -18z" />
    <glyph glyph-name="uni01F3" unicode="&#x1f3;" horiz-adv-x="1092" 
d="M250 -11q-59 0 -106.5 28t-74.5 80t-27 121q0 71 29 121t79.5 76.5t113.5 26.5q46 0 88 -17.5t67 -50.5l-2 -38v444h111v-780h-112v96l11 -28q-32 -34 -76 -56.5t-101 -22.5zM285 84q34 0 59.5 11t44 31.5t27.5 48.5v90q-8 26 -26.5 46t-45.5 31.5t-59 11.5
q-35 0 -64.5 -17.5t-47.5 -47.5t-18 -69q0 -38 18 -69t48 -49t64 -18zM733 332q-33 0 -57 22t-24 62v48h84v-14q0 -18 8 -22.5t26 -4.5h270l-246 -355l-21 24h264v-92h-407l251 364l18 -32h-166z" />
    <glyph glyph-name="Aringacute" unicode="&#x1fa;" horiz-adv-x="699" 
d="M24 0l322 758h7l322 -758h-134l-226 576l83 56l-260 -632h-114zM226 271h249l40 -100h-324zM251 886q0 43 28.5 69t72.5 26q43 0 72 -26t29 -69t-29 -69.5t-72 -26.5t-72 26.5t-29 69.5zM311 884q0 -19 11.5 -31t29.5 -12q19 0 30 12t11 31q0 21 -11 32t-30 11
q-18 0 -29.5 -11t-11.5 -32zM516 1152l-136 -134h-69l81 134h124z" />
    <glyph glyph-name="aringacute" unicode="&#x1fb;" horiz-adv-x="597" 
d="M254 -11q-59 0 -107.5 25t-76.5 74.5t-28 122.5q0 72 29.5 123.5t78 79.5t105.5 28q61 0 98.5 -24.5t58.5 -56.5l-6 -16l11 78h103v-423h-112v103l11 -27q-3 -6 -15.5 -19.5t-33.5 -29.5t-49.5 -27t-66.5 -11zM285 81q31 0 56 11t42 31t25 48v92q-8 26 -26 45.5
t-43.5 30.5t-56.5 11q-35 0 -63.5 -17t-46 -47t-17.5 -69q0 -38 18 -69t48 -49t64 -18zM202 567q0 43 28.5 69t72.5 26q43 0 72 -26t29 -69t-29 -69.5t-72 -26.5t-72 26.5t-29 69.5zM262 565q0 -19 11.5 -31t29.5 -12q19 0 30 12t11 31q0 21 -11 32t-30 11q-18 0 -29.5 -11
t-11.5 -32zM441 855l-136 -134h-69l81 134h124z" />
    <glyph glyph-name="AEacute" unicode="&#x1fc;" horiz-adv-x="957" 
d="M481 728h401v-112h-285v-196h245v-112h-245v-196h299v-112h-415v728zM495 595q-2 -10 -6 -23t-4 -15l-341 -557h-134l471 728zM247 264h249v-92h-284zM828 908l-136 -134h-69l81 134h124z" />
    <glyph glyph-name="aeacute" unicode="&#x1fd;" horiz-adv-x="828" 
d="M208 -11q-57 0 -94 17t-54.5 47.5t-17.5 67.5q0 42 25 71t66 45t86 16q46 0 90 -14t67 -34l-18 -65q-30 21 -53.5 30t-59.5 9q-22 0 -40.5 -5.5t-29 -17.5t-10.5 -32q0 -26 19.5 -41.5t54.5 -15.5q19 0 39.5 6.5t38.5 18t29 25.5v53h45v-102q-20 -27 -49.5 -44.5
t-63.5 -26t-70 -8.5zM337 209v54q0 35 -16.5 54t-37.5 25.5t-37 6.5q-39 0 -70 -19.5t-51 -44.5l-56 71q32 34 79.5 59.5t113.5 25.5q52 0 93.5 -16.5t65.5 -49t24 -82.5v-26zM574 -11q-75 0 -127.5 29t-81 80t-28.5 117q0 63 32 114.5t86.5 82t120.5 30.5q87 0 143.5 -50.5
t75.5 -142.5l-341 -115l-26 63l267 95l-24 -13q-10 30 -35 52.5t-69 22.5q-35 0 -62 -17t-42.5 -46.5t-15.5 -69.5q0 -42 17 -72.5t46 -47t66 -16.5q26 0 50 9t45 24l51 -83q-33 -21 -72.5 -33.5t-75.5 -12.5zM540 616l-136 -134h-69l81 134h124z" />
    <glyph glyph-name="Oslashacute" unicode="&#x1fe;" horiz-adv-x="858" 
d="M760 682l-600 -700l-74 67l602 700zM55 363q0 76 29 143t80 119t118.5 81.5t144.5 29.5q76 0 143.5 -29.5t119 -81.5t81 -119t29.5 -143q0 -77 -29.5 -144.5t-81 -118.5t-119 -79.5t-143.5 -28.5q-78 0 -145 28.5t-118 79t-80 118t-29 145.5zM175 363q0 -54 19.5 -101
t54.5 -82.5t81 -55.5t100 -20q52 0 97.5 20t79.5 55.5t53.5 82.5t19.5 101q0 55 -20 102t-54 83t-80 56t-99 20t-99 -20t-80.5 -56t-53.5 -83.5t-19 -101.5zM593 900l-136 -134h-69l81 134h124z" />
    <glyph glyph-name="oslashacute" unicode="&#x1ff;" horiz-adv-x="531" 
d="M492 413l-387 -442l-54 50l384 439zM42 216q0 64 30.5 115.5t84.5 81t123 29.5q71 0 123.5 -29.5t81 -81t28.5 -115.5t-28.5 -115.5t-81.5 -81.5t-124 -30q-69 0 -122.5 27.5t-84 78.5t-30.5 121zM155 215q0 -37 16 -67.5t44 -48.5t62 -18q37 0 64.5 18t43 48.5
t15.5 67.5q0 38 -15.5 68.5t-43 48.5t-64.5 18q-35 0 -62.5 -18.5t-43.5 -48.5t-16 -68zM392 616l-136 -134h-69l81 134h124z" />
    <glyph glyph-name="uni0200" unicode="&#x200;" horiz-adv-x="699" 
d="M24 0l322 758h7l322 -758h-134l-226 576l83 56l-260 -632h-114zM226 271h249l40 -100h-324zM134 936h124l69 -134h-70zM287 936h124l69 -134h-70z" />
    <glyph glyph-name="uni0201" unicode="&#x201;" horiz-adv-x="597" 
d="M254 -11q-59 0 -107.5 25t-76.5 74.5t-28 122.5q0 72 29.5 123.5t78 79.5t105.5 28q61 0 98.5 -24.5t58.5 -56.5l-6 -16l11 78h103v-423h-112v103l11 -27q-3 -6 -15.5 -19.5t-33.5 -29.5t-49.5 -27t-66.5 -11zM285 81q31 0 56 11t42 31t25 48v92q-8 26 -26 45.5
t-43.5 30.5t-56.5 11q-35 0 -63.5 -17t-46 -47t-17.5 -69q0 -38 18 -69t48 -49t64 -18zM89 637h124l69 -134h-70zM242 637h124l69 -134h-70z" />
    <glyph glyph-name="uni0202" unicode="&#x202;" horiz-adv-x="699" 
d="M24 0l322 758h7l322 -758h-134l-226 576l83 56l-260 -632h-114zM226 271h249l40 -100h-324zM345 949q44 0 76 -20.5t52.5 -61t29.5 -99.5h-76q-4 31 -14 55t-26.5 37t-41.5 13t-41.5 -13t-26 -37t-14.5 -55h-75q8 61 28.5 101t52.5 60t76 20z" />
    <glyph glyph-name="uni0203" unicode="&#x203;" horiz-adv-x="597" 
d="M254 -11q-59 0 -107.5 25t-76.5 74.5t-28 122.5q0 72 29.5 123.5t78 79.5t105.5 28q61 0 98.5 -24.5t58.5 -56.5l-6 -16l11 78h103v-423h-112v103l11 -27q-3 -6 -15.5 -19.5t-33.5 -29.5t-49.5 -27t-66.5 -11zM285 81q31 0 56 11t42 31t25 48v92q-8 26 -26 45.5
t-43.5 30.5t-56.5 11q-35 0 -63.5 -17t-46 -47t-17.5 -69q0 -38 18 -69t48 -49t64 -18zM318 659q44 0 76 -20.5t52.5 -60.5t29.5 -99h-75q-5 31 -15 54.5t-26.5 37t-41.5 13.5t-41.5 -13.5t-26 -37t-13.5 -54.5h-76q9 60 29 100.5t52 60t76 19.5z" />
    <glyph glyph-name="uni0204" unicode="&#x204;" horiz-adv-x="658" 
d="M100 728h483v-112h-366v-194h326v-112h-326v-198h380v-112h-497v728zM124 921h124l69 -134h-70zM277 921h124l69 -134h-70z" />
    <glyph glyph-name="uni0205" unicode="&#x205;" horiz-adv-x="533" 
d="M279 -11q-75 0 -128 29t-81 80t-28 117q0 63 32 114.5t86.5 82t120.5 30.5q87 0 143.5 -50.5t75.5 -142.5l-341 -115l-26 63l267 95l-24 -13q-10 30 -35 52.5t-69 22.5q-35 0 -62 -17t-42.5 -46.5t-15.5 -69.5q0 -42 17 -72.5t46 -47t66 -16.5q26 0 49.5 9t45.5 24
l51 -83q-33 -21 -72.5 -33.5t-75.5 -12.5zM51 637h124l69 -134h-70zM204 637h124l69 -134h-70z" />
    <glyph glyph-name="uni0206" unicode="&#x206;" horiz-adv-x="658" 
d="M100 728h483v-112h-366v-194h326v-112h-326v-198h380v-112h-497v728zM334 933q44 0 76 -20.5t52.5 -61t29.5 -99.5h-76q-4 31 -14 55t-26.5 37t-41.5 13t-41.5 -13t-26 -37t-14.5 -55h-75q8 61 28.5 101t52.5 60t76 20z" />
    <glyph glyph-name="uni0207" unicode="&#x207;" horiz-adv-x="533" 
d="M279 -11q-75 0 -128 29t-81 80t-28 117q0 63 32 114.5t86.5 82t120.5 30.5q87 0 143.5 -50.5t75.5 -142.5l-341 -115l-26 63l267 95l-24 -13q-10 30 -35 52.5t-69 22.5q-35 0 -62 -17t-42.5 -46.5t-15.5 -69.5q0 -42 17 -72.5t46 -47t66 -16.5q26 0 49.5 9t45.5 24
l51 -83q-33 -21 -72.5 -33.5t-75.5 -12.5zM281 660q44 0 76 -20.5t52.5 -60.5t29.5 -99h-75q-5 31 -15 54.5t-26.5 37t-41.5 13.5t-41.5 -13.5t-26 -37t-13.5 -54.5h-76q9 60 29 100.5t52 60t76 19.5z" />
    <glyph glyph-name="uni0208" unicode="&#x208;" horiz-adv-x="317" 
d="M100 728h117v-728h-117v728zM-56 921h124l69 -134h-70zM97 921h124l69 -134h-70z" />
    <glyph glyph-name="uni0209" unicode="&#x209;" horiz-adv-x="266" 
d="M77 423h112v-423h-112v423zM-91 621h124l69 -134h-70zM62 621h124l69 -134h-70z" />
    <glyph glyph-name="uni020A" unicode="&#x20a;" horiz-adv-x="317" 
d="M100 728h117v-728h-117v728zM154 933q44 0 76 -20.5t52.5 -61t29.5 -99.5h-76q-4 31 -14 55t-26.5 37t-41.5 13t-41.5 -13t-26 -37t-14.5 -55h-75q8 61 28.5 101t52.5 60t76 20z" />
    <glyph glyph-name="uni020B" unicode="&#x20b;" horiz-adv-x="266" 
d="M77 423h112v-423h-112v423zM139 643q44 0 76 -20.5t52.5 -60.5t29.5 -99h-75q-5 31 -15 54.5t-26.5 37t-41.5 13.5t-41.5 -13.5t-26 -37t-13.5 -54.5h-76q9 60 29 100.5t52 60t76 19.5z" />
    <glyph glyph-name="uni020C" unicode="&#x20c;" horiz-adv-x="855" 
d="M55 363q0 76 29 143t80 119t118.5 81.5t144.5 29.5q76 0 143.5 -29.5t119 -81.5t81 -119t29.5 -143q0 -77 -29.5 -144.5t-81 -118.5t-119 -79.5t-143.5 -28.5q-78 0 -145 28.5t-118 79t-80 118t-29 145.5zM175 363q0 -54 19.5 -101t54.5 -82.5t81 -55.5t100 -20
q52 0 97.5 20t79.5 55.5t53.5 82.5t19.5 101q0 55 -20 102t-54 83t-80 56t-99 20t-99 -20t-80.5 -56t-53.5 -83.5t-19 -101.5zM212 913h124l69 -134h-70zM365 913h124l69 -134h-70z" />
    <glyph glyph-name="uni020D" unicode="&#x20d;" horiz-adv-x="555" 
d="M42 216q0 64 30.5 115.5t84.5 81t123 29.5q71 0 123.5 -29.5t81 -81t28.5 -115.5t-28.5 -115.5t-81.5 -81.5t-124 -30q-69 0 -122.5 27.5t-84 78.5t-30.5 121zM155 215q0 -37 16 -67.5t44 -48.5t62 -18q37 0 64.5 18t43 48.5t15.5 67.5q0 38 -15.5 68.5t-43 48.5
t-64.5 18q-35 0 -62.5 -18.5t-43.5 -48.5t-16 -68zM52 637h124l69 -134h-70zM205 637h124l69 -134h-70z" />
    <glyph glyph-name="uni020E" unicode="&#x20e;" horiz-adv-x="855" 
d="M55 363q0 76 29 143t80 119t118.5 81.5t144.5 29.5q76 0 143.5 -29.5t119 -81.5t81 -119t29.5 -143q0 -77 -29.5 -144.5t-81 -118.5t-119 -79.5t-143.5 -28.5q-78 0 -145 28.5t-118 79t-80 118t-29 145.5zM175 363q0 -54 19.5 -101t54.5 -82.5t81 -55.5t100 -20
q52 0 97.5 20t79.5 55.5t53.5 82.5t19.5 101q0 55 -20 102t-54 83t-80 56t-99 20t-99 -20t-80.5 -56t-53.5 -83.5t-19 -101.5zM423 925q44 0 76 -20.5t52.5 -61t29.5 -99.5h-76q-4 31 -14 55t-26.5 37t-41.5 13t-41.5 -13t-26 -37t-14.5 -55h-75q8 61 28.5 101t52.5 60
t76 20z" />
    <glyph glyph-name="uni020F" unicode="&#x20f;" horiz-adv-x="555" 
d="M42 216q0 64 30.5 115.5t84.5 81t123 29.5q71 0 123.5 -29.5t81 -81t28.5 -115.5t-28.5 -115.5t-81.5 -81.5t-124 -30q-69 0 -122.5 27.5t-84 78.5t-30.5 121zM155 215q0 -37 16 -67.5t44 -48.5t62 -18q37 0 64.5 18t43 48.5t15.5 67.5q0 38 -15.5 68.5t-43 48.5
t-64.5 18q-35 0 -62.5 -18.5t-43.5 -48.5t-16 -68zM282 659q44 0 76 -20.5t52.5 -60.5t29.5 -99h-75q-5 31 -15 54.5t-26.5 37t-41.5 13.5t-41.5 -13.5t-26 -37t-13.5 -54.5h-76q9 60 29 100.5t52 60t76 19.5z" />
    <glyph glyph-name="uni0210" unicode="&#x210;" horiz-adv-x="670" 
d="M305 728q60 0 110 -15.5t85 -45.5t54.5 -73.5t19.5 -99.5q0 -43 -13 -86t-42.5 -77.5t-77.5 -56t-119 -21.5h-105v-253h-117v728h205zM321 365q39 0 65 12.5t40.5 31.5t21 40.5t6.5 40.5q0 18 -6 39.5t-20.5 41t-39.5 32.5t-63 13h-108v-251h104zM447 296l186 -296h-135
l-190 293zM93 921h124l69 -134h-70zM246 921h124l69 -134h-70z" />
    <glyph glyph-name="uni0211" unicode="&#x211;" horiz-adv-x="390" 
d="M178 423l10 -120l-4 17q17 38 48.5 65t65 42t54.5 15l-5 -112q-48 4 -83.5 -17t-55.5 -56.5t-20 -74.5v-182h-111v423h101zM-40 621h124l69 -134h-70zM113 621h124l69 -134h-70z" />
    <glyph glyph-name="uni0212" unicode="&#x212;" horiz-adv-x="670" 
d="M305 728q60 0 110 -15.5t85 -45.5t54.5 -73.5t19.5 -99.5q0 -43 -13 -86t-42.5 -77.5t-77.5 -56t-119 -21.5h-105v-253h-117v728h205zM321 365q39 0 65 12.5t40.5 31.5t21 40.5t6.5 40.5q0 18 -6 39.5t-20.5 41t-39.5 32.5t-63 13h-108v-251h104zM447 296l186 -296h-135
l-190 293zM303 933q44 0 76 -20.5t52.5 -61t29.5 -99.5h-76q-4 31 -14 55t-26.5 37t-41.5 13t-41.5 -13t-26 -37t-14.5 -55h-75q8 61 28.5 101t52.5 60t76 20z" />
    <glyph glyph-name="uni0213" unicode="&#x213;" horiz-adv-x="390" 
d="M178 423l10 -120l-4 17q17 38 48.5 65t65 42t54.5 15l-5 -112q-48 4 -83.5 -17t-55.5 -56.5t-20 -74.5v-182h-111v423h101zM190 643q44 0 76 -20.5t52.5 -60.5t29.5 -99h-75q-5 31 -15 54.5t-26.5 37t-41.5 13.5t-41.5 -13.5t-26 -37t-13.5 -54.5h-76q9 60 29 100.5
t52 60t76 19.5z" />
    <glyph glyph-name="uni0214" unicode="&#x214;" horiz-adv-x="741" 
d="M205 262q0 -43 22.5 -79t59.5 -57t83 -21q48 0 86 21t60 57t22 79v466h115v-469q0 -79 -38 -139.5t-102 -94t-143 -33.5v0q-78 0 -142 33.5t-101.5 94t-37.5 139.5v469h116v-466zM156 921h124l69 -134h-70zM309 921h124l69 -134h-70z" />
    <glyph glyph-name="uni0215" unicode="&#x215;" horiz-adv-x="561" 
d="M213 -18q-58 0 -96 35.5t-40 91.5v314h112v-274q2 -31 18 -51t51 -20q33 0 58.5 20.5t40.5 56.5t15 81v187h112v-423h-101l-9 93l3 -14q-13 -28 -37 -50t-56.5 -34.5t-70.5 -12.5zM57 637h124l69 -134h-70zM210 637h124l69 -134h-70z" />
    <glyph glyph-name="uni0216" unicode="&#x216;" horiz-adv-x="741" 
d="M205 262q0 -43 22.5 -79t59.5 -57t83 -21q48 0 86 21t60 57t22 79v466h115v-469q0 -79 -38 -139.5t-102 -94t-143 -33.5v0q-78 0 -142 33.5t-101.5 94t-37.5 139.5v469h116v-466zM366 933q44 0 76 -20.5t52.5 -61t29.5 -99.5h-76q-4 31 -14 55t-26.5 37t-41.5 13
t-41.5 -13t-26 -37t-14.5 -55h-75q8 61 28.5 101t52.5 60t76 20z" />
    <glyph glyph-name="uni0217" unicode="&#x217;" horiz-adv-x="561" 
d="M213 -18q-58 0 -96 35.5t-40 91.5v314h112v-274q2 -31 18 -51t51 -20q33 0 58.5 20.5t40.5 56.5t15 81v187h112v-423h-101l-9 93l3 -14q-13 -28 -37 -50t-56.5 -34.5t-70.5 -12.5zM286 659q44 0 76 -20.5t52.5 -60.5t29.5 -99h-75q-5 31 -15 54.5t-26.5 37t-41.5 13.5
t-41.5 -13.5t-26 -37t-13.5 -54.5h-76q9 60 29 100.5t52 60t76 19.5z" />
    <glyph glyph-name="uni0218" unicode="&#x218;" horiz-adv-x="582" 
d="M482 580q-39 20 -83 34.5t-84 14.5q-54 0 -85.5 -24t-31.5 -66q0 -30 21.5 -52.5t56 -39t72.5 -31.5q33 -12 65.5 -28.5t58.5 -40.5t41 -59.5t15 -87.5q0 -57 -28.5 -104.5t-82.5 -75.5t-131 -28q-46 0 -89.5 10t-82.5 27.5t-72 39.5l52 91q24 -18 55 -33t64 -24t62 -9
q31 0 61.5 10.5t51 33.5t20.5 61q0 31 -17.5 53t-46.5 38.5t-63 29.5t-69 29t-65.5 39.5t-49.5 57.5t-19 84q0 60 28 104t77.5 70t114.5 28q77 0 131.5 -18.5t96.5 -44.5zM259 -230l-57 39q23 21 33 60t4 75l98 -1q5 -27 -3 -60.5t-26.5 -63.5t-48.5 -49z" />
    <glyph glyph-name="uni0219" unicode="&#x219;" horiz-adv-x="423" 
d="M204 -9q-48 0 -91.5 17t-72.5 50l47 63q28 -27 55.5 -39.5t52.5 -12.5q19 0 34.5 4.5t25 14.5t9.5 27q0 20 -14 31.5t-36 19t-47 14.5q-54 18 -81 50.5t-27 75.5q0 33 17 63.5t52 50.5t88 20q48 0 83.5 -11t66.5 -35l-43 -68q-18 18 -42.5 27.5t-44.5 10.5
q-18 1 -32 -4.5t-23 -15.5t-9 -23q0 -20 14.5 -32t37.5 -19t46 -15q31 -9 54.5 -25t37.5 -38.5t14 -55.5q0 -38 -19 -71.5t-57 -53.5t-96 -20zM179 -215l-57 39q23 21 33 60t4 75l98 -1q5 -27 -3 -60.5t-26.5 -63.5t-48.5 -49z" />
    <glyph glyph-name="uni021A" unicode="&#x21a;" horiz-adv-x="583" 
d="M48 728h487v-112h-188v-616h-116v616h-183v112zM262 -222l-57 39q23 21 33 60t4 75l98 -1q5 -27 -3 -60.5t-26.5 -63.5t-48.5 -49z" />
    <glyph glyph-name="uni021B" unicode="&#x21b;" horiz-adv-x="373" 
d="M118 609h112v-186h110v-88h-110v-335h-112v335h-73v88h73v186zM138 -207l-57 39q23 21 33 60t4 75l98 -1q5 -27 -3 -60.5t-26.5 -63.5t-48.5 -49z" />
    <glyph glyph-name="uni022A" unicode="&#x22a;" horiz-adv-x="855" 
d="M55 363q0 76 29 143t80 119t118.5 81.5t144.5 29.5q76 0 143.5 -29.5t119 -81.5t81 -119t29.5 -143q0 -77 -29.5 -144.5t-81 -118.5t-119 -79.5t-143.5 -28.5q-78 0 -145 28.5t-118 79t-80 118t-29 145.5zM175 363q0 -54 19.5 -101t54.5 -82.5t81 -55.5t100 -20
q52 0 97.5 20t79.5 55.5t53.5 82.5t19.5 101q0 55 -20 102t-54 83t-80 56t-99 20t-99 -20t-80.5 -56t-53.5 -83.5t-19 -101.5zM266 830q0 26 19 43.5t41 17.5t41 -17.5t19 -43.5q0 -27 -19 -44t-41 -17t-41 17t-19 44v0zM458 830q0 26 19 43.5t42 17.5q21 0 40 -17.5
t19 -43.5q0 -27 -19 -44t-40 -17q-23 0 -42 17t-19 44v0zM300 1009h249v-79h-249v79z" />
    <glyph glyph-name="uni022B" unicode="&#x22b;" horiz-adv-x="555" 
d="M42 216q0 64 30.5 115.5t84.5 81t123 29.5q71 0 123.5 -29.5t81 -81t28.5 -115.5t-28.5 -115.5t-81.5 -81.5t-124 -30q-69 0 -122.5 27.5t-84 78.5t-30.5 121zM155 215q0 -37 16 -67.5t44 -48.5t62 -18q37 0 64.5 18t43 48.5t15.5 67.5q0 38 -15.5 68.5t-43 48.5
t-64.5 18q-35 0 -62.5 -18.5t-43.5 -48.5t-16 -68zM121 549q0 26 19 43.5t41 17.5t41 -17.5t19 -43.5q0 -27 -19 -44t-41 -17t-41 17t-19 44v0zM313 549q0 26 19 43.5t42 17.5q21 0 40 -17.5t19 -43.5q0 -27 -19 -44t-40 -17q-23 0 -42 17t-19 44v0zM154 739h249v-79h-249
v79z" />
    <glyph glyph-name="uni022C" unicode="&#x22c;" horiz-adv-x="855" 
d="M55 363q0 76 29 143t80 119t118.5 81.5t144.5 29.5q76 0 143.5 -29.5t119 -81.5t81 -119t29.5 -143q0 -77 -29.5 -144.5t-81 -118.5t-119 -79.5t-143.5 -28.5q-78 0 -145 28.5t-118 79t-80 118t-29 145.5zM175 363q0 -54 19.5 -101t54.5 -82.5t81 -55.5t100 -20
q52 0 97.5 20t79.5 55.5t53.5 82.5t19.5 101q0 55 -20 102t-54 83t-80 56t-99 20t-99 -20t-80.5 -56t-53.5 -83.5t-19 -101.5zM504 802q-33 0 -54.5 14.5t-39.5 30.5q-12 10 -23 18.5t-25 8.5q-13 0 -21.5 -9.5t-12.5 -25.5t-3 -37l-58 1q-4 39 7.5 71.5t35.5 52t58 19.5
q26 0 45 -14t36 -28q14 -13 26.5 -23t26.5 -10q19 0 25.5 21.5t6.5 53.5l58 -1q5 -42 -5.5 -74.5t-32.5 -50.5t-50 -18zM300 1085h249v-79h-249v79z" />
    <glyph glyph-name="uni022D" unicode="&#x22d;" horiz-adv-x="555" 
d="M42 216q0 64 30.5 115.5t84.5 81t123 29.5q71 0 123.5 -29.5t81 -81t28.5 -115.5t-28.5 -115.5t-81.5 -81.5t-124 -30q-69 0 -122.5 27.5t-84 78.5t-30.5 121zM155 215q0 -37 16 -67.5t44 -48.5t62 -18q37 0 64.5 18t43 48.5t15.5 67.5q0 38 -15.5 68.5t-43 48.5
t-64.5 18q-35 0 -62.5 -18.5t-43.5 -48.5t-16 -68zM356 478q-33 0 -54.5 14.5t-39.5 29.5q-12 11 -23 19t-25 8q-13 0 -21.5 -9.5t-12.5 -25.5t-3 -36h-58q-4 39 7.5 72t35.5 52.5t58 19.5q26 0 45 -14t36 -29q14 -13 26.5 -23t26.5 -10q19 0 25.5 22t6.5 53h58
q5 -42 -5.5 -74.5t-32.5 -50.5t-50 -18zM165 762h249v-79h-249v79z" />
    <glyph glyph-name="uni0230" unicode="&#x230;" horiz-adv-x="855" 
d="M55 363q0 76 29 143t80 119t118.5 81.5t144.5 29.5q76 0 143.5 -29.5t119 -81.5t81 -119t29.5 -143q0 -77 -29.5 -144.5t-81 -118.5t-119 -79.5t-143.5 -28.5q-78 0 -145 28.5t-118 79t-80 118t-29 145.5zM175 363q0 -54 19.5 -101t54.5 -82.5t81 -55.5t100 -20
q52 0 97.5 20t79.5 55.5t53.5 82.5t19.5 101q0 55 -20 102t-54 83t-80 56t-99 20t-99 -20t-80.5 -56t-53.5 -83.5t-19 -101.5zM364 827q0 26 20.5 43t44.5 17t43 -17t19 -43t-19 -42.5t-43 -16.5t-44.5 17t-20.5 42zM300 1005h249v-79h-249v79z" />
    <glyph glyph-name="uni0231" unicode="&#x231;" horiz-adv-x="555" 
d="M42 216q0 64 30.5 115.5t84.5 81t123 29.5q71 0 123.5 -29.5t81 -81t28.5 -115.5t-28.5 -115.5t-81.5 -81.5t-124 -30q-69 0 -122.5 27.5t-84 78.5t-30.5 121zM155 215q0 -37 16 -67.5t44 -48.5t62 -18q37 0 64.5 18t43 48.5t15.5 67.5q0 38 -15.5 68.5t-43 48.5
t-64.5 18q-35 0 -62.5 -18.5t-43.5 -48.5t-16 -68zM215 590q0 26 20.5 43t44.5 17t43 -17t19 -43t-19 -42.5t-43 -16.5t-44.5 17t-20.5 42zM154 780h249v-79h-249v79z" />
    <glyph glyph-name="uni0232" unicode="&#x232;" horiz-adv-x="704" 
d="M292 236l-269 492h143l205 -392l-35 -2l202 394h143l-273 -492v-236h-116v236zM240 859h249v-79h-249v79z" />
    <glyph glyph-name="uni0233" unicode="&#x233;" horiz-adv-x="510" 
d="M112 -203l281 626h102l-273 -626h-110zM221 -3l-206 426h126l166 -369zM139 553h249v-79h-249v79z" />
    <glyph glyph-name="uni0237" unicode="&#x237;" horiz-adv-x="274" 
d="M92 -204l-65 69q28 24 44.5 58t16.5 81v419h112v-425q0 -73 -25 -122.5t-83 -79.5z" />
    <glyph glyph-name="uni0259" unicode="&#x259;" horiz-adv-x="533" 
d="M255 434q74 0 127 -29t81 -80t28 -117q0 -63 -32 -114.5t-86 -82t-121 -30.5q-87 0 -143.5 50.5t-75.5 142.5l341 115l26 -63l-266 -95l23 14q11 -30 35.5 -52.5t68.5 -22.5q36 0 63 16.5t42 46.5t15 69q0 42 -16.5 72.5t-46 47t-66.5 16.5q-26 0 -49.5 -8.5t-45.5 -24.5
l-51 83q34 21 73 33.5t76 12.5z" />
    <glyph glyph-name="uni0272" unicode="&#x272;" horiz-adv-x="569" 
d="M84 -204l-65 69q29 24 45 58t16 81v38h112v-44q0 -69 -29.5 -119.5t-78.5 -82.5zM178 423l9 -91l-3 12q21 44 65 70.5t104 26.5t99 -35t40 -92v-314h-112v274q-1 32 -18 51.5t-54 20.5q-34 0 -61 -20.5t-42.5 -56t-15.5 -81.5v-188h-112v423h101z" />
    <glyph glyph-name="uni02BC" unicode="&#x2bc;" horiz-adv-x="204" 
d="M184 657q-22 -53 -43.5 -105t-43.5 -105h-90q20 53 39 105t39 105h99z" />
    <glyph glyph-name="circumflex" unicode="&#x2c6;" horiz-adv-x="415" 
d="M278 494l-87 88l30 8l-88 -96h-103l173 176h1l176 -176h-102z" />
    <glyph glyph-name="caron" unicode="&#x2c7;" horiz-adv-x="414" 
d="M132 663l88 -88l-31 -8l89 96h102l-173 -176h-1l-176 176h102z" />
    <glyph glyph-name="uni02C9" unicode="&#x2c9;" horiz-adv-x="344" 
d="M37 631h249v-79h-249v79z" />
    <glyph glyph-name="breve" unicode="&#x2d8;" horiz-adv-x="415" 
d="M208 477q-44 0 -76.5 20.5t-52.5 60.5t-29 99h75q5 -30 15 -54t27 -37.5t41 -13.5q26 0 42 13.5t25 37.5t14 54h76q-9 -60 -29 -100.5t-52 -60t-76 -19.5z" />
    <glyph glyph-name="dotaccent" unicode="&#x2d9;" horiz-adv-x="226" 
d="M48 587q0 26 20.5 43t44.5 17t43 -17t19 -43t-19 -42.5t-43 -16.5t-44.5 17t-20.5 42z" />
    <glyph glyph-name="ring" unicode="&#x2da;" horiz-adv-x="319" 
d="M55 545q0 43 28.5 69t72.5 26q43 0 72 -26t29 -69t-29 -69.5t-72 -26.5t-72 26.5t-29 69.5zM115 543q0 -19 11.5 -31t29.5 -12q19 0 30 12t11 31q0 21 -11 32t-30 11q-18 0 -29.5 -11t-11.5 -32z" />
    <glyph glyph-name="ogonek" unicode="&#x2db;" horiz-adv-x="358" 
d="M184 -222q-54 0 -91.5 32.5t-37.5 84.5q0 34 23.5 66t64.5 49l125 -10q-54 -23 -87 -45t-33 -51q0 -26 14.5 -36t31.5 -10q20 0 37.5 12t32.5 36l41 -58q-19 -30 -53.5 -50t-67.5 -20z" />
    <glyph glyph-name="tilde" unicode="&#x2dc;" horiz-adv-x="463" 
d="M320 457q-39 0 -64 17t-46 35q-13 12 -26.5 21.5t-29.5 9.5q-14 0 -24 -11t-14.5 -30t-3.5 -42l-69 1q-3 45 10 83t40.5 61t67.5 23q30 0 52.5 -16t42.5 -34q16 -14 30.5 -25.5t30.5 -11.5q15 0 23 12t11 31.5t2 43.5l69 -1q7 -49 -6 -87t-38.5 -59t-57.5 -21z" />
    <glyph glyph-name="hungarumlaut" unicode="&#x2dd;" horiz-adv-x="456" 
d="M249 621l-136 -134h-69l81 134h124zM413 619l-136 -134h-69l81 134h124z" />
    <glyph glyph-name="gravecomb" unicode="&#x300;" 
d="M20 621h124l69 -134h-70z" />
    <glyph glyph-name="acutecomb" unicode="&#x301;" 
d="M305 621l-136 -134h-69l81 134h124z" />
    <glyph glyph-name="uni0302" unicode="&#x302;" 
d="M278 494l-87 88l30 8l-88 -96h-103l173 176h1l176 -176h-102z" />
    <glyph glyph-name="tildecomb" unicode="&#x303;" 
d="M307 462q-33 0 -54.5 14.5t-39.5 29.5q-12 11 -23 19t-25 8q-13 0 -21.5 -9.5t-12.5 -25.5t-3 -36h-58q-4 39 7.5 72t35.5 52.5t58 19.5q26 0 45 -14t36 -29q14 -13 26.5 -23t26.5 -10q19 0 25.5 22t6.5 53h58q5 -42 -5.5 -74.5t-32.5 -50.5t-50 -18z" />
    <glyph glyph-name="uni0304" unicode="&#x304;" 
d="M37 545h249v-79h-249v79z" />
    <glyph glyph-name="uni0306" unicode="&#x306;" 
d="M208 477q-44 0 -76.5 20.5t-52.5 60.5t-29 99h75q5 -30 15 -54t27 -37.5t41 -13.5q26 0 42 13.5t25 37.5t14 54h76q-9 -60 -29 -100.5t-52 -60t-76 -19.5z" />
    <glyph glyph-name="uni0307" unicode="&#x307;" 
d="M48 587q0 26 20.5 43t44.5 17t43 -17t19 -43t-19 -42.5t-43 -16.5t-44.5 17t-20.5 42z" />
    <glyph glyph-name="uni0308" unicode="&#x308;" 
d="M72 533q0 26 19 43.5t41 17.5t41 -17.5t19 -43.5q0 -27 -19 -44t-41 -17t-41 17t-19 44v0zM264 533q0 26 19 43.5t42 17.5q21 0 40 -17.5t19 -43.5q0 -27 -19 -44t-40 -17q-23 0 -42 17t-19 44v0z" />
    <glyph glyph-name="hookabovecomb" unicode="&#x309;" 
d="M156 596q19 14 30.5 26.5t11.5 30.5q0 15 -7.5 25t-23.5 10q-14 0 -25 -8.5t-18 -21.5l-41 26q17 34 43.5 50t55.5 16q28 0 45.5 -11.5t26 -30.5t8.5 -40q0 -36 -24 -60.5t-56 -44.5z" />
    <glyph glyph-name="uni030A" unicode="&#x30a;" 
d="M76 545q0 43 28.5 69t72.5 26q43 0 72 -26t29 -69t-29 -69.5t-72 -26.5t-72 26.5t-29 69.5zM136 543q0 -19 11.5 -31t29.5 -12q19 0 30 12t11 31q0 21 -11 32t-30 11q-18 0 -29.5 -11t-11.5 -32z" />
    <glyph glyph-name="uni030B" unicode="&#x30b;" 
d="M247 621l-136 -134h-69l81 134h124zM411 619l-136 -134h-69l81 134h124z" />
    <glyph glyph-name="uni030C" unicode="&#x30c;" 
d="M106 663l88 -88l-31 -8l89 96h102l-173 -176h-1l-176 176h102z" />
    <glyph glyph-name="uni030F" unicode="&#x30f;" 
d="M116 621h124l69 -134h-70zM269 621h124l69 -134h-70z" />
    <glyph glyph-name="uni0311" unicode="&#x311;" 
d="M207 680q44 0 76 -20.5t52.5 -60.5t29.5 -99h-75q-5 31 -15 54.5t-26.5 37t-41.5 13.5t-41.5 -13.5t-26 -37t-13.5 -54.5h-76q9 60 29 100.5t52 60t76 19.5z" />
    <glyph glyph-name="uni0312" unicode="&#x312;" 
d="M131 668l58 -39q-23 -21 -33 -59.5t-4 -75.5l-98 1q-5 28 3 61.5t27 63.5t47 48z" />
    <glyph glyph-name="uni031B" unicode="&#x31b;" 
d="M64 728q39 0 60.5 21.5t28.5 68.5h83q-8 -62 -32 -96.5t-60 -47.5t-80 -13v67z" />
    <glyph glyph-name="dotbelowcomb" unicode="&#x323;" 
d="M58 -106q0 22 17.5 36t37.5 14t36.5 -14t16.5 -36t-16.5 -36t-36.5 -14t-37.5 14t-17.5 36z" />
    <glyph glyph-name="uni0324" unicode="&#x324;" 
d="M72 -105q0 26 19 43.5t41 17.5t41 -17.5t19 -43.5q0 -27 -19 -44t-41 -17t-41 17t-19 44v0zM264 -105q0 26 19 43.5t42 17.5q21 0 40 -17.5t19 -43.5q0 -27 -19 -44t-40 -17q-23 0 -42 17t-19 44v0z" />
    <glyph glyph-name="uni0326" unicode="&#x326;" 
d="M109 -207l-57 39q23 21 33 60t4 75l98 -1q5 -27 -3 -60.5t-26.5 -63.5t-48.5 -49z" />
    <glyph glyph-name="uni0327" unicode="&#x327;" 
d="M63 -147q11 -11 27.5 -18.5t36.5 -7.5q23 0 43 10.5t20 30.5q0 15 -12.5 28t-47.5 13q-16 0 -33 -4t-30 -8l-18 53l69 60l86 -3l-74 -84l-23 27q11 4 24.5 6t26.5 3q54 1 90 -21.5t36 -67.5q0 -35 -21 -58t-53.5 -34t-70.5 -11q-40 0 -67 12t-44 29z" />
    <glyph glyph-name="uni0328" unicode="&#x328;" 
d="M201 -222q-54 0 -91.5 32.5t-37.5 84.5q0 34 23.5 66t64.5 49l125 -10q-54 -23 -87 -45t-33 -51q0 -26 14.5 -36t31.5 -10q20 0 37.5 12t32.5 36l41 -58q-19 -30 -53.5 -50t-67.5 -20z" />
    <glyph glyph-name="uni032E" unicode="&#x32e;" 
d="M208 -226q-44 0 -76.5 20.5t-52.5 60.5t-29 99h75q5 -30 15 -54t27 -37.5t41 -13.5q26 0 42 13.5t25 37.5t14 54h76q-9 -60 -29 -100.5t-52 -60t-76 -19.5z" />
    <glyph glyph-name="uni0331" unicode="&#x331;" 
d="M37 -87h249v-79h-249v79z" />
    <glyph glyph-name="uni0335" unicode="&#x335;" 
d="M37 392h292v-104h-292v104z" />
    <glyph glyph-name="uni0394" unicode="&#x394;" horiz-adv-x="736" 
d="M24 0l343 758h5l341 -758h-689zM566 60l-248 561l98 -15l-252 -559l-69 65h531z" />
    <glyph glyph-name="uni03BC" unicode="&#x3bc;" horiz-adv-x="561" 
d="M213 -18q-58 0 -96 35.5t-40 91.5v314h112v-274q2 -31 18 -51t51 -20q33 0 58.5 20.5t40.5 56.5t15 81v187h112v-423h-101l-9 93l3 -14q-13 -28 -37 -50t-56.5 -34.5t-70.5 -12.5zM77 382h101v-618h-101v618z" />
    <glyph glyph-name="pi" unicode="&#x3c0;" horiz-adv-x="407" 
d="M8 357h388v-97h-58v-260h-99v260h-74v-260h-100v260h-57v97z" />
    <glyph glyph-name="Wgrave" unicode="&#x1e80;" horiz-adv-x="1014" 
d="M37 724h136l180 -516l-19 8l140 359l54 -159l-200 -450zM393 724h116l200 -505l-23 4l166 501h125l-284 -756zM342 905h124l69 -134h-70z" />
    <glyph glyph-name="wgrave" unicode="&#x1e81;" horiz-adv-x="678" 
d="M361 423l112 -257l-21 -2l101 259h110l-193 -448l-136 286l-124 -286l-195 448h110l119 -272l-38 6l88 203l-29 63h96zM181 621h124l69 -134h-70z" />
    <glyph glyph-name="Wacute" unicode="&#x1e82;" horiz-adv-x="1014" 
d="M37 724h136l180 -516l-19 8l140 359l54 -159l-200 -450zM393 724h116l200 -505l-23 4l166 501h125l-284 -756zM674 900l-136 -134h-69l81 134h124z" />
    <glyph glyph-name="wacute" unicode="&#x1e83;" horiz-adv-x="678" 
d="M361 423l112 -257l-21 -2l101 259h110l-193 -448l-136 286l-124 -286l-195 448h110l119 -272l-38 6l88 203l-29 63h96zM466 616l-136 -134h-69l81 134h124z" />
    <glyph glyph-name="Wdieresis" unicode="&#x1e84;" horiz-adv-x="1014" 
d="M37 724h136l180 -516l-19 8l140 359l54 -159l-200 -450zM393 724h116l200 -505l-23 4l166 501h125l-284 -756zM346 830q0 26 19 43.5t41 17.5t41 -17.5t19 -43.5q0 -27 -19 -44t-41 -17t-41 17t-19 44v0zM538 830q0 26 19 43.5t42 17.5q21 0 40 -17.5t19 -43.5
q0 -27 -19 -44t-40 -17q-23 0 -42 17t-19 44v0z" />
    <glyph glyph-name="wdieresis" unicode="&#x1e85;" horiz-adv-x="678" 
d="M361 423l112 -257l-21 -2l101 259h110l-193 -448l-136 286l-124 -286l-195 448h110l119 -272l-38 6l88 203l-29 63h96zM182 533q0 26 19 43.5t41 17.5t41 -17.5t19 -43.5q0 -27 -19 -44t-41 -17t-41 17t-19 44v0zM374 533q0 26 19 43.5t42 17.5q21 0 40 -17.5t19 -43.5
q0 -27 -19 -44t-40 -17q-23 0 -42 17t-19 44v0z" />
    <glyph glyph-name="uni1E9E" unicode="&#x1e9e;" horiz-adv-x="839" 
d="M570 -8q-63 0 -123.5 18t-111.5 53l51 91q37 -26 85 -43t89 -17q24 0 49.5 9.5t42.5 30.5t17 56q0 26 -15.5 45t-40.5 34.5t-53 31.5q-37 19 -74.5 45.5t-62.5 64.5t-25 89q0 53 21 92t60.5 62.5t94.5 26.5q26 0 42.5 -6.5t28.5 -17.5l-36 -57q-39 39 -89 57.5t-103 18.5
q-61 0 -106 -28.5t-69.5 -90t-24.5 -157.5v-400h-117v404q0 108 35.5 190.5t103.5 128.5t166 46q55 0 110 -15t99.5 -38t67.5 -49l-31 -86q-7 6 -22 13.5t-37 7.5q-23 0 -41 -11t-27.5 -29t-9.5 -42q0 -30 16.5 -51.5t42.5 -38t53 -33.5q28 -16 57 -33.5t53 -40.5t39 -55
t15 -78q0 -53 -26 -98t-74.5 -72.5t-119.5 -27.5z" />
    <glyph glyph-name="uni1EA0" unicode="&#x1ea0;" horiz-adv-x="699" 
d="M24 0l322 758h7l322 -758h-134l-226 576l83 56l-260 -632h-114zM226 271h249l40 -100h-324zM283 -108q0 26 20.5 43t44.5 17t43 -17t19 -43t-19 -42.5t-43 -16.5t-44.5 17t-20.5 42z" />
    <glyph glyph-name="uni1EA1" unicode="&#x1ea1;" horiz-adv-x="597" 
d="M254 -11q-59 0 -107.5 25t-76.5 74.5t-28 122.5q0 72 29.5 123.5t78 79.5t105.5 28q61 0 98.5 -24.5t58.5 -56.5l-6 -16l11 78h103v-423h-112v103l11 -27q-3 -6 -15.5 -19.5t-33.5 -29.5t-49.5 -27t-66.5 -11zM285 81q31 0 56 11t42 31t25 48v92q-8 26 -26 45.5
t-43.5 30.5t-56.5 11q-35 0 -63.5 -17t-46 -47t-17.5 -69q0 -38 18 -69t48 -49t64 -18zM243 -106q0 22 17.5 36t37.5 14t36.5 -14t16.5 -36t-16.5 -36t-36.5 -14t-37.5 14t-17.5 36z" />
    <glyph glyph-name="uni1EA2" unicode="&#x1ea2;" horiz-adv-x="699" 
d="M24 0l322 758h7l322 -758h-134l-226 576l83 56l-260 -632h-114zM226 271h249l40 -100h-324zM341 832q19 14 30.5 26.5t11.5 30.5q0 15 -7.5 25t-23.5 10q-14 0 -25 -8.5t-18 -21.5l-41 26q17 34 43.5 50t55.5 16q28 0 45.5 -11.5t26 -30.5t8.5 -40q0 -36 -24 -60.5
t-56 -44.5z" />
    <glyph glyph-name="uni1EA3" unicode="&#x1ea3;" horiz-adv-x="597" 
d="M254 -11q-59 0 -107.5 25t-76.5 74.5t-28 122.5q0 72 29.5 123.5t78 79.5t105.5 28q61 0 98.5 -24.5t58.5 -56.5l-6 -16l11 78h103v-423h-112v103l11 -27q-3 -6 -15.5 -19.5t-33.5 -29.5t-49.5 -27t-66.5 -11zM285 81q31 0 56 11t42 31t25 48v92q-8 26 -26 45.5
t-43.5 30.5t-56.5 11q-35 0 -63.5 -17t-46 -47t-17.5 -69q0 -38 18 -69t48 -49t64 -18zM290 518q19 14 30.5 26.5t11.5 30.5q0 15 -7.5 25t-23.5 10q-14 0 -25 -8.5t-18 -21.5l-41 26q17 34 43.5 50t55.5 16q28 0 45.5 -11.5t26 -30.5t8.5 -40q0 -36 -24 -60.5t-56 -44.5z
" />
    <glyph glyph-name="uni1EA4" unicode="&#x1ea4;" horiz-adv-x="699" 
d="M24 0l322 758h7l322 -758h-134l-226 576l83 56l-260 -632h-114zM226 271h249l40 -100h-324zM425 820l-87 88l30 8l-88 -96h-103l173 176h1l176 -176h-102zM643 1056l-136 -134h-69l81 134h124z" />
    <glyph glyph-name="uni1EA5" unicode="&#x1ea5;" horiz-adv-x="597" 
d="M254 -11q-59 0 -107.5 25t-76.5 74.5t-28 122.5q0 72 29.5 123.5t78 79.5t105.5 28q61 0 98.5 -24.5t58.5 -56.5l-6 -16l11 78h103v-423h-112v103l11 -27q-3 -6 -15.5 -19.5t-33.5 -29.5t-49.5 -27t-66.5 -11zM285 81q31 0 56 11t42 31t25 48v92q-8 26 -26 45.5
t-43.5 30.5t-56.5 11q-35 0 -63.5 -17t-46 -47t-17.5 -69q0 -38 18 -69t48 -49t64 -18zM390 500l-87 88l30 8l-88 -96h-103l173 176h1l176 -176h-102zM608 736l-136 -134h-69l81 134h124z" />
    <glyph glyph-name="uni1EA6" unicode="&#x1ea6;" horiz-adv-x="699" 
d="M24 0l322 758h7l322 -758h-134l-226 576l83 56l-260 -632h-114zM226 271h249l40 -100h-324zM418 819l-87 88l30 8l-88 -96h-103l173 176h1l176 -176h-102zM24 1061h124l69 -134h-70z" />
    <glyph glyph-name="uni1EA7" unicode="&#x1ea7;" horiz-adv-x="597" 
d="M254 -11q-59 0 -107.5 25t-76.5 74.5t-28 122.5q0 72 29.5 123.5t78 79.5t105.5 28q61 0 98.5 -24.5t58.5 -56.5l-6 -16l11 78h103v-423h-112v103l11 -27q-3 -6 -15.5 -19.5t-33.5 -29.5t-49.5 -27t-66.5 -11zM285 81q31 0 56 11t42 31t25 48v92q-8 26 -26 45.5
t-43.5 30.5t-56.5 11q-35 0 -63.5 -17t-46 -47t-17.5 -69q0 -38 18 -69t48 -49t64 -18zM383 499l-87 88l30 8l-88 -96h-103l173 176h1l176 -176h-102zM-11 741h124l69 -134h-70z" />
    <glyph glyph-name="uni1EA8" unicode="&#x1ea8;" horiz-adv-x="699" 
d="M24 0l322 758h7l322 -758h-134l-226 576l83 56l-260 -632h-114zM226 271h249l40 -100h-324zM421 820l-87 88l30 8l-88 -96h-103l173 176h1l176 -176h-102zM516 927q19 14 30.5 26.5t11.5 30.5q0 15 -7.5 25t-23.5 10q-14 0 -25 -8.5t-18 -21.5l-41 26q17 34 43.5 50
t55.5 16q28 0 45.5 -11.5t26 -30.5t8.5 -40q0 -36 -24 -60.5t-56 -44.5z" />
    <glyph glyph-name="uni1EA9" unicode="&#x1ea9;" horiz-adv-x="597" 
d="M254 -11q-59 0 -107.5 25t-76.5 74.5t-28 122.5q0 72 29.5 123.5t78 79.5t105.5 28q61 0 98.5 -24.5t58.5 -56.5l-6 -16l11 78h103v-423h-112v103l11 -27q-3 -6 -15.5 -19.5t-33.5 -29.5t-49.5 -27t-66.5 -11zM285 81q31 0 56 11t42 31t25 48v92q-8 26 -26 45.5
t-43.5 30.5t-56.5 11q-35 0 -63.5 -17t-46 -47t-17.5 -69q0 -38 18 -69t48 -49t64 -18zM386 500l-87 88l30 8l-88 -96h-103l173 176h1l176 -176h-102zM481 607q19 14 30.5 26.5t11.5 30.5q0 15 -7.5 25t-23.5 10q-14 0 -25 -8.5t-18 -21.5l-41 26q17 34 43.5 50t55.5 16
q28 0 45.5 -11.5t26 -30.5t8.5 -40q0 -36 -24 -60.5t-56 -44.5z" />
    <glyph glyph-name="uni1EAA" unicode="&#x1eaa;" horiz-adv-x="699" 
d="M24 0l322 758h7l322 -758h-134l-226 576l83 56l-260 -632h-114zM226 271h249l40 -100h-324zM416 815l-87 88l30 8l-88 -96h-103l173 176h1l176 -176h-102zM422 1018q-33 0 -54.5 14.5t-39.5 29.5q-12 11 -23 19t-25 8q-13 0 -21.5 -9.5t-12.5 -25.5t-3 -36h-58
q-4 39 7.5 72t35.5 52.5t58 19.5q26 0 45 -14t36 -29q14 -13 26.5 -23t26.5 -10q19 0 25.5 22t6.5 53h58q5 -42 -5.5 -74.5t-32.5 -50.5t-50 -18z" />
    <glyph glyph-name="uni1EAB" unicode="&#x1eab;" horiz-adv-x="597" 
d="M254 -11q-59 0 -107.5 25t-76.5 74.5t-28 122.5q0 72 29.5 123.5t78 79.5t105.5 28q61 0 98.5 -24.5t58.5 -56.5l-6 -16l11 78h103v-423h-112v103l11 -27q-3 -6 -15.5 -19.5t-33.5 -29.5t-49.5 -27t-66.5 -11zM285 81q31 0 56 11t42 31t25 48v92q-8 26 -26 45.5
t-43.5 30.5t-56.5 11q-35 0 -63.5 -17t-46 -47t-17.5 -69q0 -38 18 -69t48 -49t64 -18zM381 495l-87 88l30 8l-88 -96h-103l173 176h1l176 -176h-102zM387 698q-33 0 -54.5 14.5t-39.5 29.5q-12 11 -23 19t-25 8q-13 0 -21.5 -9.5t-12.5 -25.5t-3 -36h-58q-4 39 7.5 72
t35.5 52.5t58 19.5q26 0 45 -14t36 -29q14 -13 26.5 -23t26.5 -10q19 0 25.5 22t6.5 53h58q5 -42 -5.5 -74.5t-32.5 -50.5t-50 -18z" />
    <glyph glyph-name="uni1EAC" unicode="&#x1eac;" horiz-adv-x="699" 
d="M24 0l322 758h7l322 -758h-134l-226 576l83 56l-260 -632h-114zM226 271h249l40 -100h-324zM283 -108q0 26 20.5 43t44.5 17t43 -17t19 -43t-19 -42.5t-43 -16.5t-44.5 17t-20.5 42zM416 805l-87 88l30 8l-88 -96h-103l173 176h1l176 -176h-102z" />
    <glyph glyph-name="uni1EAD" unicode="&#x1ead;" horiz-adv-x="597" 
d="M254 -11q-59 0 -107.5 25t-76.5 74.5t-28 122.5q0 72 29.5 123.5t78 79.5t105.5 28q61 0 98.5 -24.5t58.5 -56.5l-6 -16l11 78h103v-423h-112v103l11 -27q-3 -6 -15.5 -19.5t-33.5 -29.5t-49.5 -27t-66.5 -11zM285 81q31 0 56 11t42 31t25 48v92q-8 26 -26 45.5
t-43.5 30.5t-56.5 11q-35 0 -63.5 -17t-46 -47t-17.5 -69q0 -38 18 -69t48 -49t64 -18zM243 -106q0 22 17.5 36t37.5 14t36.5 -14t16.5 -36t-16.5 -36t-36.5 -14t-37.5 14t-17.5 36zM386 503l-87 88l30 8l-88 -96h-103l173 176h1l176 -176h-102z" />
    <glyph glyph-name="uni1EAE" unicode="&#x1eae;" horiz-adv-x="699" 
d="M24 0l322 758h7l322 -758h-134l-226 576l83 56l-260 -632h-114zM226 271h249l40 -100h-324zM350 793q-44 0 -76.5 20.5t-52.5 60.5t-29 99h75q5 -30 15 -54t27 -37.5t41 -13.5q26 0 42 13.5t25 37.5t14 54h76q-9 -60 -29 -100.5t-52 -60t-76 -19.5zM515 1144l-136 -134
h-69l81 134h124z" />
    <glyph glyph-name="uni1EAF" unicode="&#x1eaf;" horiz-adv-x="597" 
d="M254 -11q-59 0 -107.5 25t-76.5 74.5t-28 122.5q0 72 29.5 123.5t78 79.5t105.5 28q61 0 98.5 -24.5t58.5 -56.5l-6 -16l11 78h103v-423h-112v103l11 -27q-3 -6 -15.5 -19.5t-33.5 -29.5t-49.5 -27t-66.5 -11zM285 81q31 0 56 11t42 31t25 48v92q-8 26 -26 45.5
t-43.5 30.5t-56.5 11q-35 0 -63.5 -17t-46 -47t-17.5 -69q0 -38 18 -69t48 -49t64 -18zM316 484q-44 0 -76.5 20.5t-52.5 60.5t-29 99h75q5 -30 15 -54t27 -37.5t41 -13.5q26 0 42 13.5t25 37.5t14 54h76q-9 -60 -29 -100.5t-52 -60t-76 -19.5zM429 820l-136 -134h-69
l81 134h124z" />
    <glyph glyph-name="uni1EB0" unicode="&#x1eb0;" horiz-adv-x="699" 
d="M24 0l322 758h7l322 -758h-134l-226 576l83 56l-260 -632h-114zM226 271h249l40 -100h-324zM350 793q-44 0 -76.5 20.5t-52.5 60.5t-29 99h75q5 -30 15 -54t27 -37.5t41 -13.5q26 0 42 13.5t25 37.5t14 54h76q-9 -60 -29 -100.5t-52 -60t-76 -19.5zM183 1149h124l69 -134
h-70z" />
    <glyph glyph-name="uni1EB1" unicode="&#x1eb1;" horiz-adv-x="597" 
d="M254 -11q-59 0 -107.5 25t-76.5 74.5t-28 122.5q0 72 29.5 123.5t78 79.5t105.5 28q61 0 98.5 -24.5t58.5 -56.5l-6 -16l11 78h103v-423h-112v103l11 -27q-3 -6 -15.5 -19.5t-33.5 -29.5t-49.5 -27t-66.5 -11zM285 81q31 0 56 11t42 31t25 48v92q-8 26 -26 45.5
t-43.5 30.5t-56.5 11q-35 0 -63.5 -17t-46 -47t-17.5 -69q0 -38 18 -69t48 -49t64 -18zM316 484q-44 0 -76.5 20.5t-52.5 60.5t-29 99h75q5 -30 15 -54t27 -37.5t41 -13.5q26 0 42 13.5t25 37.5t14 54h76q-9 -60 -29 -100.5t-52 -60t-76 -19.5zM161 818h124l69 -134h-70z
" />
    <glyph glyph-name="uni1EB2" unicode="&#x1eb2;" horiz-adv-x="699" 
d="M24 0l322 758h7l322 -758h-134l-226 576l83 56l-260 -632h-114zM226 271h249l40 -100h-324zM350 793q-44 0 -76.5 20.5t-52.5 60.5t-29 99h75q5 -30 15 -54t27 -37.5t41 -13.5q26 0 42 13.5t25 37.5t14 54h76q-9 -60 -29 -100.5t-52 -60t-76 -19.5zM340 1053
q19 14 30.5 26.5t11.5 30.5q0 15 -7.5 25t-23.5 10q-14 0 -25 -8.5t-18 -21.5l-41 26q17 34 43.5 50t55.5 16q28 0 45.5 -11.5t26 -30.5t8.5 -40q0 -36 -24 -60.5t-56 -44.5z" />
    <glyph glyph-name="uni1EB3" unicode="&#x1eb3;" horiz-adv-x="597" 
d="M254 -11q-59 0 -107.5 25t-76.5 74.5t-28 122.5q0 72 29.5 123.5t78 79.5t105.5 28q61 0 98.5 -24.5t58.5 -56.5l-6 -16l11 78h103v-423h-112v103l11 -27q-3 -6 -15.5 -19.5t-33.5 -29.5t-49.5 -27t-66.5 -11zM285 81q31 0 56 11t42 31t25 48v92q-8 26 -26 45.5
t-43.5 30.5t-56.5 11q-35 0 -63.5 -17t-46 -47t-17.5 -69q0 -38 18 -69t48 -49t64 -18zM316 484q-44 0 -76.5 20.5t-52.5 60.5t-29 99h75q5 -30 15 -54t27 -37.5t41 -13.5q26 0 42 13.5t25 37.5t14 54h76q-9 -60 -29 -100.5t-52 -60t-76 -19.5zM310 705q19 14 30.5 26.5
t11.5 30.5q0 15 -7.5 25t-23.5 10q-14 0 -25 -8.5t-18 -21.5l-41 26q17 34 43.5 50t55.5 16q28 0 45.5 -11.5t26 -30.5t8.5 -40q0 -36 -24 -60.5t-56 -44.5z" />
    <glyph glyph-name="uni1EB4" unicode="&#x1eb4;" horiz-adv-x="699" 
d="M24 0l322 758h7l322 -758h-134l-226 576l83 56l-260 -632h-114zM226 271h249l40 -100h-324zM350 793q-44 0 -76.5 20.5t-52.5 60.5t-29 99h75q5 -30 15 -54t27 -37.5t41 -13.5q26 0 42 13.5t25 37.5t14 54h76q-9 -60 -29 -100.5t-52 -60t-76 -19.5zM425 1046
q-33 0 -54.5 14.5t-39.5 30.5q-12 10 -23 18.5t-25 8.5q-13 0 -21.5 -9.5t-12.5 -25.5t-3 -37l-58 1q-4 39 7.5 71.5t35.5 52t58 19.5q26 0 45 -14t36 -28q14 -13 26.5 -23t26.5 -10q19 0 25.5 21.5t6.5 53.5l58 -1q5 -42 -5.5 -74.5t-32.5 -50.5t-50 -18z" />
    <glyph glyph-name="uni1EB5" unicode="&#x1eb5;" horiz-adv-x="597" 
d="M254 -11q-59 0 -107.5 25t-76.5 74.5t-28 122.5q0 72 29.5 123.5t78 79.5t105.5 28q61 0 98.5 -24.5t58.5 -56.5l-6 -16l11 78h103v-423h-112v103l11 -27q-3 -6 -15.5 -19.5t-33.5 -29.5t-49.5 -27t-66.5 -11zM285 81q31 0 56 11t42 31t25 48v92q-8 26 -26 45.5
t-43.5 30.5t-56.5 11q-35 0 -63.5 -17t-46 -47t-17.5 -69q0 -38 18 -69t48 -49t64 -18zM316 484q-44 0 -76.5 20.5t-52.5 60.5t-29 99h75q5 -30 15 -54t27 -37.5t41 -13.5q26 0 42 13.5t25 37.5t14 54h76q-9 -60 -29 -100.5t-52 -60t-76 -19.5zM401 696q-33 0 -54.5 14.5
t-39.5 29.5q-12 11 -23 19t-25 8q-13 0 -21.5 -9.5t-12.5 -25.5t-3 -36h-58q-4 39 7.5 72t35.5 52.5t58 19.5q26 0 45 -14t36 -29q14 -13 26.5 -23t26.5 -10q19 0 25.5 22t6.5 53h58q5 -42 -5.5 -74.5t-32.5 -50.5t-50 -18z" />
    <glyph glyph-name="uni1EB6" unicode="&#x1eb6;" horiz-adv-x="699" 
d="M24 0l322 758h7l322 -758h-134l-226 576l83 56l-260 -632h-114zM226 271h249l40 -100h-324zM283 -108q0 26 20.5 43t44.5 17t43 -17t19 -43t-19 -42.5t-43 -16.5t-44.5 17t-20.5 42zM350 793q-44 0 -76.5 20.5t-52.5 60.5t-29 99h75q5 -30 15 -54t27 -37.5t41 -13.5
q26 0 42 13.5t25 37.5t14 54h76q-9 -60 -29 -100.5t-52 -60t-76 -19.5z" />
    <glyph glyph-name="uni1EB7" unicode="&#x1eb7;" horiz-adv-x="597" 
d="M254 -11q-59 0 -107.5 25t-76.5 74.5t-28 122.5q0 72 29.5 123.5t78 79.5t105.5 28q61 0 98.5 -24.5t58.5 -56.5l-6 -16l11 78h103v-423h-112v103l11 -27q-3 -6 -15.5 -19.5t-33.5 -29.5t-49.5 -27t-66.5 -11zM285 81q31 0 56 11t42 31t25 48v92q-8 26 -26 45.5
t-43.5 30.5t-56.5 11q-35 0 -63.5 -17t-46 -47t-17.5 -69q0 -38 18 -69t48 -49t64 -18zM243 -106q0 22 17.5 36t37.5 14t36.5 -14t16.5 -36t-16.5 -36t-36.5 -14t-37.5 14t-17.5 36zM316 484q-44 0 -76.5 20.5t-52.5 60.5t-29 99h75q5 -30 15 -54t27 -37.5t41 -13.5
q26 0 42 13.5t25 37.5t14 54h76q-9 -60 -29 -100.5t-52 -60t-76 -19.5z" />
    <glyph glyph-name="uni1EB8" unicode="&#x1eb8;" horiz-adv-x="658" 
d="M100 728h483v-112h-366v-194h326v-112h-326v-198h380v-112h-497v728zM273 -108q0 26 20.5 43t44.5 17t43 -17t19 -43t-19 -42.5t-43 -16.5t-44.5 17t-20.5 42z" />
    <glyph glyph-name="uni1EB9" unicode="&#x1eb9;" horiz-adv-x="533" 
d="M279 -11q-75 0 -128 29t-81 80t-28 117q0 63 32 114.5t86.5 82t120.5 30.5q87 0 143.5 -50.5t75.5 -142.5l-341 -115l-26 63l267 95l-24 -13q-10 30 -35 52.5t-69 22.5q-35 0 -62 -17t-42.5 -46.5t-15.5 -69.5q0 -42 17 -72.5t46 -47t66 -16.5q26 0 49.5 9t45.5 24
l51 -83q-33 -21 -72.5 -33.5t-75.5 -12.5zM212 -106q0 22 17.5 36t37.5 14t36.5 -14t16.5 -36t-16.5 -36t-36.5 -14t-37.5 14t-17.5 36z" />
    <glyph glyph-name="uni1EBA" unicode="&#x1eba;" horiz-adv-x="658" 
d="M100 728h483v-112h-366v-194h326v-112h-326v-198h380v-112h-497v728zM331 817q19 14 30.5 26.5t11.5 30.5q0 15 -7.5 25t-23.5 10q-14 0 -25 -8.5t-18 -21.5l-41 26q17 34 43.5 50t55.5 16q28 0 45.5 -11.5t26 -30.5t8.5 -40q0 -36 -24 -60.5t-56 -44.5z" />
    <glyph glyph-name="uni1EBB" unicode="&#x1ebb;" horiz-adv-x="533" 
d="M279 -11q-75 0 -128 29t-81 80t-28 117q0 63 32 114.5t86.5 82t120.5 30.5q87 0 143.5 -50.5t75.5 -142.5l-341 -115l-26 63l267 95l-24 -13q-10 30 -35 52.5t-69 22.5q-35 0 -62 -17t-42.5 -46.5t-15.5 -69.5q0 -42 17 -72.5t46 -47t66 -16.5q26 0 49.5 9t45.5 24
l51 -83q-33 -21 -72.5 -33.5t-75.5 -12.5zM253 519q19 14 30.5 26.5t11.5 30.5q0 15 -7.5 25t-23.5 10q-14 0 -25 -8.5t-18 -21.5l-41 26q17 34 43.5 50t55.5 16q28 0 45.5 -11.5t26 -30.5t8.5 -40q0 -36 -24 -60.5t-56 -44.5z" />
    <glyph glyph-name="uni1EBC" unicode="&#x1ebc;" horiz-adv-x="658" 
d="M100 728h483v-112h-366v-194h326v-112h-326v-198h380v-112h-497v728zM416 810q-33 0 -54.5 14.5t-39.5 30.5q-12 10 -23 18.5t-25 8.5q-13 0 -21.5 -9.5t-12.5 -25.5t-3 -37l-58 1q-4 39 7.5 71.5t35.5 52t58 19.5q26 0 45 -14t36 -28q14 -13 26.5 -23t26.5 -10
q19 0 25.5 21.5t6.5 53.5l58 -1q5 -42 -5.5 -74.5t-32.5 -50.5t-50 -18z" />
    <glyph glyph-name="uni1EBD" unicode="&#x1ebd;" horiz-adv-x="533" 
d="M279 -11q-75 0 -128 29t-81 80t-28 117q0 63 32 114.5t86.5 82t120.5 30.5q87 0 143.5 -50.5t75.5 -142.5l-341 -115l-26 63l267 95l-24 -13q-10 30 -35 52.5t-69 22.5q-35 0 -62 -17t-42.5 -46.5t-15.5 -69.5q0 -42 17 -72.5t46 -47t66 -16.5q26 0 49.5 9t45.5 24
l51 -83q-33 -21 -72.5 -33.5t-75.5 -12.5zM355 478q-33 0 -54.5 14.5t-39.5 29.5q-12 11 -23 19t-25 8q-13 0 -21.5 -9.5t-12.5 -25.5t-3 -36h-58q-4 39 7.5 72t35.5 52.5t58 19.5q26 0 45 -14t36 -29q14 -13 26.5 -23t26.5 -10q19 0 25.5 22t6.5 53h58q5 -42 -5.5 -74.5
t-32.5 -50.5t-50 -18z" />
    <glyph glyph-name="uni1EBE" unicode="&#x1ebe;" horiz-adv-x="658" 
d="M100 728h483v-112h-366v-194h326v-112h-326v-198h380v-112h-497v728zM414 805l-87 88l30 8l-88 -96h-103l173 176h1l176 -176h-102zM632 1041l-136 -134h-69l81 134h124z" />
    <glyph glyph-name="uni1EBF" unicode="&#x1ebf;" horiz-adv-x="533" 
d="M279 -11q-75 0 -128 29t-81 80t-28 117q0 63 32 114.5t86.5 82t120.5 30.5q87 0 143.5 -50.5t75.5 -142.5l-341 -115l-26 63l267 95l-24 -13q-10 30 -35 52.5t-69 22.5q-35 0 -62 -17t-42.5 -46.5t-15.5 -69.5q0 -42 17 -72.5t46 -47t66 -16.5q26 0 49.5 9t45.5 24
l51 -83q-33 -21 -72.5 -33.5t-75.5 -12.5zM352 500l-87 88l30 8l-88 -96h-103l173 176h1l176 -176h-102zM570 736l-136 -134h-69l81 134h124z" />
    <glyph glyph-name="uni1EC0" unicode="&#x1ec0;" horiz-adv-x="658" 
d="M100 728h483v-112h-366v-194h326v-112h-326v-198h380v-112h-497v728zM408 804l-87 88l30 8l-88 -96h-103l173 176h1l176 -176h-102zM14 1046h124l69 -134h-70z" />
    <glyph glyph-name="uni1EC1" unicode="&#x1ec1;" horiz-adv-x="533" 
d="M279 -11q-75 0 -128 29t-81 80t-28 117q0 63 32 114.5t86.5 82t120.5 30.5q87 0 143.5 -50.5t75.5 -142.5l-341 -115l-26 63l267 95l-24 -13q-10 30 -35 52.5t-69 22.5q-35 0 -62 -17t-42.5 -46.5t-15.5 -69.5q0 -42 17 -72.5t46 -47t66 -16.5q26 0 49.5 9t45.5 24
l51 -83q-33 -21 -72.5 -33.5t-75.5 -12.5zM346 499l-87 88l30 8l-88 -96h-103l173 176h1l176 -176h-102zM-48 741h124l69 -134h-70z" />
    <glyph glyph-name="uni1EC2" unicode="&#x1ec2;" horiz-adv-x="658" 
d="M100 728h483v-112h-366v-194h326v-112h-326v-198h380v-112h-497v728zM411 805l-87 88l30 8l-88 -96h-103l173 176h1l176 -176h-102zM506 912q19 14 30.5 26.5t11.5 30.5q0 15 -7.5 25t-23.5 10q-14 0 -25 -8.5t-18 -21.5l-41 26q17 34 43.5 50t55.5 16q28 0 45.5 -11.5
t26 -30.5t8.5 -40q0 -36 -24 -60.5t-56 -44.5z" />
    <glyph glyph-name="uni1EC3" unicode="&#x1ec3;" horiz-adv-x="533" 
d="M279 -11q-75 0 -128 29t-81 80t-28 117q0 63 32 114.5t86.5 82t120.5 30.5q87 0 143.5 -50.5t75.5 -142.5l-341 -115l-26 63l267 95l-24 -13q-10 30 -35 52.5t-69 22.5q-35 0 -62 -17t-42.5 -46.5t-15.5 -69.5q0 -42 17 -72.5t46 -47t66 -16.5q26 0 49.5 9t45.5 24
l51 -83q-33 -21 -72.5 -33.5t-75.5 -12.5zM349 500l-87 88l30 8l-88 -96h-103l173 176h1l176 -176h-102zM444 607q19 14 30.5 26.5t11.5 30.5q0 15 -7.5 25t-23.5 10q-14 0 -25 -8.5t-18 -21.5l-41 26q17 34 43.5 50t55.5 16q28 0 45.5 -11.5t26 -30.5t8.5 -40
q0 -36 -24 -60.5t-56 -44.5z" />
    <glyph glyph-name="uni1EC4" unicode="&#x1ec4;" horiz-adv-x="658" 
d="M100 728h483v-112h-366v-194h326v-112h-326v-198h380v-112h-497v728zM406 800l-87 88l30 8l-88 -96h-103l173 176h1l176 -176h-102zM412 1003q-33 0 -54.5 14.5t-39.5 29.5q-12 11 -23 19t-25 8q-13 0 -21.5 -9.5t-12.5 -25.5t-3 -36h-58q-4 39 7.5 72t35.5 52.5t58 19.5
q26 0 45 -14t36 -29q14 -13 26.5 -23t26.5 -10q19 0 25.5 22t6.5 53h58q5 -42 -5.5 -74.5t-32.5 -50.5t-50 -18z" />
    <glyph glyph-name="uni1EC5" unicode="&#x1ec5;" horiz-adv-x="533" 
d="M279 -11q-75 0 -128 29t-81 80t-28 117q0 63 32 114.5t86.5 82t120.5 30.5q87 0 143.5 -50.5t75.5 -142.5l-341 -115l-26 63l267 95l-24 -13q-10 30 -35 52.5t-69 22.5q-35 0 -62 -17t-42.5 -46.5t-15.5 -69.5q0 -42 17 -72.5t46 -47t66 -16.5q26 0 49.5 9t45.5 24
l51 -83q-33 -21 -72.5 -33.5t-75.5 -12.5zM344 496l-87 88l30 8l-88 -96h-103l173 176h1l176 -176h-102zM350 699q-33 0 -54.5 14.5t-39.5 29.5q-12 11 -23 19t-25 8q-13 0 -21.5 -9.5t-12.5 -25.5t-3 -36h-58q-4 39 7.5 72t35.5 52.5t58 19.5q26 0 45 -14t36 -29
q14 -13 26.5 -23t26.5 -10q19 0 25.5 22t6.5 53h58q5 -42 -5.5 -74.5t-32.5 -50.5t-50 -18z" />
    <glyph glyph-name="uni1EC6" unicode="&#x1ec6;" horiz-adv-x="658" 
d="M100 728h483v-112h-366v-194h326v-112h-326v-198h380v-112h-497v728zM273 -108q0 26 20.5 43t44.5 17t43 -17t19 -43t-19 -42.5t-43 -16.5t-44.5 17t-20.5 42zM405 790l-87 88l30 8l-88 -96h-103l173 176h1l176 -176h-102z" />
    <glyph glyph-name="uni1EC7" unicode="&#x1ec7;" horiz-adv-x="533" 
d="M279 -11q-75 0 -128 29t-81 80t-28 117q0 63 32 114.5t86.5 82t120.5 30.5q87 0 143.5 -50.5t75.5 -142.5l-341 -115l-26 63l267 95l-24 -13q-10 30 -35 52.5t-69 22.5q-35 0 -62 -17t-42.5 -46.5t-15.5 -69.5q0 -42 17 -72.5t46 -47t66 -16.5q26 0 49.5 9t45.5 24
l51 -83q-33 -21 -72.5 -33.5t-75.5 -12.5zM212 -106q0 22 17.5 36t37.5 14t36.5 -14t16.5 -36t-16.5 -36t-36.5 -14t-37.5 14t-17.5 36zM349 504l-87 88l30 8l-88 -96h-103l173 176h1l176 -176h-102z" />
    <glyph glyph-name="uni1EC8" unicode="&#x1ec8;" horiz-adv-x="317" 
d="M100 728h117v-728h-117v728zM151 817q19 14 30.5 26.5t11.5 30.5q0 15 -7.5 25t-23.5 10q-14 0 -25 -8.5t-18 -21.5l-41 26q17 34 43.5 50t55.5 16q28 0 45.5 -11.5t26 -30.5t8.5 -40q0 -36 -24 -60.5t-56 -44.5z" />
    <glyph glyph-name="uni1EC9" unicode="&#x1ec9;" horiz-adv-x="266" 
d="M77 423h112v-423h-112v423zM111 503q19 14 30.5 26.5t11.5 30.5q0 15 -7.5 25t-23.5 10q-14 0 -25 -8.5t-18 -21.5l-41 26q17 34 43.5 50t55.5 16q28 0 45.5 -11.5t26 -30.5t8.5 -40q0 -36 -24 -60.5t-56 -44.5z" />
    <glyph glyph-name="uni1ECA" unicode="&#x1eca;" horiz-adv-x="317" 
d="M100 728h117v-728h-117v728zM93 -108q0 26 20.5 43t44.5 17t43 -17t19 -43t-19 -42.5t-43 -16.5t-44.5 17t-20.5 42z" />
    <glyph glyph-name="uni1ECB" unicode="&#x1ecb;" horiz-adv-x="266" 
d="M77 423h112v-423h-112v423zM72 575q0 26 20.5 43t44.5 17t43 -17t19 -43t-19 -42.5t-43 -16.5t-44.5 17t-20.5 42zM78 -106q0 22 17.5 36t37.5 14t36.5 -14t16.5 -36t-16.5 -36t-36.5 -14t-37.5 14t-17.5 36z" />
    <glyph glyph-name="uni1ECC" unicode="&#x1ecc;" horiz-adv-x="855" 
d="M55 363q0 76 29 143t80 119t118.5 81.5t144.5 29.5q76 0 143.5 -29.5t119 -81.5t81 -119t29.5 -143q0 -77 -29.5 -144.5t-81 -118.5t-119 -79.5t-143.5 -28.5q-78 0 -145 28.5t-118 79t-80 118t-29 145.5zM175 363q0 -54 19.5 -101t54.5 -82.5t81 -55.5t100 -20
q52 0 97.5 20t79.5 55.5t53.5 82.5t19.5 101q0 55 -20 102t-54 83t-80 56t-99 20t-99 -20t-80.5 -56t-53.5 -83.5t-19 -101.5zM361 -108q0 26 20.5 43t44.5 17t43 -17t19 -43t-19 -42.5t-43 -16.5t-44.5 17t-20.5 42z" />
    <glyph glyph-name="uni1ECD" unicode="&#x1ecd;" horiz-adv-x="555" 
d="M42 216q0 64 30.5 115.5t84.5 81t123 29.5q71 0 123.5 -29.5t81 -81t28.5 -115.5t-28.5 -115.5t-81.5 -81.5t-124 -30q-69 0 -122.5 27.5t-84 78.5t-30.5 121zM155 215q0 -37 16 -67.5t44 -48.5t62 -18q37 0 64.5 18t43 48.5t15.5 67.5q0 38 -15.5 68.5t-43 48.5
t-64.5 18q-35 0 -62.5 -18.5t-43.5 -48.5t-16 -68zM223 -106q0 22 17.5 36t37.5 14t36.5 -14t16.5 -36t-16.5 -36t-36.5 -14t-37.5 14t-17.5 36z" />
    <glyph glyph-name="uni1ECE" unicode="&#x1ece;" horiz-adv-x="855" 
d="M55 363q0 76 29 143t80 119t118.5 81.5t144.5 29.5q76 0 143.5 -29.5t119 -81.5t81 -119t29.5 -143q0 -77 -29.5 -144.5t-81 -118.5t-119 -79.5t-143.5 -28.5q-78 0 -145 28.5t-118 79t-80 118t-29 145.5zM175 363q0 -54 19.5 -101t54.5 -82.5t81 -55.5t100 -20
q52 0 97.5 20t79.5 55.5t53.5 82.5t19.5 101q0 55 -20 102t-54 83t-80 56t-99 20t-99 -20t-80.5 -56t-53.5 -83.5t-19 -101.5zM419 809q19 14 30.5 26.5t11.5 30.5q0 15 -7.5 25t-23.5 10q-14 0 -25 -8.5t-18 -21.5l-41 26q17 34 43.5 50t55.5 16q28 0 45.5 -11.5t26 -30.5
t8.5 -40q0 -36 -24 -60.5t-56 -44.5z" />
    <glyph glyph-name="uni1ECF" unicode="&#x1ecf;" horiz-adv-x="555" 
d="M42 216q0 64 30.5 115.5t84.5 81t123 29.5q71 0 123.5 -29.5t81 -81t28.5 -115.5t-28.5 -115.5t-81.5 -81.5t-124 -30q-69 0 -122.5 27.5t-84 78.5t-30.5 121zM155 215q0 -37 16 -67.5t44 -48.5t62 -18q37 0 64.5 18t43 48.5t15.5 67.5q0 38 -15.5 68.5t-43 48.5
t-64.5 18q-35 0 -62.5 -18.5t-43.5 -48.5t-16 -68zM254 518q19 14 30.5 26.5t11.5 30.5q0 15 -7.5 25t-23.5 10q-14 0 -25 -8.5t-18 -21.5l-41 26q17 34 43.5 50t55.5 16q28 0 45.5 -11.5t26 -30.5t8.5 -40q0 -36 -24 -60.5t-56 -44.5z" />
    <glyph glyph-name="uni1ED0" unicode="&#x1ed0;" horiz-adv-x="855" 
d="M55 363q0 76 29 143t80 119t118.5 81.5t144.5 29.5q76 0 143.5 -29.5t119 -81.5t81 -119t29.5 -143q0 -77 -29.5 -144.5t-81 -118.5t-119 -79.5t-143.5 -28.5q-78 0 -145 28.5t-118 79t-80 118t-29 145.5zM175 363q0 -54 19.5 -101t54.5 -82.5t81 -55.5t100 -20
q52 0 97.5 20t79.5 55.5t53.5 82.5t19.5 101q0 55 -20 102t-54 83t-80 56t-99 20t-99 -20t-80.5 -56t-53.5 -83.5t-19 -101.5zM503 797l-87 88l30 8l-88 -96h-103l173 176h1l176 -176h-102zM721 1033l-136 -134h-69l81 134h124z" />
    <glyph glyph-name="uni1ED1" unicode="&#x1ed1;" horiz-adv-x="555" 
d="M42 216q0 64 30.5 115.5t84.5 81t123 29.5q71 0 123.5 -29.5t81 -81t28.5 -115.5t-28.5 -115.5t-81.5 -81.5t-124 -30q-69 0 -122.5 27.5t-84 78.5t-30.5 121zM155 215q0 -37 16 -67.5t44 -48.5t62 -18q37 0 64.5 18t43 48.5t15.5 67.5q0 38 -15.5 68.5t-43 48.5
t-64.5 18q-35 0 -62.5 -18.5t-43.5 -48.5t-16 -68zM354 500l-87 88l30 8l-88 -96h-103l173 176h1l176 -176h-102zM572 736l-136 -134h-69l81 134h124z" />
    <glyph glyph-name="uni1ED2" unicode="&#x1ed2;" horiz-adv-x="855" 
d="M55 363q0 76 29 143t80 119t118.5 81.5t144.5 29.5q76 0 143.5 -29.5t119 -81.5t81 -119t29.5 -143q0 -77 -29.5 -144.5t-81 -118.5t-119 -79.5t-143.5 -28.5q-78 0 -145 28.5t-118 79t-80 118t-29 145.5zM175 363q0 -54 19.5 -101t54.5 -82.5t81 -55.5t100 -20
q52 0 97.5 20t79.5 55.5t53.5 82.5t19.5 101q0 55 -20 102t-54 83t-80 56t-99 20t-99 -20t-80.5 -56t-53.5 -83.5t-19 -101.5zM496 796l-87 88l30 8l-88 -96h-103l173 176h1l176 -176h-102zM102 1038h124l69 -134h-70z" />
    <glyph glyph-name="uni1ED3" unicode="&#x1ed3;" horiz-adv-x="555" 
d="M42 216q0 64 30.5 115.5t84.5 81t123 29.5q71 0 123.5 -29.5t81 -81t28.5 -115.5t-28.5 -115.5t-81.5 -81.5t-124 -30q-69 0 -122.5 27.5t-84 78.5t-30.5 121zM155 215q0 -37 16 -67.5t44 -48.5t62 -18q37 0 64.5 18t43 48.5t15.5 67.5q0 38 -15.5 68.5t-43 48.5
t-64.5 18q-35 0 -62.5 -18.5t-43.5 -48.5t-16 -68zM347 499l-87 88l30 8l-88 -96h-103l173 176h1l176 -176h-102zM-47 741h124l69 -134h-70z" />
    <glyph glyph-name="uni1ED4" unicode="&#x1ed4;" horiz-adv-x="855" 
d="M55 363q0 76 29 143t80 119t118.5 81.5t144.5 29.5q76 0 143.5 -29.5t119 -81.5t81 -119t29.5 -143q0 -77 -29.5 -144.5t-81 -118.5t-119 -79.5t-143.5 -28.5q-78 0 -145 28.5t-118 79t-80 118t-29 145.5zM175 363q0 -54 19.5 -101t54.5 -82.5t81 -55.5t100 -20
q52 0 97.5 20t79.5 55.5t53.5 82.5t19.5 101q0 55 -20 102t-54 83t-80 56t-99 20t-99 -20t-80.5 -56t-53.5 -83.5t-19 -101.5zM499 797l-87 88l30 8l-88 -96h-103l173 176h1l176 -176h-102zM594 904q19 14 30.5 26.5t11.5 30.5q0 15 -7.5 25t-23.5 10q-14 0 -25 -8.5
t-18 -21.5l-41 26q17 34 43.5 50t55.5 16q28 0 45.5 -11.5t26 -30.5t8.5 -40q0 -36 -24 -60.5t-56 -44.5z" />
    <glyph glyph-name="uni1ED5" unicode="&#x1ed5;" horiz-adv-x="555" 
d="M42 216q0 64 30.5 115.5t84.5 81t123 29.5q71 0 123.5 -29.5t81 -81t28.5 -115.5t-28.5 -115.5t-81.5 -81.5t-124 -30q-69 0 -122.5 27.5t-84 78.5t-30.5 121zM155 215q0 -37 16 -67.5t44 -48.5t62 -18q37 0 64.5 18t43 48.5t15.5 67.5q0 38 -15.5 68.5t-43 48.5
t-64.5 18q-35 0 -62.5 -18.5t-43.5 -48.5t-16 -68zM350 500l-87 88l30 8l-88 -96h-103l173 176h1l176 -176h-102zM445 607q19 14 30.5 26.5t11.5 30.5q0 15 -7.5 25t-23.5 10q-14 0 -25 -8.5t-18 -21.5l-41 26q17 34 43.5 50t55.5 16q28 0 45.5 -11.5t26 -30.5t8.5 -40
q0 -36 -24 -60.5t-56 -44.5z" />
    <glyph glyph-name="uni1ED6" unicode="&#x1ed6;" horiz-adv-x="855" 
d="M55 363q0 76 29 143t80 119t118.5 81.5t144.5 29.5q76 0 143.5 -29.5t119 -81.5t81 -119t29.5 -143q0 -77 -29.5 -144.5t-81 -118.5t-119 -79.5t-143.5 -28.5q-78 0 -145 28.5t-118 79t-80 118t-29 145.5zM175 363q0 -54 19.5 -101t54.5 -82.5t81 -55.5t100 -20
q52 0 97.5 20t79.5 55.5t53.5 82.5t19.5 101q0 55 -20 102t-54 83t-80 56t-99 20t-99 -20t-80.5 -56t-53.5 -83.5t-19 -101.5zM494 792l-87 88l30 8l-88 -96h-103l173 176h1l176 -176h-102zM500 995q-33 0 -54.5 14.5t-39.5 29.5q-12 11 -23 19t-25 8q-13 0 -21.5 -9.5
t-12.5 -25.5t-3 -36h-58q-4 39 7.5 72t35.5 52.5t58 19.5q26 0 45 -14t36 -29q14 -13 26.5 -23t26.5 -10q19 0 25.5 22t6.5 53h58q5 -42 -5.5 -74.5t-32.5 -50.5t-50 -18z" />
    <glyph glyph-name="uni1ED7" unicode="&#x1ed7;" horiz-adv-x="555" 
d="M42 216q0 64 30.5 115.5t84.5 81t123 29.5q71 0 123.5 -29.5t81 -81t28.5 -115.5t-28.5 -115.5t-81.5 -81.5t-124 -30q-69 0 -122.5 27.5t-84 78.5t-30.5 121zM155 215q0 -37 16 -67.5t44 -48.5t62 -18q37 0 64.5 18t43 48.5t15.5 67.5q0 38 -15.5 68.5t-43 48.5
t-64.5 18q-35 0 -62.5 -18.5t-43.5 -48.5t-16 -68zM345 495l-87 88l30 8l-88 -96h-103l173 176h1l176 -176h-102zM351 698q-33 0 -54.5 14.5t-39.5 29.5q-12 11 -23 19t-25 8q-13 0 -21.5 -9.5t-12.5 -25.5t-3 -36h-58q-4 39 7.5 72t35.5 52.5t58 19.5q26 0 45 -14t36 -29
q14 -13 26.5 -23t26.5 -10q19 0 25.5 22t6.5 53h58q5 -42 -5.5 -74.5t-32.5 -50.5t-50 -18z" />
    <glyph glyph-name="uni1ED8" unicode="&#x1ed8;" horiz-adv-x="855" 
d="M55 363q0 76 29 143t80 119t118.5 81.5t144.5 29.5q76 0 143.5 -29.5t119 -81.5t81 -119t29.5 -143q0 -77 -29.5 -144.5t-81 -118.5t-119 -79.5t-143.5 -28.5q-78 0 -145 28.5t-118 79t-80 118t-29 145.5zM175 363q0 -54 19.5 -101t54.5 -82.5t81 -55.5t100 -20
q52 0 97.5 20t79.5 55.5t53.5 82.5t19.5 101q0 55 -20 102t-54 83t-80 56t-99 20t-99 -20t-80.5 -56t-53.5 -83.5t-19 -101.5zM361 -108q0 26 20.5 43t44.5 17t43 -17t19 -43t-19 -42.5t-43 -16.5t-44.5 17t-20.5 42zM494 782l-87 88l30 8l-88 -96h-103l173 176h1l176 -176
h-102z" />
    <glyph glyph-name="uni1ED9" unicode="&#x1ed9;" horiz-adv-x="555" 
d="M42 216q0 64 30.5 115.5t84.5 81t123 29.5q71 0 123.5 -29.5t81 -81t28.5 -115.5t-28.5 -115.5t-81.5 -81.5t-124 -30q-69 0 -122.5 27.5t-84 78.5t-30.5 121zM155 215q0 -37 16 -67.5t44 -48.5t62 -18q37 0 64.5 18t43 48.5t15.5 67.5q0 38 -15.5 68.5t-43 48.5
t-64.5 18q-35 0 -62.5 -18.5t-43.5 -48.5t-16 -68zM223 -106q0 22 17.5 36t37.5 14t36.5 -14t16.5 -36t-16.5 -36t-36.5 -14t-37.5 14t-17.5 36zM350 503l-87 88l30 8l-88 -96h-103l173 176h1l176 -176h-102z" />
    <glyph glyph-name="uni1EDA" unicode="&#x1eda;" horiz-adv-x="855" 
d="M55 363q0 76 29 143t80 119t118.5 81.5t144.5 29.5q76 0 143.5 -29.5t119 -81.5t81 -119t29.5 -143q0 -77 -29.5 -144.5t-81 -118.5t-119 -79.5t-143.5 -28.5q-78 0 -145 28.5t-118 79t-80 118t-29 145.5zM175 363q0 -54 19.5 -101t54.5 -82.5t81 -55.5t100 -20
q52 0 97.5 20t79.5 55.5t53.5 82.5t19.5 101q0 55 -20 102t-54 83t-80 56t-99 20t-99 -20t-80.5 -56t-53.5 -83.5t-19 -101.5zM499 729q39 0 54.5 17.5t22.5 66.5h83q-9 -64 -29.5 -97t-53.5 -44t-77 -11v68zM594 900l-136 -134h-69l81 134h124z" />
    <glyph glyph-name="uni1EDB" unicode="&#x1edb;" horiz-adv-x="555" 
d="M42 216q0 64 30.5 115.5t84.5 81t123 29.5q71 0 123.5 -29.5t81 -81t28.5 -115.5t-28.5 -115.5t-81.5 -81.5t-124 -30q-69 0 -122.5 27.5t-84 78.5t-30.5 121zM155 215q0 -37 16 -67.5t44 -48.5t62 -18q37 0 64.5 18t43 48.5t15.5 67.5q0 38 -15.5 68.5t-43 48.5
t-64.5 18q-35 0 -62.5 -18.5t-43.5 -48.5t-16 -68zM361 423q39 0 60.5 21.5t28.5 68.5h83q-8 -62 -32 -96.5t-60 -47.5t-80 -13v67zM405 618l-136 -134h-69l81 134h124z" />
    <glyph glyph-name="uni1EDC" unicode="&#x1edc;" horiz-adv-x="855" 
d="M55 363q0 76 29 143t80 119t118.5 81.5t144.5 29.5q76 0 143.5 -29.5t119 -81.5t81 -119t29.5 -143q0 -77 -29.5 -144.5t-81 -118.5t-119 -79.5t-143.5 -28.5q-78 0 -145 28.5t-118 79t-80 118t-29 145.5zM175 363q0 -54 19.5 -101t54.5 -82.5t81 -55.5t100 -20
q52 0 97.5 20t79.5 55.5t53.5 82.5t19.5 101q0 55 -20 102t-54 83t-80 56t-99 20t-99 -20t-80.5 -56t-53.5 -83.5t-19 -101.5zM499 729q39 0 54.5 17.5t22.5 66.5h83q-9 -64 -29.5 -97t-53.5 -44t-77 -11v68zM289 905h124l69 -134h-70z" />
    <glyph glyph-name="uni1EDD" unicode="&#x1edd;" horiz-adv-x="555" 
d="M42 216q0 64 30.5 115.5t84.5 81t123 29.5q71 0 123.5 -29.5t81 -81t28.5 -115.5t-28.5 -115.5t-81.5 -81.5t-124 -30q-69 0 -122.5 27.5t-84 78.5t-30.5 121zM155 215q0 -37 16 -67.5t44 -48.5t62 -18q37 0 64.5 18t43 48.5t15.5 67.5q0 38 -15.5 68.5t-43 48.5
t-64.5 18q-35 0 -62.5 -18.5t-43.5 -48.5t-16 -68zM361 423q39 0 60.5 21.5t28.5 68.5h83q-8 -62 -32 -96.5t-60 -47.5t-80 -13v67zM120 637h124l69 -134h-70z" />
    <glyph glyph-name="uni1EDE" unicode="&#x1ede;" horiz-adv-x="855" 
d="M55 363q0 76 29 143t80 119t118.5 81.5t144.5 29.5q76 0 143.5 -29.5t119 -81.5t81 -119t29.5 -143q0 -77 -29.5 -144.5t-81 -118.5t-119 -79.5t-143.5 -28.5q-78 0 -145 28.5t-118 79t-80 118t-29 145.5zM175 363q0 -54 19.5 -101t54.5 -82.5t81 -55.5t100 -20
q52 0 97.5 20t79.5 55.5t53.5 82.5t19.5 101q0 55 -20 102t-54 83t-80 56t-99 20t-99 -20t-80.5 -56t-53.5 -83.5t-19 -101.5zM499 729q39 0 54.5 17.5t22.5 66.5h83q-9 -64 -29.5 -97t-53.5 -44t-77 -11v68zM419 809q19 14 30.5 26.5t11.5 30.5q0 15 -7.5 25t-23.5 10
q-14 0 -25 -8.5t-18 -21.5l-41 26q17 34 43.5 50t55.5 16q28 0 45.5 -11.5t26 -30.5t8.5 -40q0 -36 -24 -60.5t-56 -44.5z" />
    <glyph glyph-name="uni1EDF" unicode="&#x1edf;" horiz-adv-x="555" 
d="M42 216q0 64 30.5 115.5t84.5 81t123 29.5q71 0 123.5 -29.5t81 -81t28.5 -115.5t-28.5 -115.5t-81.5 -81.5t-124 -30q-69 0 -122.5 27.5t-84 78.5t-30.5 121zM155 215q0 -37 16 -67.5t44 -48.5t62 -18q37 0 64.5 18t43 48.5t15.5 67.5q0 38 -15.5 68.5t-43 48.5
t-64.5 18q-35 0 -62.5 -18.5t-43.5 -48.5t-16 -68zM361 423q39 0 60.5 21.5t28.5 68.5h83q-8 -62 -32 -96.5t-60 -47.5t-80 -13v67zM254 518q19 14 30.5 26.5t11.5 30.5q0 15 -7.5 25t-23.5 10q-14 0 -25 -8.5t-18 -21.5l-41 26q17 34 43.5 50t55.5 16q28 0 45.5 -11.5
t26 -30.5t8.5 -40q0 -36 -24 -60.5t-56 -44.5z" />
    <glyph glyph-name="uni1EE0" unicode="&#x1ee0;" horiz-adv-x="855" 
d="M55 363q0 76 29 143t80 119t118.5 81.5t144.5 29.5q76 0 143.5 -29.5t119 -81.5t81 -119t29.5 -143q0 -77 -29.5 -144.5t-81 -118.5t-119 -79.5t-143.5 -28.5q-78 0 -145 28.5t-118 79t-80 118t-29 145.5zM175 363q0 -54 19.5 -101t54.5 -82.5t81 -55.5t100 -20
q52 0 97.5 20t79.5 55.5t53.5 82.5t19.5 101q0 55 -20 102t-54 83t-80 56t-99 20t-99 -20t-80.5 -56t-53.5 -83.5t-19 -101.5zM499 729q39 0 54.5 17.5t22.5 66.5h83q-9 -64 -29.5 -97t-53.5 -44t-77 -11v68zM504 802q-33 0 -54.5 14.5t-39.5 30.5q-12 10 -23 18.5t-25 8.5
q-13 0 -21.5 -9.5t-12.5 -25.5t-3 -37l-58 1q-4 39 7.5 71.5t35.5 52t58 19.5q26 0 45 -14t36 -28q14 -13 26.5 -23t26.5 -10q19 0 25.5 21.5t6.5 53.5l58 -1q5 -42 -5.5 -74.5t-32.5 -50.5t-50 -18z" />
    <glyph glyph-name="uni1EE1" unicode="&#x1ee1;" horiz-adv-x="555" 
d="M325 484q-28 0 -46.5 13t-33.5 26q-11 9 -21 16t-21 7q-12 0 -19.5 -8t-11 -22t-2.5 -32h-49q-3 34 6.5 62t30 44.5t49.5 16.5q22 0 38.5 -11.5t31.5 -25.5q12 -11 23 -19.5t23 -8.5q17 0 23 18.5t5 46.5h49q5 -37 -4 -64.5t-28 -43t-43 -15.5zM42 216q0 64 30.5 115.5
t84.5 81t123 29.5q71 0 123.5 -29.5t81 -81t28.5 -115.5t-28.5 -115.5t-81.5 -81.5t-124 -30q-69 0 -122.5 27.5t-84 78.5t-30.5 121zM155 215q0 -37 16 -67.5t44 -48.5t62 -18q37 0 64.5 18t43 48.5t15.5 67.5q0 38 -15.5 68.5t-43 48.5t-64.5 18q-35 0 -62.5 -18.5
t-43.5 -48.5t-16 -68zM361 423q39 0 60.5 21.5t28.5 68.5h83q-8 -62 -32 -96.5t-60 -47.5t-80 -13v67z" />
    <glyph glyph-name="uni1EE2" unicode="&#x1ee2;" horiz-adv-x="855" 
d="M55 363q0 76 29 143t80 119t118.5 81.5t144.5 29.5q76 0 143.5 -29.5t119 -81.5t81 -119t29.5 -143q0 -77 -29.5 -144.5t-81 -118.5t-119 -79.5t-143.5 -28.5q-78 0 -145 28.5t-118 79t-80 118t-29 145.5zM175 363q0 -54 19.5 -101t54.5 -82.5t81 -55.5t100 -20
q52 0 97.5 20t79.5 55.5t53.5 82.5t19.5 101q0 55 -20 102t-54 83t-80 56t-99 20t-99 -20t-80.5 -56t-53.5 -83.5t-19 -101.5zM499 729q39 0 54.5 17.5t22.5 66.5h83q-9 -64 -29.5 -97t-53.5 -44t-77 -11v68zM361 -108q0 26 20.5 43t44.5 17t43 -17t19 -43t-19 -42.5
t-43 -16.5t-44.5 17t-20.5 42z" />
    <glyph glyph-name="uni1EE3" unicode="&#x1ee3;" horiz-adv-x="555" 
d="M42 216q0 64 30.5 115.5t84.5 81t123 29.5q71 0 123.5 -29.5t81 -81t28.5 -115.5t-28.5 -115.5t-81.5 -81.5t-124 -30q-69 0 -122.5 27.5t-84 78.5t-30.5 121zM155 215q0 -37 16 -67.5t44 -48.5t62 -18q37 0 64.5 18t43 48.5t15.5 67.5q0 38 -15.5 68.5t-43 48.5
t-64.5 18q-35 0 -62.5 -18.5t-43.5 -48.5t-16 -68zM361 423q39 0 60.5 21.5t28.5 68.5h83q-8 -62 -32 -96.5t-60 -47.5t-80 -13v67zM223 -106q0 22 17.5 36t37.5 14t36.5 -14t16.5 -36t-16.5 -36t-36.5 -14t-37.5 14t-17.5 36z" />
    <glyph glyph-name="uni1EE4" unicode="&#x1ee4;" horiz-adv-x="741" 
d="M205 262q0 -43 22.5 -79t59.5 -57t83 -21q48 0 86 21t60 57t22 79v466h115v-469q0 -79 -38 -139.5t-102 -94t-143 -33.5v0q-78 0 -142 33.5t-101.5 94t-37.5 139.5v469h116v-466zM305 -108q0 26 20.5 43t44.5 17t43 -17t19 -43t-19 -42.5t-43 -16.5t-44.5 17t-20.5 42z
" />
    <glyph glyph-name="uni1EE5" unicode="&#x1ee5;" horiz-adv-x="561" 
d="M213 -18q-58 0 -96 35.5t-40 91.5v314h112v-274q2 -31 18 -51t51 -20q33 0 58.5 20.5t40.5 56.5t15 81v187h112v-423h-101l-9 93l3 -14q-13 -28 -37 -50t-56.5 -34.5t-70.5 -12.5zM225 -106q0 22 17.5 36t37.5 14t36.5 -14t16.5 -36t-16.5 -36t-36.5 -14t-37.5 14
t-17.5 36z" />
    <glyph glyph-name="uni1EE6" unicode="&#x1ee6;" horiz-adv-x="741" 
d="M205 262q0 -43 22.5 -79t59.5 -57t83 -21q48 0 86 21t60 57t22 79v466h115v-469q0 -79 -38 -139.5t-102 -94t-143 -33.5v0q-78 0 -142 33.5t-101.5 94t-37.5 139.5v469h116v-466zM363 817q19 14 30.5 26.5t11.5 30.5q0 15 -7.5 25t-23.5 10q-14 0 -25 -8.5t-18 -21.5
l-41 26q17 34 43.5 50t55.5 16q28 0 45.5 -11.5t26 -30.5t8.5 -40q0 -36 -24 -60.5t-56 -44.5z" />
    <glyph glyph-name="uni1EE7" unicode="&#x1ee7;" horiz-adv-x="561" 
d="M213 -18q-58 0 -96 35.5t-40 91.5v314h112v-274q2 -31 18 -51t51 -20q33 0 58.5 20.5t40.5 56.5t15 81v187h112v-423h-101l-9 93l3 -14q-13 -28 -37 -50t-56.5 -34.5t-70.5 -12.5zM258 518q19 14 30.5 26.5t11.5 30.5q0 15 -7.5 25t-23.5 10q-14 0 -25 -8.5t-18 -21.5
l-41 26q17 34 43.5 50t55.5 16q28 0 45.5 -11.5t26 -30.5t8.5 -40q0 -36 -24 -60.5t-56 -44.5z" />
    <glyph glyph-name="uni1EE8" unicode="&#x1ee8;" horiz-adv-x="766" 
d="M205 262q0 -43 22.5 -79t59.5 -57t83 -21q48 0 86 21t60 57t22 79v466h115v-469q0 -79 -38 -139.5t-102 -94t-143 -33.5v0q-78 0 -142 33.5t-101.5 94t-37.5 139.5v469h116v-466zM633 674q39 0 54.5 17.5t22.5 66.5h83q-9 -64 -29.5 -97t-53.5 -44t-77 -11v68zM538 908
l-136 -134h-69l81 134h124z" />
    <glyph glyph-name="uni1EE9" unicode="&#x1ee9;" horiz-adv-x="569" 
d="M213 -18q-58 0 -96 35.5t-40 91.5v314h112v-274q2 -31 18 -51t51 -20q33 0 58.5 20.5t40.5 56.5t15 81v187h112v-423h-101l-9 93l3 -14q-13 -28 -37 -50t-56.5 -34.5t-70.5 -12.5zM421 423q39 0 60.5 21.5t28.5 68.5h83q-8 -62 -32 -96.5t-60 -47.5t-80 -13v67zM409 632
l-136 -134h-69l81 134h124z" />
    <glyph glyph-name="uni1EEA" unicode="&#x1eea;" horiz-adv-x="766" 
d="M205 262q0 -43 22.5 -79t59.5 -57t83 -21q48 0 86 21t60 57t22 79v466h115v-469q0 -79 -38 -139.5t-102 -94t-143 -33.5v0q-78 0 -142 33.5t-101.5 94t-37.5 139.5v469h116v-466zM633 674q39 0 54.5 17.5t22.5 66.5h83q-9 -64 -29.5 -97t-53.5 -44t-77 -11v68zM205 913
h124l69 -134h-70z" />
    <glyph glyph-name="uni1EEB" unicode="&#x1eeb;" horiz-adv-x="569" 
d="M213 -18q-58 0 -96 35.5t-40 91.5v314h112v-274q2 -31 18 -51t51 -20q33 0 58.5 20.5t40.5 56.5t15 81v187h112v-423h-101l-9 93l3 -14q-13 -28 -37 -50t-56.5 -34.5t-70.5 -12.5zM421 423q39 0 60.5 21.5t28.5 68.5h83q-8 -62 -32 -96.5t-60 -47.5t-80 -13v67zM124 637
h124l69 -134h-70z" />
    <glyph glyph-name="uni1EEC" unicode="&#x1eec;" horiz-adv-x="766" 
d="M205 262q0 -43 22.5 -79t59.5 -57t83 -21q48 0 86 21t60 57t22 79v466h115v-469q0 -79 -38 -139.5t-102 -94t-143 -33.5v0q-78 0 -142 33.5t-101.5 94t-37.5 139.5v469h116v-466zM633 674q39 0 54.5 17.5t22.5 66.5h83q-9 -64 -29.5 -97t-53.5 -44t-77 -11v68zM363 817
q19 14 30.5 26.5t11.5 30.5q0 15 -7.5 25t-23.5 10q-14 0 -25 -8.5t-18 -21.5l-41 26q17 34 43.5 50t55.5 16q28 0 45.5 -11.5t26 -30.5t8.5 -40q0 -36 -24 -60.5t-56 -44.5z" />
    <glyph glyph-name="uni1EED" unicode="&#x1eed;" horiz-adv-x="569" 
d="M213 -18q-58 0 -96 35.5t-40 91.5v314h112v-274q2 -31 18 -51t51 -20q33 0 58.5 20.5t40.5 56.5t15 81v187h112v-423h-101l-9 93l3 -14q-13 -28 -37 -50t-56.5 -34.5t-70.5 -12.5zM421 423q39 0 60.5 21.5t28.5 68.5h83q-8 -62 -32 -96.5t-60 -47.5t-80 -13v67zM258 518
q19 14 30.5 26.5t11.5 30.5q0 15 -7.5 25t-23.5 10q-14 0 -25 -8.5t-18 -21.5l-41 26q17 34 43.5 50t55.5 16q28 0 45.5 -11.5t26 -30.5t8.5 -40q0 -36 -24 -60.5t-56 -44.5z" />
    <glyph glyph-name="uni1EEE" unicode="&#x1eee;" horiz-adv-x="766" 
d="M205 262q0 -43 22.5 -79t59.5 -57t83 -21q48 0 86 21t60 57t22 79v466h115v-469q0 -79 -38 -139.5t-102 -94t-143 -33.5v0q-78 0 -142 33.5t-101.5 94t-37.5 139.5v469h116v-466zM633 674q39 0 54.5 17.5t22.5 66.5h83q-9 -64 -29.5 -97t-53.5 -44t-77 -11v68zM448 810
q-33 0 -54.5 14.5t-39.5 30.5q-12 10 -23 18.5t-25 8.5q-13 0 -21.5 -9.5t-12.5 -25.5t-3 -37l-58 1q-4 39 7.5 71.5t35.5 52t58 19.5q26 0 45 -14t36 -28q14 -13 26.5 -23t26.5 -10q19 0 25.5 21.5t6.5 53.5l58 -1q5 -42 -5.5 -74.5t-32.5 -50.5t-50 -18z" />
    <glyph glyph-name="uni1EEF" unicode="&#x1eef;" horiz-adv-x="569" 
d="M213 -18q-58 0 -96 35.5t-40 91.5v314h112v-274q2 -31 18 -51t51 -20q33 0 58.5 20.5t40.5 56.5t15 81v187h112v-423h-101l-9 93l3 -14q-13 -28 -37 -50t-56.5 -34.5t-70.5 -12.5zM421 423q39 0 60.5 21.5t28.5 68.5h83q-8 -62 -32 -96.5t-60 -47.5t-80 -13v67zM360 478
q-33 0 -54.5 14.5t-39.5 29.5q-12 11 -23 19t-25 8q-13 0 -21.5 -9.5t-12.5 -25.5t-3 -36h-58q-4 39 7.5 72t35.5 52.5t58 19.5q26 0 45 -14t36 -29q14 -13 26.5 -23t26.5 -10q19 0 25.5 22t6.5 53h58q5 -42 -5.5 -74.5t-32.5 -50.5t-50 -18z" />
    <glyph glyph-name="uni1EF0" unicode="&#x1ef0;" horiz-adv-x="766" 
d="M205 262q0 -43 22.5 -79t59.5 -57t83 -21q48 0 86 21t60 57t22 79v466h115v-469q0 -79 -38 -139.5t-102 -94t-143 -33.5v0q-78 0 -142 33.5t-101.5 94t-37.5 139.5v469h116v-466zM633 674q39 0 54.5 17.5t22.5 66.5h83q-9 -64 -29.5 -97t-53.5 -44t-77 -11v68zM305 -108
q0 26 20.5 43t44.5 17t43 -17t19 -43t-19 -42.5t-43 -16.5t-44.5 17t-20.5 42z" />
    <glyph glyph-name="uni1EF1" unicode="&#x1ef1;" horiz-adv-x="569" 
d="M213 -18q-58 0 -96 35.5t-40 91.5v314h112v-274q2 -31 18 -51t51 -20q33 0 58.5 20.5t40.5 56.5t15 81v187h112v-423h-101l-9 93l3 -14q-13 -28 -37 -50t-56.5 -34.5t-70.5 -12.5zM421 423q39 0 60.5 21.5t28.5 68.5h83q-8 -62 -32 -96.5t-60 -47.5t-80 -13v67zM225 -106
q0 22 17.5 36t37.5 14t36.5 -14t16.5 -36t-16.5 -36t-36.5 -14t-37.5 14t-17.5 36z" />
    <glyph glyph-name="Ygrave" unicode="&#x1ef2;" horiz-adv-x="704" 
d="M292 236l-269 492h143l205 -392l-35 -2l202 394h143l-273 -492v-236h-116v236zM202 912h124l69 -134h-70z" />
    <glyph glyph-name="ygrave" unicode="&#x1ef3;" horiz-adv-x="510" 
d="M112 -203l281 626h102l-273 -626h-110zM221 -3l-206 426h126l166 -369zM105 621h124l69 -134h-70z" />
    <glyph glyph-name="uni1EF4" unicode="&#x1ef4;" horiz-adv-x="704" 
d="M292 236l-269 492h143l205 -392l-35 -2l202 394h143l-273 -492v-236h-116v236zM286 -108q0 26 20.5 43t44.5 17t43 -17t19 -43t-19 -42.5t-43 -16.5t-44.5 17t-20.5 42z" />
    <glyph glyph-name="uni1EF5" unicode="&#x1ef5;" horiz-adv-x="510" 
d="M112 -203l281 626h102l-273 -626h-110zM221 -3l-206 426h126l166 -369zM356 -114q0 22 17.5 36t37.5 14t36.5 -14t16.5 -36t-16.5 -36t-36.5 -14t-37.5 14t-17.5 36z" />
    <glyph glyph-name="uni1EF6" unicode="&#x1ef6;" horiz-adv-x="704" 
d="M292 236l-269 492h143l205 -392l-35 -2l202 394h143l-273 -492v-236h-116v236zM359 815q19 14 30.5 26.5t11.5 30.5q0 15 -7.5 25t-23.5 10q-14 0 -25 -8.5t-18 -21.5l-41 26q17 34 43.5 50t55.5 16q28 0 45.5 -11.5t26 -30.5t8.5 -40q0 -36 -24 -60.5t-56 -44.5z" />
    <glyph glyph-name="uni1EF7" unicode="&#x1ef7;" horiz-adv-x="510" 
d="M112 -203l281 626h102l-273 -626h-110zM221 -3l-206 426h126l166 -369zM239 503q19 14 30.5 26.5t11.5 30.5q0 15 -7.5 25t-23.5 10q-14 0 -25 -8.5t-18 -21.5l-41 26q17 34 43.5 50t55.5 16q28 0 45.5 -11.5t26 -30.5t8.5 -40q0 -36 -24 -60.5t-56 -44.5z" />
    <glyph glyph-name="uni1EF8" unicode="&#x1ef8;" horiz-adv-x="704" 
d="M292 236l-269 492h143l205 -392l-35 -2l202 394h143l-273 -492v-236h-116v236zM444 809q-33 0 -54.5 14.5t-39.5 30.5q-12 10 -23 18.5t-25 8.5q-13 0 -21.5 -9.5t-12.5 -25.5t-3 -37l-58 1q-4 39 7.5 71.5t35.5 52t58 19.5q26 0 45 -14t36 -28q14 -13 26.5 -23t26.5 -10
q19 0 25.5 21.5t6.5 53.5l58 -1q5 -42 -5.5 -74.5t-32.5 -50.5t-50 -18z" />
    <glyph glyph-name="uni1EF9" unicode="&#x1ef9;" horiz-adv-x="510" 
d="M112 -203l281 626h102l-273 -626h-110zM221 -3l-206 426h126l166 -369zM340 462q-33 0 -54.5 14.5t-39.5 29.5q-12 11 -23 19t-25 8q-13 0 -21.5 -9.5t-12.5 -25.5t-3 -36h-58q-4 39 7.5 72t35.5 52.5t58 19.5q26 0 45 -14t36 -29q14 -13 26.5 -23t26.5 -10q19 0 25.5 22
t6.5 53h58q5 -42 -5.5 -74.5t-32.5 -50.5t-50 -18z" />
    <glyph glyph-name="endash" unicode="&#x2013;" horiz-adv-x="517" 
d="M102 266h305v-98h-305v98z" />
    <glyph glyph-name="emdash" unicode="&#x2014;" horiz-adv-x="711" 
d="M101 266h509v-98h-509v98z" />
    <glyph glyph-name="quoteleft" unicode="&#x2018;" horiz-adv-x="186" 
d="M101 737l58 -25q-22 -23 -35 -58.5t-6 -69.5l-88 -7q-6 36 2 66.5t27 54.5t42 39z" />
    <glyph glyph-name="quoteright" unicode="&#x2019;" horiz-adv-x="190" 
d="M86 562l-57 26q21 20 34 56t6 71l88 7q6 -28 -3 -60t-27 -58.5t-41 -41.5v0z" />
    <glyph glyph-name="quotesinglbase" unicode="&#x201a;" horiz-adv-x="190" 
d="M86 -80l-57 26q21 20 34 56t6 71l88 7q6 -28 -3 -60t-27 -58.5t-41 -41.5v0z" />
    <glyph glyph-name="quotedblleft" unicode="&#x201c;" horiz-adv-x="308" 
d="M234 737l58 -25q-22 -23 -35 -58.5t-6 -69.5l-88 -7q-6 36 2 66.5t27 54.5t42 39zM104 737l58 -25q-22 -23 -35 -58.5t-6 -69.5l-88 -7q-6 36 2 66.5t27 54.5t42 39z" />
    <glyph glyph-name="quotedblright" unicode="&#x201d;" horiz-adv-x="308" 
d="M86 562l-57 26q21 20 34 56t6 71l88 7q6 -28 -3 -60t-27 -58.5t-41 -41.5v0zM213 562l-57 26q21 20 34 56t6 71l88 7q6 -28 -3 -60t-27 -58.5t-41 -41.5v0z" />
    <glyph glyph-name="quotedblbase" unicode="&#x201e;" horiz-adv-x="315" 
d="M86 -75l-57 26q21 20 34 56t6 71l88 7q6 -28 -3 -60t-27 -58.5t-41 -41.5v0zM213 -75l-57 26q21 20 34 56t6 71l88 7q6 -28 -3 -60t-27 -58.5t-41 -41.5v0z" />
    <glyph glyph-name="dagger" unicode="&#x2020;" horiz-adv-x="300" 
d="M27 473h245v-98h-245v98zM99 620h102v-626h-102v626z" />
    <glyph glyph-name="daggerdbl" unicode="&#x2021;" horiz-adv-x="303" 
d="M13 302h277v-98h-277v98zM29 473h246v-98h-246v98zM102 620h101v-626h-101v626z" />
    <glyph glyph-name="bullet" unicode="&#x2022;" horiz-adv-x="486" 
d="M101 305q0 40 19 72.5t51.5 52t70.5 19.5q41 0 73.5 -19.5t52 -52t19.5 -72.5t-19.5 -72.5t-52 -51.5t-72.5 -19q-39 0 -71.5 19t-51.5 51.5t-19 72.5v0z" />
    <glyph glyph-name="ellipsis" unicode="&#x2026;" horiz-adv-x="533" 
d="M26 61q0 25 19 43t42 18q21 0 40 -18t19 -43q0 -28 -19 -44.5t-40 -16.5q-23 0 -42 16.5t-19 44.5v0zM208 61q0 25 19 43t42 18q21 0 39.5 -18t18.5 -43q0 -28 -18.5 -44.5t-39.5 -16.5q-23 0 -42 16.5t-19 44.5v0zM390 61q0 25 18.5 43t41.5 18q22 0 40.5 -18t18.5 -43
q0 -28 -18.5 -44.5t-40.5 -16.5q-23 0 -41.5 16.5t-18.5 44.5v0z" />
    <glyph glyph-name="perthousand" unicode="&#x2030;" horiz-adv-x="1131" 
d="M201 278q-49 0 -82.5 23t-50 63t-16.5 92t16.5 92t50 63t82.5 23q50 0 83 -23t50 -63t17 -92t-17 -92t-50 -63t-83 -23zM150 456q0 -45 12.5 -72t38.5 -27q27 0 39 27t12 72q0 50 -12 74t-39 24q-26 0 -38.5 -23.5t-12.5 -74.5zM594 -21q-50 0 -83.5 23t-50 63.5
t-16.5 92.5t16.5 92t50 63t83.5 23q49 0 82.5 -23t50.5 -63t17 -92t-17 -92.5t-50.5 -63.5t-82.5 -23zM542 157q0 -45 12.5 -72t39.5 -27q26 0 38.5 27t12.5 72q0 50 -12.5 74.5t-38.5 24.5q-27 0 -39.5 -24t-12.5 -75zM683 635l-445 -637l-110 2l443 635h112zM934 -21
q-50 0 -83.5 23t-50 63.5t-16.5 92.5t16.5 92t50 63t83.5 23q49 0 82 -23t50.5 -63t17.5 -92t-17.5 -92.5t-50.5 -63.5t-82 -23zM882 157q0 -45 12.5 -72t39.5 -27q26 0 38.5 27t12.5 72q0 50 -12.5 74.5t-38.5 24.5q-27 0 -39.5 -24t-12.5 -75z" />
    <glyph glyph-name="guilsinglleft" unicode="&#x2039;" horiz-adv-x="366" 
d="M38 243q3 3 20.5 17.5t43 35.5t54 44t54 44.5t43 35.5t20.5 17v-101q-4 -4 -19 -17t-33.5 -29t-33 -29.5t-18.5 -17.5q4 -4 18.5 -17.5t33 -30t33.5 -30t19 -17.5v-101z" />
    <glyph glyph-name="guilsinglright" unicode="&#x203a;" horiz-adv-x="359" 
d="M324 243q-3 3 -20.5 17.5t-43.5 35.5t-54 44t-54 44.5t-43.5 35.5t-20.5 17v-101q4 -4 19 -17t33.5 -29t33.5 -29.5t19 -17.5q-4 -4 -19 -17.5t-33.5 -30t-33.5 -30t-19 -17.5v-101z" />
    <glyph glyph-name="fraction" unicode="&#x2044;" horiz-adv-x="574" 
d="M521 690l-407 -690h-105l407 690h105z" />
    <glyph glyph-name="uni2074" unicode="&#x2074;" horiz-adv-x="395" 
d="M352 445v-64h-317l-2 29l204 271h70v-397h-97v281l24 4l-120 -164l-15 40h253z" />
    <glyph glyph-name="colonmonetary" unicode="&#x20a1;" horiz-adv-x="695" 
d="M540 799l-318 -862h-101l318 862h101zM706 800l-318 -863h-101l318 863h101zM640 57q-16 -11 -47.5 -27t-75 -27.5t-96.5 -10.5q-85 1 -153 30.5t-115 80t-72.5 116t-25.5 139.5q0 83 26 152t74 119.5t114 78.5t144 28q69 0 123.5 -18.5t91.5 -41.5l-46 -109
q-28 19 -70 38t-95 19q-48 0 -92 -19.5t-77 -55t-52.5 -82.5t-19.5 -102q0 -57 17.5 -105t50 -82.5t78 -54t102.5 -19.5q56 0 98.5 17.5t68.5 39.5z" />
    <glyph glyph-name="franc" unicode="&#x20a3;" horiz-adv-x="582" 
d="M100 728h442v-112h-325v-205h283v-111h-283v-300h-117v728zM37 193h249v-79h-249v79z" />
    <glyph glyph-name="lira" unicode="&#x20a4;" horiz-adv-x="651" 
d="M423 460v-105h-330v105h330zM423 304v-104h-330v104h330zM162 547q0 47 27.5 85.5t77.5 60t115 21.5q73 0 123 -28t75 -77l-84 -58q-3 3 -9 10.5t-17 17t-31.5 16.5t-53.5 7q-38 0 -61.5 -11t-34.5 -33t-11 -54v-321v10q0 9 -0.5 0t-2 -25.5t-5.5 -33t-13 -23.5l-19 1
h205q31 0 45 10t14 32v38l102 1v-71q0 -27 -7.5 -49t-23.5 -38.5t-42.5 -25.5t-63.5 -9h-403v112h45q21 0 32.5 6t16 25.5t4.5 58.5v345z" />
    <glyph glyph-name="uni20A6" unicode="&#x20a6;" horiz-adv-x="844" 
d="M441 421h386v-79h-386v79zM418 342h-403v79h403v-79zM740 -26l-559 545l35 -17l2 -502h-118v753h6l550 -545l-27 11l-3 509h117v-754h-3z" />
    <glyph glyph-name="peseta" unicode="&#x20a7;" horiz-adv-x="641" 
d="M521 530h106v-78h-106v78zM131 452h-109v78h109v-78zM306 728q83 0 142 -28t90.5 -80t31.5 -126q0 -43 -13.5 -86t-42 -78t-76 -56t-116.5 -21h-105v-253h-117v728h206zM322 365q38 0 64 13t40.5 33t21 42t6.5 39t-6 38.5t-20 41t-39 32t-64 12.5h-108v-251h105z" />
    <glyph glyph-name="uni20A9" unicode="&#x20a9;" horiz-adv-x="1014" 
d="M65 460h893v-79h-893v79zM37 724h136l180 -516l-19 8l140 359l54 -159l-200 -450zM393 724h116l200 -505l-23 4l166 501h125l-284 -756z" />
    <glyph glyph-name="dong" unicode="&#x20ab;" horiz-adv-x="624" 
d="M331 728h263v-78h-263v78zM90 78h466v-78h-466v78zM269 140q-57 0 -102 28t-71.5 79.5t-26.5 121.5q0 71 28 121t77 76.5t110 26.5q44 0 85 -19.5t65 -52.5l-5 -34v298h111v-634h-112v95l10 -28q-28 -34 -71 -56t-98 -22zM305 235q32 0 56 11t41 31t26 48v90
q-7 27 -25 47t-42.5 31t-55.5 11q-33 0 -61 -17t-44.5 -47t-16.5 -69t16.5 -69.5t44.5 -48.5t61 -18z" />
    <glyph glyph-name="Euro" unicode="&#x20ac;" horiz-adv-x="755" 
d="M55 477h376v-91h-376v91zM56 331h375v-91h-375v91zM700 57q-16 -11 -47.5 -27t-75.5 -27.5t-96 -10.5q-85 1 -153 30.5t-115 80t-72.5 116t-25.5 139.5q0 83 26 152t74 119.5t113.5 78.5t144.5 28q69 0 123.5 -18.5t91.5 -41.5l-46 -109q-28 19 -70 38t-95 19
q-48 0 -92 -19.5t-77.5 -55t-52.5 -82.5t-19 -102q0 -57 17.5 -105t50 -82.5t78 -54t101.5 -19.5q57 0 99.5 17.5t68.5 39.5z" />
    <glyph glyph-name="uni20AD" unicode="&#x20ad;" horiz-adv-x="701" 
d="M35 442h543v-112h-543v112zM234 449l-4 -37l17 23l273 293h150l-301 -318l312 -410h-147l-250 336l-51 -50l1 -286h-118v728h118v-279z" />
    <glyph glyph-name="uni20B1" unicode="&#x20b1;" horiz-adv-x="630" 
d="M463 588h157v-79h-157v79zM478 457h142v-79h-142v79zM152 378h-137v79h137v-79zM152 509h-137v79h137v-79zM306 728q83 0 142 -28t90.5 -80t31.5 -126q0 -43 -13.5 -86t-42 -78t-76 -56t-116.5 -21h-105v-253h-117v728h206zM322 365q38 0 64 13t40.5 33t21 42t6.5 39
t-6 38.5t-20 41t-39 32t-64 12.5h-108v-251h105z" />
    <glyph glyph-name="uni20B2" unicode="&#x20b2;" horiz-adv-x="756" 
d="M679 67q-14 -14 -41.5 -27t-61.5 -24t-70 -17.5t-68 -6.5q-88 0 -158.5 27t-120.5 74.5t-77 112.5t-27 141q0 95 30 167.5t82 122t119.5 74.5t142.5 25q66 0 122.5 -15t96.5 -38l-38 -108q-19 11 -49 21.5t-61 16.5t-56 6q-63 0 -112.5 -17.5t-84.5 -51.5t-53.5 -82.5
t-18.5 -110.5q0 -56 19.5 -102t54.5 -79t84 -50.5t108 -17.5q34 0 66 6t55 19v121h-137v112h254v-299zM352 823h102v-947h-102v947z" />
    <glyph glyph-name="uni20B5" unicode="&#x20b5;" horiz-adv-x="695" 
d="M640 57q-16 -11 -47.5 -27t-75 -27.5t-96.5 -10.5q-85 1 -153 30.5t-115 80t-72.5 116t-25.5 139.5q0 83 26 152t74 119.5t114 78.5t144 28q69 0 123.5 -18.5t91.5 -41.5l-46 -109q-28 19 -70 38t-95 19q-48 0 -92 -19.5t-77 -55t-52.5 -82.5t-19.5 -102q0 -57 17.5 -105
t50 -82.5t78 -54t102.5 -19.5q56 0 98.5 17.5t68.5 39.5zM352 823h102v-947h-102v947z" />
    <glyph glyph-name="uni20B9" unicode="&#x20b9;" horiz-adv-x="531" 
d="M92 253v112h84q39 0 65 12.5t40.5 31.5t21 40.5t6.5 40.5q0 18 -6 39.5t-20.5 41t-39 32.5t-62.5 13h-89v112h410v-112h-245l-97 80q61 0 110.5 -10.5t84.5 -34.5t54.5 -62.5t19.5 -94.5q0 -43 -13 -86t-42.5 -77.5t-77.5 -56t-118 -21.5h-86zM353 0l-190 293l139 3
l186 -296h-135zM96 444v97h407v-97h-407z" />
    <glyph glyph-name="uni20BA" unicode="&#x20ba;" horiz-adv-x="670" 
d="M608 322q4 -17 6 -35.5t1 -37.5q-1 -68 -28 -115.5t-73 -77t-106 -43t-128 -13.5h-116v728h116v-680l-10 65q50 0 91 7t70 23t44.5 42.5t15.5 65.5q0 11 -0.5 21t-2.5 19zM441 465l45 -70l-375 -209l-45 70zM394 592l44 -70l-374 -207l-44 70z" />
    <glyph glyph-name="uni20BC" unicode="&#x20bc;" horiz-adv-x="765" 
d="M332 831h101v-831h-101v831zM548 464q0 43 -22.5 79t-59.5 57.5t-83 21.5q-47 0 -85.5 -21.5t-60.5 -57.5t-22 -79v-466h-115v469q0 80 38 140t102.5 93.5t142.5 33.5v0q79 0 142.5 -33.5t101 -93.5t37.5 -140v-469h-116v466z" />
    <glyph glyph-name="uni20BD" unicode="&#x20bd;" horiz-adv-x="604" 
d="M15 189h295v-103h-295v103zM15 359h259v-103h-259v103zM306 728q83 0 142 -28t90.5 -80t31.5 -126q0 -43 -13.5 -86t-42 -78t-76 -56t-116.5 -21h-105v-253h-117v728h206zM322 365q38 0 64 13t40.5 33t21 42t6.5 39t-6 38.5t-20 41t-39 32t-64 12.5h-108v-251h105z" />
    <glyph glyph-name="uni2116" unicode="&#x2116;" horiz-adv-x="1335" 
d="M867 234h398v-98h-398v98zM740 -26l-559 542l34 -14l3 -502h-118v753h6l550 -542l-27 8l-2 509h116v-754h-3zM822 514q0 64 30 115t84.5 81t123.5 30q71 0 123.5 -30t81 -81t28.5 -115t-28.5 -115.5t-81.5 -81.5t-125 -30q-68 0 -121.5 27.5t-84 78.5t-30.5 121zM934 513
q0 -38 16.5 -68.5t44 -48t62.5 -17.5q37 0 64.5 17.5t43 48t15.5 68.5t-15.5 68.5t-43 48.5t-64.5 18q-35 0 -62.5 -18.5t-44 -49t-16.5 -67.5z" />
    <glyph glyph-name="trademark" unicode="&#x2122;" horiz-adv-x="581" 
d="M456 632l27 -21l-88 -122l-89 122l27 18v-161h-68v270l135 -153h-10l136 153v-270h-70v164zM42 727h183v-65h-55v-194h-73v194h-55v65z" />
    <glyph glyph-name="uni2126" unicode="&#x2126;" horiz-adv-x="833" 
d="M492 97q35 16 60 47.5t38 74t13 90.5q0 35 -8.5 71t-27 67t-51.5 50t-82 19q-52 0 -85.5 -20.5t-52.5 -52t-27 -66t-8 -63.5q-1 -52 15 -95.5t44 -74t62 -47.5v-46q-25 7 -55.5 18t-59.5 29t-53.5 48t-39 75t-14.5 109q0 75 21.5 128.5t59 87.5t86 50.5t102.5 16.5
q71 0 123.5 -23t87.5 -63.5t51 -95.5t13 -120q-3 -61 -19.5 -104t-41.5 -71.5t-53 -46t-53.5 -27.5t-44.5 -15v50zM152 97h230v-97h-230v97zM492 97h219v-97h-219v97z" />
    <glyph glyph-name="uni2206" unicode="&#x2206;" horiz-adv-x="509" 
d="M236 740l172 -486h-69l-103 305l-102 -305h-70l172 486v0zM121 312h236v-58h-236v58z" />
    <glyph glyph-name="product" unicode="&#x220f;" horiz-adv-x="766" 
d="M204 762h313v-843h-100v745h-113v-745h-100v843z" />
    <glyph glyph-name="summation" unicode="&#x2211;" horiz-adv-x="565" 
d="M76 762h416l-30 -98h-253l91 -327l-91 -328h253l30 -97h-416l116 425z" />
    <glyph glyph-name="minus" unicode="&#x2212;" horiz-adv-x="597" 
d="M83 257h365v-98h-365v98z" />
    <glyph glyph-name="uni2215" unicode="&#x2215;" horiz-adv-x="399" 
d="M401 748q-71 -192 -141.5 -383.5t-141.5 -383.5h-101q71 192 141.5 383.5t141.5 383.5h101z" />
    <glyph glyph-name="uni2219" unicode="&#x2219;" horiz-adv-x="228" 
d="M114 236q-37 0 -63 26t-26 63q0 36 26 61.5t63 25.5q36 0 62 -25.5t26 -62.5q0 -36 -26 -62t-62 -26z" />
    <glyph glyph-name="radical" unicode="&#x221a;" horiz-adv-x="570" 
d="M448 618h69l-281 -630l-138 301h-80l1 59h123l94 -210z" />
    <glyph glyph-name="infinity" unicode="&#x221e;" horiz-adv-x="475" 
d="M267 309q0 -27 -18.5 -49t-48 -34t-61.5 -12q-36 0 -59 15t-34 37t-11 43q0 20 11 42t34 37t59 15q32 0 61.5 -12.5t48 -34t18.5 -47.5v0zM208 309q0 26 18.5 47.5t48 34t61.5 12.5q36 0 58.5 -15t33.5 -36.5t11 -42.5t-11 -43t-33.5 -37t-59.5 -15q-31 0 -60.5 12.5
t-48 34t-18.5 48.5v0zM208 307q0 16 -21 26.5t-47 10.5q-24 0 -35 -10t-11 -26q0 -14 10 -25t36 -11q25 0 46.5 9.5t21.5 25.5v0zM267 307q0 -16 22.5 -25.5t45.5 -9.5q26 0 35.5 11t9.5 25q0 16 -11 26t-34 10q-25 0 -46.5 -10.5t-21.5 -26.5v0z" />
    <glyph glyph-name="integral" unicode="&#x222b;" horiz-adv-x="395" 
d="M267 659q-21 0 -32.5 -7t-16.5 -28t-5 -66v-598q0 -44 -10.5 -68t-28.5 -32.5t-40.5 -10t-47.5 -1.5h-70v98h42q21 0 32.5 7.5t16 29.5t4.5 66v589v0q0 47 10 72t27.5 35t41 11.5t49.5 1.5h69v-99h-41z" />
    <glyph glyph-name="approxequal" unicode="&#x2248;" horiz-adv-x="460" 
d="M298 82q-39 0 -64 17t-46 35q-13 12 -26.5 21.5t-29.5 9.5q-14 0 -24 -11t-14.5 -30t-3.5 -42l-69 1q-3 45 10 83t40.5 61t67.5 23q30 0 52.5 -16t42.5 -34q16 -14 30.5 -25.5t30.5 -11.5q15 0 23 12t11 31.5t2 43.5l69 -1q7 -49 -6 -87t-38.5 -59t-57.5 -21zM299 277
q-39 0 -64 17t-46 35q-13 12 -26.5 21.5t-29.5 9.5q-14 0 -24 -11t-14.5 -30t-3.5 -42l-69 1q-3 45 10 83t40.5 61t67.5 23q30 0 52.5 -16t42.5 -34q16 -14 30.5 -25.5t30.5 -11.5q15 0 23 12t11 31.5t2 43.5l69 -1q7 -49 -6 -87t-38.5 -59t-57.5 -21z" />
    <glyph glyph-name="notequal" unicode="&#x2260;" horiz-adv-x="719" 
d="M597 495q-35 -41 -79 -92.5t-92.5 -107.5t-97 -112.5t-92 -108t-79.5 -92.5l-57 51q35 40 79 91.5t92.5 108t97 113.5t93 108.5t79.5 91.5zM102 400h513v-98h-513v98zM102 203h513v-98h-513v98z" />
    <glyph glyph-name="lessequal" unicode="&#x2264;" horiz-adv-x="556" 
d="M471 217l-443 256l443 255v-121l-228 -136l228 -132v0v-122zM67 151h397v-98h-397v98z" />
    <glyph glyph-name="greaterequal" unicode="&#x2265;" horiz-adv-x="556" 
d="M76 728l444 -255l-444 -256v122l244 129l-244 139v121zM75 151h413v-98h-413v98z" />
    <glyph glyph-name="lozenge" unicode="&#x25ca;" horiz-adv-x="466" 
d="M236 740l172 -376l-172 -376l-172 376zM236 590l-102 -226l102 -226l103 226z" />
    <glyph glyph-name="i.loclTRK" horiz-adv-x="266" 
d="M77 423h112v-423h-112v423zM72 575q0 26 20.5 43t44.5 17t43 -17t19 -43t-19 -42.5t-43 -16.5t-44.5 17t-20.5 42z" />
    <glyph glyph-name="f_f_ij" horiz-adv-x="1184" 
d="M114 0v325h-72v99h72v166q0 88 44.5 138.5t129.5 50.5q24 0 53 -7t51 -22l-47 -81q-10 10 -22 14t-23 4q-34 0 -54 -23t-20 -77v-163h132v-99h-132v-325h-112zM430 0v325h-72v99h72v166q0 88 44.5 138.5t129.5 50.5q24 0 53 -7t51 -22l-47 -81q-10 10 -22 14t-23 4
q-34 0 -54 -23t-20 -77v-163h132v-99h-132v-325h-112zM735 423h112v-423h-112v423zM730 575q0 26 20.5 43t44.5 17t43 -17t19 -43t-19 -42.5t-43 -16.5t-44.5 17t-20.5 42zM995 -204l-65 69q28 24 44.5 58t16.5 81v419h112v-425q0 -73 -25 -122.5t-83 -79.5zM984 575
q0 26 20.5 43t44.5 17t43 -17t19 -43t-19 -42.5t-43 -16.5t-44.5 17t-20.5 42z" />
    <glyph glyph-name="f_ij" horiz-adv-x="869" 
d="M114 0v325h-72v99h72v166q0 88 44.5 138.5t129.5 50.5q24 0 53 -7t51 -22l-47 -81q-10 10 -22 14t-23 4q-34 0 -54 -23t-20 -77v-163h132v-99h-132v-325h-112zM419 423h112v-423h-112v423zM414 575q0 26 20.5 43t44.5 17t43 -17t19 -43t-19 -42.5t-43 -16.5t-44.5 17
t-20.5 42zM679 -204l-65 69q28 24 44.5 58t16.5 81v419h112v-425q0 -73 -25 -122.5t-83 -79.5zM668 575q0 26 20.5 43t44.5 17t43 -17t19 -43t-19 -42.5t-43 -16.5t-44.5 17t-20.5 42z" />
    <glyph glyph-name="zero.zero" horiz-adv-x="625" 
d="M313 -2q-60 0 -110.5 21.5t-88 64.5t-58.5 105.5t-21 143.5q0 88 20 151.5t57 104.5t88 59.5t113 18.5q59 0 109.5 -21.5t88 -64t58.5 -105t21 -143.5q0 -83 -21 -146t-58.5 -105t-88 -63t-109.5 -21zM312 109q55 0 89.5 29t51 80.5t16.5 117.5q0 64 -16.5 113.5t-51 78
t-89.5 27.5q-54 1 -89 -28t-51 -79t-16 -115q0 -64 16 -115t51 -80t89 -29zM251 333q0 25 19 43t42 18q21 0 40 -18t19 -43q0 -28 -19 -44.5t-40 -16.5q-23 0 -42 16.5t-19 44.5v0z" />
    <glyph glyph-name="periodcentered.loclCAT.case" horiz-adv-x="172" 
d="M26 376q0 25 19 43t42 18q21 0 40 -18t19 -43q0 -28 -19 -44.5t-40 -16.5q-23 0 -42 16.5t-19 44.5v0z" />
    <glyph glyph-name="periodcentered.loclCAT" horiz-adv-x="172" 
d="M26 288q0 25 19 43t42 18q21 0 40 -18t19 -43q0 -28 -19 -44.5t-40 -16.5q-23 0 -42 16.5t-19 44.5v0z" />
    <glyph glyph-name="uni0308.case" 
d="M72 673q0 26 19 43.5t41 17.5t41 -17.5t19 -43.5q0 -27 -19 -44t-41 -17t-41 17t-19 44v0zM264 673q0 26 19 43.5t42 17.5q21 0 40 -17.5t19 -43.5q0 -27 -19 -44t-40 -17q-23 0 -42 17t-19 44v0z" />
    <glyph glyph-name="uni0307.case" 
d="M33 636q0 26 20.5 43t44.5 17t43 -17t19 -43t-19 -42.5t-43 -16.5t-44.5 17t-20.5 42z" />
    <glyph glyph-name="gravecomb.case" 
d="M20 709h124l69 -134h-70z" />
    <glyph glyph-name="acutecomb.case" 
d="M208 695l-136 -134h-69l81 134h124z" />
    <glyph glyph-name="uni030B.case" 
d="M247 621l-136 -134h-69l81 134h124zM411 619l-136 -134h-69l81 134h124z" />
    <glyph glyph-name="uni0302.case" 
d="M278 494l-87 88l30 8l-88 -96h-103l173 176h1l176 -176h-102z" />
    <glyph glyph-name="uni030C.case" 
d="M132 663l88 -88l-31 -8l89 96h102l-173 -176h-1l-176 176h102z" />
    <glyph glyph-name="uni0306.case" 
d="M208 477q-44 0 -76.5 20.5t-52.5 60.5t-29 99h75q5 -30 15 -54t27 -37.5t41 -13.5q26 0 42 13.5t25 37.5t14 54h76q-9 -60 -29 -100.5t-52 -60t-76 -19.5z" />
    <glyph glyph-name="uni030A.case" 
d="M55 563q0 43 28.5 69t72.5 26q43 0 72 -26t29 -69t-29 -69.5t-72 -26.5t-72 26.5t-29 69.5zM115 561q0 -19 11.5 -31t29.5 -12q19 0 30 12t11 31q0 21 -11 32t-30 11q-18 0 -29.5 -11t-11.5 -32z" />
    <glyph glyph-name="tildecomb.case" 
d="M318 755q-33 0 -54.5 14.5t-39.5 30.5q-12 10 -23 18.5t-25 8.5q-13 0 -21.5 -9.5t-12.5 -25.5t-3 -37l-58 1q-4 39 7.5 71.5t35.5 52t58 19.5q26 0 45 -14t36 -28q14 -13 26.5 -23t26.5 -10q19 0 25.5 21.5t6.5 53.5l58 -1q5 -42 -5.5 -74.5t-32.5 -50.5t-50 -18z" />
    <glyph glyph-name="uni0304.case" 
d="M58 643h249v-79h-249v79z" />
    <glyph glyph-name="hookabovecomb.case" 
d="M156 596q19 14 30.5 26.5t11.5 30.5q0 15 -7.5 25t-23.5 10q-14 0 -25 -8.5t-18 -21.5l-41 26q17 34 43.5 50t55.5 16q28 0 45.5 -11.5t26 -30.5t8.5 -40q0 -36 -24 -60.5t-56 -44.5z" />
    <glyph glyph-name="uni030F.case" 
d="M116 621h124l69 -134h-70zM269 621h124l69 -134h-70z" />
    <glyph glyph-name="uni0311.case" 
d="M227 674q44 0 76 -20.5t52.5 -61t29.5 -99.5h-76q-4 31 -14 55t-26.5 37t-41.5 13t-41.5 -13t-26 -37t-14.5 -55h-75q8 61 28.5 101t52.5 60t76 20z" />
    <glyph glyph-name="uni031B.case" 
d="M50 538q39 0 54.5 17.5t22.5 66.5h83q-9 -64 -29.5 -97t-53.5 -44t-77 -11v68z" />
    <glyph glyph-name="dotbelowcomb.case" 
d="M48 -108q0 26 20.5 43t44.5 17t43 -17t19 -43t-19 -42.5t-43 -16.5t-44.5 17t-20.5 42z" />
    <glyph glyph-name="uni0324.case" 
d="M72 -98q0 26 19 43.5t41 17.5t41 -17.5t19 -43.5q0 -27 -19 -44t-41 -17t-41 17t-19 44v0zM264 -98q0 26 19 43.5t42 17.5q21 0 40 -17.5t19 -43.5q0 -27 -19 -44t-40 -17q-23 0 -42 17t-19 44v0z" />
    <glyph glyph-name="uni0326.case" 
d="M109 -207l-57 39q23 21 33 60t4 75l98 -1q5 -27 -3 -60.5t-26.5 -63.5t-48.5 -49z" />
    <glyph glyph-name="uni0327.case" 
d="M63 -147q11 -11 27.5 -18.5t36.5 -7.5q23 0 43 10.5t20 30.5q0 15 -12.5 28t-47.5 13q-16 0 -33 -4t-30 -8l-18 53l69 60l86 -3l-74 -84l-23 27q11 4 24.5 6t26.5 3q54 1 90 -21.5t36 -67.5q0 -35 -21 -58t-53.5 -34t-70.5 -11q-40 0 -67 12t-44 29z" />
    <glyph glyph-name="uni0328.case" 
d="M201 -222q-54 0 -91.5 32.5t-37.5 84.5q0 34 23.5 66t64.5 49l125 -10q-54 -23 -87 -45t-33 -51q0 -26 14.5 -36t31.5 -10q20 0 37.5 12t32.5 36l41 -58q-19 -30 -53.5 -50t-67.5 -20z" />
    <glyph glyph-name="uni032E.case" 
d="M208 -220q-44 0 -76.5 20.5t-52.5 60.5t-29 99h75q5 -30 15 -54t27 -37.5t41 -13.5q26 0 42 13.5t25 37.5t14 54h76q-9 -60 -29 -100.5t-52 -60t-76 -19.5z" />
    <glyph glyph-name="uni0331.case" 
d="M37 -87h249v-79h-249v79z" />
    <glyph glyph-name="uni03060301" 
d="M208 477q-44 0 -76.5 20.5t-52.5 60.5t-29 99h75q5 -30 15 -54t27 -37.5t41 -13.5q26 0 42 13.5t25 37.5t14 54h76q-9 -60 -29 -100.5t-52 -60t-76 -19.5zM321 813l-136 -134h-69l81 134h124z" />
    </font>
</defs>
</svg>
