<?xml version="1.0" standalone="no"?>
<!DOCTYPE svg PUBLIC "-//W3C//DTD SVG 1.1//EN" "http://www.w3.org/Graphics/SVG/1.1/DTD/svg11.dtd" >
<svg xmlns="http://www.w3.org/2000/svg" xmlns:xlink="http://www.w3.org/1999/xlink" version="1.1">
<metadata>
Created by FontForge 20190801 at Thu Nov 28 21:24:39 2019
 By www-data
Copyright 2010 The Josefin Sans Project Authors (https://github.com/ThomasJockin/JosefinSansFont-master), with Reserved Font Name "Josefin Sans".
</metadata>
<defs>
<font id="JosefinSansRegular" horiz-adv-x="0" >
  <font-face 
    font-family="JosefinSansRegular"
    font-weight="400"
    font-stretch="normal"
    units-per-em="1000"
    panose-1="0 0 0 0 0 0 0 0 0 0"
    ascent="750"
    descent="-250"
    x-height="414"
    cap-height="723"
    bbox="-80 -237 1364 1183"
    underline-thickness="50"
    underline-position="-125"
    unicode-range="U+000D-FB02"
  />
<missing-glyph horiz-adv-x="300" 
 />
    <glyph glyph-name="f_f" unicode="ff" horiz-adv-x="680" 
d="M115 0v331h-71v83h71v175q0 90 40.5 138t119.5 48q21 0 46.5 -6t44.5 -20l-39 -67q-9 9 -20 12.5t-22 3.5q-37 0 -57 -25t-20 -85v-174h131v-83h-131v-331h-93zM420 0v331h-71v83h71v175q0 90 40.5 138t119.5 48q21 0 46.5 -6t44.5 -20l-39 -67q-9 9 -20 12.5t-22 3.5
q-37 0 -57 -25t-20 -85v-174h131v-83h-131v-331h-93z" />
    <glyph glyph-name="fi" unicode="fi" horiz-adv-x="580" 
d="M115 0v331h-71v83h71v175q0 90 40.5 138t119.5 48q21 0 46.5 -6t44.5 -20l-39 -67q-9 9 -19.5 12.5t-22.5 3.5q-37 0 -57 -25t-20 -85v-174h118v-83h-118v-331h-93zM406 414h93v-414h-93v414zM399 564q0 22 18 36.5t39 14.5q20 0 37 -14.5t17 -37.5t-17 -37.5t-37 -14.5
q-21 0 -39 15t-18 38z" />
    <glyph glyph-name="fl" unicode="fl" horiz-adv-x="580" 
d="M115 0v331h-71v83h71v175q0 90 40.5 138t119.5 48q21 0 46.5 -6t44.5 -20l-39 -67q-9 9 -20 12.5t-22 3.5q-37 0 -57 -25t-20 -85v-174h118v-83h-118v-331h-93zM406 774h93v-774h-93v774z" />
    <glyph glyph-name="f_f_i" unicode="ffi" horiz-adv-x="893" 
d="M115 0v331h-71v83h71v175q0 90 40.5 138t119.5 48q21 0 46.5 -6t44.5 -20l-39 -67q-9 9 -20 12.5t-22 3.5q-37 0 -57 -25t-20 -85v-174h131v-83h-131v-331h-93zM420 0v331h-71v83h71v175q0 90 40.5 138t119.5 48q21 0 46.5 -6t44.5 -20l-39 -67q-9 9 -20 12.5t-22 3.5
q-37 0 -57 -25t-20 -85v-174h131v-83h-131v-331h-93zM719 414h93v-414h-93v414zM712 564q0 22 17.5 37t38.5 15t37.5 -15t16.5 -37q0 -23 -16.5 -37.5t-37.5 -14.5t-38.5 15t-17.5 37z" />
    <glyph glyph-name="f_f_l" unicode="ffl" horiz-adv-x="934" 
d="M115 0v331h-71v83h71v175q0 90 40.5 138t119.5 48q21 0 46.5 -6t44.5 -20l-39 -67q-9 9 -20 12.5t-22 3.5q-37 0 -57 -25t-20 -85v-174h131v-83h-131v-331h-93zM420 0v331h-71v83h71v175q0 90 40.5 138t119.5 48q21 0 46.5 -6t44.5 -20l-39 -67q-9 9 -20 12.5t-22 3.5
q-37 0 -57 -25t-20 -85v-174h131v-83h-131v-331h-93zM761 774h93v-774h-93v774z" />
    <glyph glyph-name=".notdef" horiz-adv-x="300" 
 />
    <glyph glyph-name=".null" 
 />
    <glyph glyph-name="nonmarkingreturn" horiz-adv-x="333" 
 />
    <glyph glyph-name="NULL" 
 />
    <glyph glyph-name="NULL" 
 />
    <glyph glyph-name="CR" unicode="&#xd;" horiz-adv-x="316" 
 />
    <glyph glyph-name="space" unicode=" " horiz-adv-x="316" 
 />
    <glyph glyph-name="exclam" unicode="!" horiz-adv-x="201" 
d="M57 759h84v-572h-84v572zM101 4q-25 0 -42 15t-17 38t17 38.5t42 15.5q26 0 42.5 -15.5t16.5 -38.5t-16.5 -38t-42.5 -15z" />
    <glyph glyph-name="quotedbl" unicode="&#x22;" horiz-adv-x="339" 
d="M147 729q-1 -63 -2 -125.5t-2 -126.5h-80v252h84zM282 729q-1 -63 -2 -125.5t-2 -126.5h-80v252h84z" />
    <glyph glyph-name="numbersign" unicode="#" horiz-adv-x="578" 
d="M259 651q-7 -49 -12.5 -97t-12.5 -97h103q5 49 11.5 97t11.5 97h85q-6 -49 -12 -97t-12 -97h103q-2 -20 -3.5 -40t-4.5 -41h-104q-3 -25 -6 -51.5t-6 -52.5h103q-3 -20 -5.5 -40.5t-4.5 -41.5h-104q-5 -47 -10.5 -94.5t-11.5 -95.5h-84q5 48 11 95.5t11 94.5h-102
q-5 -47 -11 -94.5t-11 -95.5h-85q6 48 11.5 95.5t10.5 94.5h-93q3 21 5.5 41.5t4.5 40.5h94q3 26 6 52.5t6 51.5h-93q3 21 4.5 41t4.5 40h93q6 49 12 97t12 97h85zM225 376q-2 -25 -5.5 -51.5t-6.5 -52.5h102q4 26 6.5 52.5t5.5 51.5h-102z" />
    <glyph glyph-name="dollar" unicode="$" horiz-adv-x="567" 
d="M260 -68v438l20 32v387h58v-400l-19 -42v-415h-59zM478 594q-37 19 -81 33t-86 14q-58 0 -92.5 -27t-34.5 -72q0 -34 22 -57.5t58 -40.5t75 -32q34 -13 67 -29t59.5 -40t42 -59t15.5 -87q0 -57 -28.5 -104t-81.5 -74t-126 -27q-48 0 -91.5 11t-80.5 28.5t-66 36.5l43 76
q24 -17 55 -32.5t65 -25t66 -9.5q34 0 67.5 12.5t55.5 38.5t22 69q0 37 -19.5 61.5t-51.5 42t-68 31.5q-34 13 -69 28.5t-65 38t-48 55.5t-18 80q0 57 27.5 99.5t75.5 67t110 26.5q70 0 123.5 -17t94.5 -42z" />
    <glyph glyph-name="percent" unicode="%" horiz-adv-x="780" 
d="M205 267q-46 0 -78 21.5t-48 60t-16 89.5q0 50 16 88.5t48 60t78 21.5q45 0 76.5 -21.5t48.5 -60t17 -88.5q0 -51 -17 -89.5t-48.5 -60t-76.5 -21.5zM145 437q0 -48 15.5 -76t44.5 -28t44 28t15 76q0 52 -15 78t-44 26t-44.5 -25.5t-15.5 -78.5zM580 -16q-46 0 -77.5 22
t-48 60t-16.5 89q0 50 16.5 88.5t48 60t77.5 21.5t77.5 -21.5t48.5 -60t17 -88.5q0 -51 -17 -89.5t-48.5 -60t-77.5 -21.5zM520 154q0 -48 15.5 -76t44.5 -28t44.5 28t15.5 76q0 52 -15.5 78t-44.5 26t-44.5 -25.5t-15.5 -78.5zM653 609l-417 -610l-92 1l415 609h94z" />
    <glyph glyph-name="ampersand" unicode="&#x26;" horiz-adv-x="725" 
d="M672 0h-26.5h-38h-33.5h-14l-347 459q-9 14 -21 35t-20.5 46.5t-8.5 52.5q0 43 21 80.5t60.5 60.5t96.5 23q59 0 105.5 -23t76.5 -54l-49 -65q-30 28 -59.5 44.5t-58.5 16.5q-44 0 -68.5 -26.5t-24.5 -63.5q0 -18 7.5 -37t15 -32t9.5 -17zM306 348q-28 0 -55 -11t-48 -30
t-33.5 -44.5t-12.5 -54.5q0 -39 20.5 -68.5t55 -46t75.5 -16.5q38 0 67 11.5t50 31t31 42.5l62 -54q-27 -50 -83.5 -84t-138.5 -34q-68 0 -122 28t-85.5 76t-31.5 109q0 47 21 87t56.5 69.5t79 46.5t90.5 18zM557 424h89l-117 -300l-70 44z" />
    <glyph glyph-name="quotesingle" unicode="'" horiz-adv-x="164" 
d="M127 729q-1 -63 -2 -125.5t-2 -126.5h-80v252h84z" />
    <glyph glyph-name="parenleft" unicode="(" horiz-adv-x="403" 
d="M102 295q0 101 24 189t62.5 157t80.5 114l73 -41q-39 -45 -71.5 -107t-52 -141t-19.5 -172t19.5 -171.5t52 -140t71.5 -106.5l-73 -42q-42 45 -80.5 114.5t-62.5 157t-24 189.5v0z" />
    <glyph glyph-name="parenright" unicode=")" horiz-adv-x="405" 
d="M313 294q0 -101 -24.5 -189t-62 -157t-80.5 -114l-73 42q39 44 71.5 106t52 140.5t19.5 171.5t-19.5 172t-52 141t-71.5 106l73 42q43 -45 80.5 -114.5t62 -157t24.5 -189.5v0z" />
    <glyph glyph-name="asterisk" unicode="*" horiz-adv-x="335" 
d="M139 525q-19 -11 -39 -22.5t-40 -22.5q-7 13 -14.5 26t-15.5 25q21 11 40.5 22.5t39.5 22.5q-19 12 -39 24l-40 24q7 12 13.5 23.5t13.5 23.5q20 -11 40.5 -23t40.5 -24v96h60q-1 -24 -1 -48t-1 -48q21 12 42 23.5t41 22.5q7 -12 13.5 -23.5t13.5 -23.5
q-20 -12 -40.5 -24t-41.5 -24v0q20 -12 40 -23.5t41 -23.5q-7 -12 -14.5 -25t-15.5 -26l-40 24l-40 24q0 -23 -0.5 -45.5t-0.5 -45.5h-56v91z" />
    <glyph glyph-name="plus" unicode="+" horiz-adv-x="550" 
d="M227 416h85v-142h139v-81h-139v-142h-85v142h-140v81h140v142z" />
    <glyph glyph-name="comma" unicode="," horiz-adv-x="203" 
d="M165 87q-22 -52 -43.5 -103.5t-43.5 -104.5h-75q20 53 39 104.5t39 103.5h84z" />
    <glyph glyph-name="hyphen" unicode="-" horiz-adv-x="304" 
d="M53 256h187v-82h-187v82z" />
    <glyph glyph-name="period" unicode="." horiz-adv-x="168" 
d="M34 53q0 22 16.5 37.5t36.5 15.5q18 0 34.5 -15.5t16.5 -37.5q0 -24 -16.5 -38.5t-34.5 -14.5q-20 0 -36.5 14.5t-16.5 38.5v0z" />
    <glyph glyph-name="slash" unicode="/" horiz-adv-x="384" 
d="M383 745l-140 -382t-141 -382h-85q71 191 141 382t141 382h84z" />
    <glyph glyph-name="zero" unicode="0" horiz-adv-x="623" 
d="M312 -3q-61 0 -112 23t-87.5 66.5t-56.5 105.5t-20 139q0 84 19 146.5t55.5 104.5t87.5 62.5t114 20.5q61 0 111.5 -23t87 -66.5t57 -105t20.5 -139.5q0 -79 -20.5 -141t-57 -105t-87 -65.5t-111.5 -22.5zM311 90q58 0 97.5 30.5t59.5 85.5t20 127t-20 125.5t-59.5 83.5
t-97.5 30t-97 -30.5t-58.5 -84.5t-19.5 -126q0 -71 19.5 -125.5t58.5 -85t97 -30.5z" />
    <glyph glyph-name="one" unicode="1" horiz-adv-x="329" 
d="M53 658h172v-658h-97v565h-75v93z" />
    <glyph glyph-name="two" unicode="2" horiz-adv-x="545" 
d="M53 0q64 62 122 122t104.5 116t73.5 108.5t27 101.5q0 33 -11 56.5t-28.5 38.5t-39.5 22.5t-45 7.5q-33 0 -56 -10.5t-37.5 -27.5t-21 -36t-6.5 -38q0 -33 10 -59.5t29 -46.5l-60 -53q-23 15 -39.5 42t-25 58.5t-8.5 56.5q0 54 26.5 101.5t78 76.5t125.5 29q63 0 110 -29
t73 -76.5t26 -104.5q0 -50 -20 -98t-53.5 -95t-74 -92.5t-80.5 -91.5l-42 14h292v-93h-449z" />
    <glyph glyph-name="three" unicode="3" horiz-adv-x="523" 
d="M437 658l-176 -283l-58 27q13 7 29 10t32 3q37 2 72 -8t63 -33t44.5 -61t16.5 -94q0 -70 -32 -121t-84.5 -78.5t-116.5 -27.5q-48 0 -95.5 19.5t-78.5 51.5l49 80q19 -22 52.5 -40t69.5 -18q38 0 68.5 17t49 48.5t18.5 73.5q0 58 -33.5 91t-91.5 33q-29 0 -49 -4.5
t-36 -10.5l-3 4l155 241l30 -13h-241v93h346z" />
    <glyph glyph-name="four" unicode="4" horiz-adv-x="535" 
d="M13 159v1l401 506h1v-433h85v-74h-85v-159h-97v159h-305zM324 447l-169 -219l-15 5h178v232z" />
    <glyph glyph-name="five" unicode="5" horiz-adv-x="523" 
d="M245 -8q-53 0 -101.5 19t-78.5 49l52 75q20 -23 53.5 -37t66.5 -14q37 0 65.5 16.5t44.5 45t16 65.5q0 40 -14.5 71t-43 48.5t-71.5 17.5q-35 0 -65 -9.5t-62 -28.5h-1v348h315v-93h-231v-168l-13 20q17 6 38.5 9.5t41.5 3.5q67 0 112.5 -29.5t69 -78.5t23.5 -108
q0 -62 -28 -112.5t-77 -80t-112 -29.5z" />
    <glyph glyph-name="six" unicode="6" horiz-adv-x="545" 
d="M274 -8q-66 0 -119.5 31.5t-85 90t-31.5 138.5q0 65 25.5 123.5t68.5 110t97.5 96t111.5 81.5l64 -70q-81 -40 -136 -90.5t-85 -102.5t-36 -98l-24 3q27 56 71 86t111 30q51 0 96 -27t73.5 -74t28.5 -108q0 -67 -32.5 -116.5t-85 -76.5t-112.5 -27zM270 79
q37 0 67.5 16.5t48.5 46.5t18 69t-18 68t-48.5 45t-67.5 16t-67 -15.5t-48 -42t-18 -58.5v-17q0 -34 17.5 -63.5t48 -47t67.5 -17.5z" />
    <glyph glyph-name="seven" unicode="7" horiz-adv-x="489" 
d="M461 658l-263 -658h-109l237 579l34 -14h-329v93h430z" />
    <glyph glyph-name="eight" unicode="8" horiz-adv-x="523" 
d="M28 207q0 51 19.5 88t49 62.5t60.5 38.5q-30 19 -49.5 47t-19.5 72t22.5 78t61.5 53.5t89 19.5q49 0 88 -19.5t62 -52.5t23 -75q0 -47 -19.5 -75t-49.5 -48q31 -14 61 -39.5t49.5 -62.5t19.5 -87q0 -57 -31.5 -106t-84 -79t-119.5 -30t-119 30t-82.5 79t-30.5 106v0z
M127 212q0 -38 18 -69t48 -50t67 -19q38 0 69.5 19t50 50t18.5 68q0 38 -18 68.5t-48.5 49.5t-67.5 19q-37 1 -68 -17.5t-50 -49.5t-19 -69v0zM182 503q0 -31 24.5 -52.5t56.5 -21.5t55.5 21.5t23.5 52.5q0 36 -23.5 59t-55.5 23q-33 0 -57 -23t-24 -59v0z" />
    <glyph glyph-name="nine" unicode="9" horiz-adv-x="537" 
d="M236 216q-51 0 -96 27t-73.5 74.5t-28.5 107.5q0 70 32.5 121.5t84.5 79.5t112 28q67 0 120.5 -29t85 -81t31.5 -120q0 -78 -29.5 -142t-77.5 -116.5t-106 -96t-116 -82.5l-64 71q83 43 144 90t96 94.5t41 89.5l28 -1q-30 -56 -71.5 -85.5t-112.5 -29.5zM271 298
q59 0 96.5 34t37.5 88v18q-1 37 -19 66t-48 46t-67 17t-67.5 -17t-48 -47.5t-17.5 -71.5q0 -40 18 -70.5t48 -46.5t67 -16z" />
    <glyph glyph-name="colon" unicode=":" horiz-adv-x="177" 
d="M34 325q0 22 16.5 37.5t35.5 15.5t35.5 -15t16.5 -38q0 -24 -16.5 -38.5t-35.5 -14.5t-35.5 14.5t-16.5 38.5v0zM34 53q0 22 16.5 37.5t35.5 15.5t35.5 -15.5t16.5 -37.5q0 -24 -16.5 -38.5t-35.5 -14.5t-35.5 14.5t-16.5 38.5v0z" />
    <glyph glyph-name="semicolon" unicode=";" horiz-adv-x="203" 
d="M65 306q0 22 16.5 37.5t35.5 15.5q20 0 36 -15t16 -38q0 -24 -16 -38.5t-36 -14.5q-19 0 -35.5 14.5t-16.5 38.5v0zM151 87q-22 -52 -43.5 -103.5t-43.5 -104.5h-76q20 52 39.5 104t38.5 104h85z" />
    <glyph glyph-name="less" unicode="&#x3c;" horiz-adv-x="601" 
d="M504 394l-264 -154l264 -153v-102l-442 255l442 256v-102z" />
    <glyph glyph-name="equal" unicode="=" horiz-adv-x="717" 
d="M101 392h512v-82h-512v82zM101 195h512v-81h-512v81z" />
    <glyph glyph-name="greater" unicode="&#x3e;" horiz-adv-x="590" 
d="M93 87l264 154l-264 154v101l443 -255l-443 -256v0v102z" />
    <glyph glyph-name="question" unicode="?" horiz-adv-x="459" 
d="M167 185v63q0 49 13 78.5t34 49.5t43 39q31 26 53.5 54.5t22.5 74.5q0 33 -15.5 58t-40.5 39t-54 14q-33 0 -58.5 -14.5t-42.5 -38t-27 -51.5l-77 36q7 22 23.5 48.5t42.5 50.5t63 39.5t85 15.5q57 0 102 -22t71.5 -64t26.5 -103q0 -48 -14 -80t-35.5 -56t-46.5 -47
q-21 -18 -38.5 -35.5t-27.5 -42t-10 -64.5v-42h-93zM215 4q-26 0 -43 15t-17 39q0 22 17 37.5t43 15.5q25 0 41.5 -15.5t16.5 -37.5q0 -24 -16.5 -39t-41.5 -15z" />
    <glyph glyph-name="at" unicode="@" horiz-adv-x="1027" 
d="M437 -219q-82 0 -153.5 24t-125.5 71.5t-83.5 118.5t-29.5 166q0 61 19 127.5t59.5 130t105 114.5t155.5 81.5t210 30.5q92 0 163.5 -27t122 -75.5t76.5 -112.5t26 -138q0 -60 -18 -114.5t-50.5 -96t-77.5 -66t-99 -24.5q-40 0 -68.5 19.5t-40.5 54.5t-4 80l16 -43
q-16 -26 -46.5 -52t-68.5 -43t-79 -17q-54 0 -97 23.5t-67.5 66.5t-23.5 102q0 69 30.5 125.5t84.5 90t123 33.5q44 0 74 -12t49.5 -32t30.5 -45l18 72h88l-38 -270q-2 -18 0.5 -33.5t12.5 -24.5t29 -9q25 0 49 16.5t43.5 46t31 68.5t11.5 84q0 77 -36.5 140t-106.5 101
t-171 38q-107 0 -184 -29.5t-128.5 -77t-82 -102.5t-44 -107t-13.5 -91q0 -79 24 -137.5t67.5 -96.5t102.5 -57t128 -19q59 0 115.5 18.5t106.5 49.5l38 -54q-38 -29 -85 -48.5t-95.5 -29t-93.5 -9.5zM482 67q33 0 61.5 13t50 36.5t32.5 56.5l11 81q-3 30 -20.5 52.5
t-44.5 35t-61 12.5q-43 0 -78 -22t-55.5 -58.5t-20.5 -79.5q0 -36 15.5 -65t44 -45.5t65.5 -16.5z" />
    <glyph glyph-name="A" unicode="A" horiz-adv-x="701" 
d="M32 0l316 753h6l315 -753h-111l-236 601l69 45l-264 -646h-95zM217 274h269l32 -84h-329z" />
    <glyph glyph-name="B" unicode="B" horiz-adv-x="618" 
d="M290 723q109 0 171.5 -44.5t62.5 -138.5q0 -57 -26 -99t-72.5 -66t-109.5 -27l-14 50q73 -2 131 -26t92 -67t34 -102q0 -54 -20 -92.5t-54 -63t-77 -36t-89 -11.5h-215v723h186zM310 406q60 0 87 33.5t27 81.5q0 57 -35 83t-94 26h-94v-224h109zM314 90q40 0 73.5 12
t53 37t19.5 63q0 42 -22.5 66t-57.5 34.5t-72 10.5h-107v-223h113z" />
    <glyph glyph-name="C" unicode="C" horiz-adv-x="694" 
d="M635 54q-18 -12 -49 -27t-72.5 -25t-90.5 -10q-84 1 -151.5 30t-114.5 79t-72.5 115.5t-25.5 139.5q0 81 26.5 149.5t74.5 119t113.5 78.5t143.5 28q65 0 118 -17.5t91 -41.5l-39 -90q-30 20 -72.5 38t-94.5 18q-53 0 -100 -21t-83 -59t-56.5 -88.5t-20.5 -108.5
q0 -59 18.5 -109.5t53 -87.5t83.5 -58t110 -21q55 0 98 17t71 38z" />
    <glyph glyph-name="D" unicode="D" horiz-adv-x="753" 
d="M104 0v723h197q107 0 182.5 -33t121.5 -87t67.5 -119.5t21.5 -130.5q0 -82 -28.5 -147t-78.5 -111t-114.5 -70.5t-136.5 -24.5h-232zM201 93h116q60 0 110.5 18t88 52t58.5 83.5t21 112.5q0 67 -22 117.5t-60 84.5t-86 51.5t-101 17.5h-125v-537z" />
    <glyph glyph-name="E" unicode="E" horiz-adv-x="652" 
d="M104 723h470v-93h-373v-220h333v-93h-333v-224h387v-93h-484v723z" />
    <glyph glyph-name="F" unicode="F" horiz-adv-x="589" 
d="M104 723h429v-93h-332v-231h291v-92h-291v-307h-97v723z" />
    <glyph glyph-name="G" unicode="G" horiz-adv-x="751" 
d="M670 62q-15 -13 -42 -25.5t-59.5 -22.5t-67 -16t-64.5 -6q-87 0 -156.5 27t-119 75t-76 113t-26.5 141q0 90 29.5 161.5t81 121t118.5 75t142 25.5q63 0 117 -15t95 -38l-33 -89q-20 12 -49.5 22t-60.5 16.5t-58 6.5q-64 0 -116 -19.5t-89 -56t-57 -88t-20 -115.5
q0 -59 20 -108t57 -84.5t88.5 -55t113.5 -19.5q37 0 73 7.5t62 21.5v144h-144v93h241v-292z" />
    <glyph glyph-name="H" unicode="H" horiz-adv-x="780" 
d="M676 723v-723h-96v317h-379v-317h-97v723h97v-314h379v314h96z" />
    <glyph glyph-name="I" unicode="I" horiz-adv-x="305" 
d="M104 723h97v-723h-97v723z" />
    <glyph glyph-name="J" unicode="J" horiz-adv-x="365" 
d="M261 131q0 -88 -33.5 -150t-91.5 -94.5t-133 -35.5v0v94q70 4 115.5 49.5t45.5 139.5v589h97v-592z" />
    <glyph glyph-name="K" unicode="K" horiz-adv-x="679" 
d="M202 432l-3 -36l13 18l296 309h125l-299 -310l316 -413h-123l-264 351l-61 -59v-292h-98v723h98v-291z" />
    <glyph glyph-name="L" unicode="L" horiz-adv-x="622" 
d="M104 723h97v-630h367v-93h-464v723z" />
    <glyph glyph-name="M" unicode="M" horiz-adv-x="927" 
d="M104 0v746h1l379 -538l-41 8l378 530h2v-746h-96v526l6 -49l-273 -386h-2l-277 386l17 45v-522h-94z" />
    <glyph glyph-name="N" unicode="N" horiz-adv-x="837" 
d="M730 -23l-559 567l28 -7l2 -537h-97v745h5l553 -569l-23 5l-2 542h96v-746h-3z" />
    <glyph glyph-name="O" unicode="O" horiz-adv-x="857" 
d="M59 361q0 75 28.5 141.5t79.5 118t117.5 81t143.5 29.5q76 0 142.5 -29.5t118 -81t80.5 -118t29 -141.5q0 -77 -29 -144t-80.5 -117.5t-118 -79t-142.5 -28.5q-77 0 -143.5 28t-117.5 78t-79.5 117t-28.5 146zM159 360q0 -57 21 -106.5t58 -87.5t86 -59.5t106 -21.5
q56 0 105 21.5t85 59.5t57 87.5t21 107.5q0 57 -21 107.5t-58 88.5t-86 59.5t-105 21.5q-57 0 -106 -22t-86 -60t-57 -88.5t-20 -107.5z" />
    <glyph glyph-name="P" unicode="P" horiz-adv-x="595" 
d="M297 723q79 0 135 -26.5t86.5 -76.5t30.5 -121q0 -43 -13 -84.5t-41.5 -75t-74.5 -53.5t-112 -20h-107v-266h-97v723h193zM307 359q43 0 71 14t44 35.5t23 45.5t7 43q0 22 -7 45.5t-23.5 43t-43 32t-65.5 12.5h-112v-271h106z" />
    <glyph glyph-name="Q" unicode="Q" horiz-adv-x="887" 
d="M580 94h248v-94h-377zM59 361q0 75 28.5 141.5t79.5 118t117.5 81t143.5 29.5q76 0 142.5 -29.5t118 -81t80.5 -118t29 -141.5q0 -77 -29 -144t-80.5 -117.5t-118 -79t-142.5 -28.5q-77 0 -143.5 28t-117.5 78t-79.5 117t-28.5 146zM159 360q0 -57 21 -106.5t58 -87.5
t86 -59t106 -21q56 0 105 21t85 59t57 87.5t21 107.5q0 56 -21 106t-58 87.5t-86 59t-105 21.5q-57 0 -106 -21.5t-86 -59.5t-57 -88t-20 -106z" />
    <glyph glyph-name="R" unicode="R" horiz-adv-x="659" 
d="M296 723q55 0 101.5 -14.5t81 -43t54 -70t19.5 -96.5q0 -43 -12.5 -84t-41.5 -74.5t-75.5 -54t-114.5 -20.5h-107v-266h-97v723h192zM306 359q43 0 71.5 13t44.5 33.5t23 44.5t7 45q0 22 -7.5 45.5t-24 43.5t-43 33t-64.5 13h-112v-271h105zM425 304l189 -304h-112
l-192 301z" />
    <glyph glyph-name="S" unicode="S" horiz-adv-x="582" 
d="M478 594q-37 19 -81 33t-86 14q-58 0 -92.5 -27t-34.5 -72q0 -34 22 -57.5t58 -40.5t75 -32q34 -13 67 -29t59.5 -40t42 -59t15.5 -87q0 -57 -28.5 -104t-81.5 -74t-126 -27q-48 0 -91.5 11t-80.5 28.5t-66 36.5l43 76q24 -17 55 -32.5t65 -25t66 -9.5q34 0 67.5 12.5
t55.5 38.5t22 69q0 37 -19.5 61.5t-51.5 42t-68 31.5q-34 13 -69 28.5t-65 38t-48 55.5t-18 80q0 57 27.5 99.5t75.5 67t110 26.5q70 0 123.5 -17t94.5 -42z" />
    <glyph glyph-name="T" unicode="T" horiz-adv-x="581" 
d="M51 723h480v-93h-194v-630h-97v630h-189v93z" />
    <glyph glyph-name="U" unicode="U" horiz-adv-x="731" 
d="M191 256q0 -49 23.5 -87.5t62.5 -60.5t88 -22q51 0 91 22t63 60.5t23 87.5v467h95v-470q0 -79 -36.5 -138t-98 -91t-137.5 -32v0q-76 0 -137 32t-97 91t-36 138v470h96v-467z" />
    <glyph glyph-name="V" unicode="V" horiz-adv-x="719" 
d="M156 723l238 -598l-55 11l226 587h113l-319 -756l-318 756h115z" />
    <glyph glyph-name="W" unicode="W" horiz-adv-x="1008" 
d="M41 719h112l196 -552l-17 7l143 370l45 -131l-191 -446zM388 719h97l212 -544l-20 4l187 540h103l-284 -751z" />
    <glyph glyph-name="X" unicode="X" horiz-adv-x="672" 
d="M44 723h123l471 -723h-124zM34 0l251 393l47 -94l-178 -299h-120zM335 428l176 295h117l-241 -376z" />
    <glyph glyph-name="Y" unicode="Y" horiz-adv-x="691" 
d="M296 241l-268 482h119l215 -399l-30 -2l213 401h118l-270 -482v-241h-97v241z" />
    <glyph glyph-name="Z" unicode="Z" horiz-adv-x="712" 
d="M51 0q11 16 33.5 49t52.5 78t64.5 97t71 106t71 105.5t64.5 96t52.5 77t33.5 47.5l13 -26h-334q-19 0 -38 7t-31 21t-12 33v68h90v-13q0 -18 7 -20.5t24 -2.5h433l-437 -642l-6 12h455v-93h-607z" />
    <glyph glyph-name="bracketleft" unicode="[" horiz-adv-x="362" 
d="M104 755h208v-87h-110v-732h110v-87h-208v906z" />
    <glyph glyph-name="backslash" unicode="\" horiz-adv-x="389" 
d="M95 745q70 -191 140.5 -382t140.5 -382h-94q-71 191 -141 382t-141 382h95z" />
    <glyph glyph-name="bracketright" unicode="]" horiz-adv-x="362" 
d="M258 -151h-207v87h110v733h-110v86h207v-906z" />
    <glyph glyph-name="asciicircum" unicode="^" horiz-adv-x="475" 
d="M297 485q-6 10 -18.5 26.5l-25 33t-19.5 26.5q-6 -10 -18 -26.5t-24.5 -33t-18.5 -26.5h-60q31 46 61 91.5t60 91.5v0q31 -46 61.5 -91.5t60.5 -91.5h-59z" />
    <glyph glyph-name="underscore" unicode="_" horiz-adv-x="607" 
d="M101 81h405v-81h-405v81z" />
    <glyph glyph-name="grave" unicode="`" horiz-adv-x="274" 
d="M14 619h103l73 -134h-60z" />
    <glyph glyph-name="a" unicode="a" horiz-adv-x="586" 
d="M253 -10q-58 0 -105.5 25t-75 73.5t-27.5 118.5q0 69 29 119.5t77.5 77.5t106.5 27t98 -26.5t61 -62.5l-6 -16l9 88h86v-414h-93v108l10 -24q-4 -10 -17.5 -25.5t-36 -31.5t-51.5 -26.5t-65 -10.5zM278 67q35 0 63 13t46.5 36.5t25.5 56.5v81q-8 30 -28 52.5t-48 35
t-62 12.5q-37 0 -68 -18t-49.5 -50t-18.5 -75q0 -40 19 -73t51 -52t69 -19z" />
    <glyph glyph-name="b" unicode="b" horiz-adv-x="593" 
d="M333 -10q-57 0 -100.5 25t-69.5 63l11 29v-107h-93v774h92v-455l-3 35q25 34 71.5 55.5t103.5 21.5q56 0 102 -27t73.5 -75.5t27.5 -115.5q0 -70 -29.5 -120t-78.5 -76.5t-107 -26.5zM314 69q40 0 72 19t50 51.5t18 74.5q0 40 -18.5 72.5t-50 51.5t-71.5 19
q-34 0 -63 -13t-49 -35.5t-28 -52.5v-83q8 -30 27 -53.5t48 -37t65 -13.5z" />
    <glyph glyph-name="c" unicode="c" horiz-adv-x="456" 
d="M417 38q-28 -22 -67 -35t-78 -13q-68 0 -119 27t-79.5 75.5t-28.5 114.5t30.5 115t80 75.5t106.5 26.5q50 0 89.5 -14t67.5 -38l-46 -60q-18 14 -44 25t-59 11q-36 0 -66.5 -18.5t-48 -50.5t-17.5 -72q0 -38 18 -70.5t50 -51t73 -18.5q27 0 49.5 8t40.5 22z" />
    <glyph glyph-name="d" unicode="d" horiz-adv-x="593" 
d="M249 -10q-57 0 -103.5 27.5t-73.5 78t-27 116.5q0 69 28.5 118t77.5 75t110 26q49 0 93.5 -21t69.5 -58l-4 -33v455h92v-774h-93v103l10 -26q-29 -38 -75 -62.5t-105 -24.5zM278 69q37 0 66 13.5t48 37.5t27 57v78q-8 30 -28.5 52.5t-49 36t-63.5 13.5q-38 0 -69.5 -18.5
t-50.5 -50.5t-19 -74q0 -41 19 -73.5t51 -52t69 -19.5z" />
    <glyph glyph-name="e" unicode="e" horiz-adv-x="520" 
d="M273 -10q-71 0 -122 28.5t-78.5 78t-27.5 113.5q0 61 31 111t83 80t116 30q82 0 136 -48t73 -132l-341 -120l-22 55l280 102l-20 -13q-12 33 -40 57.5t-73 24.5q-38 0 -68 -18.5t-47 -50.5t-17 -73q0 -43 18 -75.5t49.5 -51t71.5 -18.5q27 0 52.5 10t47.5 26l43 -69
q-31 -21 -69.5 -34t-75.5 -13z" />
    <glyph glyph-name="f" unicode="f" horiz-adv-x="379" 
d="M115 0v331h-71v83h71v175q0 90 40.5 138t119.5 48q21 0 46.5 -6t44.5 -20l-39 -67q-9 9 -20 12.5t-22 3.5q-37 0 -57 -25t-20 -85v-174h131v-83h-131v-331h-93z" />
    <glyph glyph-name="g" unicode="g" horiz-adv-x="598" 
d="M280 -205q-46 0 -81 10.5t-63.5 29.5t-54.5 43l54 63q33 -31 67 -48t76 -17q47 0 79.5 15.5t49.5 43t17 63.5l1 112l8 -18q-18 -43 -65 -72.5t-114 -29.5q-57 0 -104.5 29t-76 78.5t-28.5 111.5q0 65 30 114.5t79 78.5t107 29q55 0 100.5 -22.5t66.5 -57.5l-5 -17l10 80
h85v-417q0 -56 -29 -102t-82 -73t-127 -27zM138 211q0 -40 19 -73t51.5 -52t72.5 -19q37 0 66.5 13.5t49.5 37t28 54.5v82q-9 30 -30 52.5t-50 35t-64 12.5q-40 0 -72.5 -18t-51.5 -50.5t-19 -74.5z" />
    <glyph glyph-name="h" unicode="h" horiz-adv-x="553" 
d="M81 0v774h91v-456l-2 17q21 41 64.5 68t102.5 27t96.5 -34.5t38.5 -89.5v-306h-94v273q-1 34 -19.5 55.5t-57.5 21.5q-36 0 -65 -20.5t-45.5 -55.5t-16.5 -80v-194h-93z" />
    <glyph glyph-name="i" unicode="i" horiz-adv-x="254" 
d="M81 414h93v-414h-93v414zM74 564q0 22 17.5 37t38.5 15t37.5 -15t16.5 -37q0 -23 -16.5 -37.5t-37.5 -14.5t-38.5 15t-17.5 37z" />
    <glyph glyph-name="j" unicode="j" horiz-adv-x="259" 
d="M86 -199l-55 57q28 24 44 59.5t16 83.5v413h94v-417q0 -70 -23.5 -118.5t-75.5 -77.5zM83 564q0 22 17.5 37t38.5 15t37.5 -15t16.5 -37q0 -23 -16.5 -37.5t-37.5 -14.5t-38.5 15t-17.5 37z" />
    <glyph glyph-name="k" unicode="k" horiz-adv-x="498" 
d="M81 0v774h93v-774h-93zM274 275l190 -275h-109l-143 223zM145 132l-9 89l251 202l57 -49z" />
    <glyph glyph-name="l" unicode="l" horiz-adv-x="254" 
d="M81 774h93v-774h-93v774z" />
    <glyph glyph-name="m" unicode="m" horiz-adv-x="825" 
d="M164 414l8 -93l-4 8q23 47 65.5 74t97.5 27q35 0 62 -11t44.5 -31.5t22.5 -50.5l-5 -3q24 45 66.5 70.5t89.5 25.5q61 0 96.5 -34.5t36.5 -89.5v-306h-93v273q-1 32 -15.5 53.5t-50.5 23.5q-36 0 -64.5 -22t-44.5 -56.5t-17 -74.5v-197h-93v273q-1 32 -16.5 53.5
t-51.5 23.5q-37 0 -65 -22t-43.5 -57t-15.5 -75v-196h-93v414h83z" />
    <glyph glyph-name="n" unicode="n" horiz-adv-x="553" 
d="M164 414l8 -101l-4 16q20 46 65 73.5t104 27.5t96.5 -34.5t38.5 -89.5v-306h-94v273q-1 34 -19.5 55.5t-57.5 21.5q-36 0 -65 -20t-45.5 -55t-16.5 -81v-194h-93v414h83z" />
    <glyph glyph-name="o" unicode="o" horiz-adv-x="545" 
d="M45 211q0 62 29.5 112t81.5 79t118 29q68 0 119 -29t79 -79t28 -112t-28 -112.5t-79.5 -79.5t-119.5 -29q-66 0 -117.5 27.5t-81 77t-29.5 116.5zM138 210q0 -40 18 -72.5t48.5 -51.5t67.5 -19q39 0 69.5 19t47.5 51.5t17 72.5t-17 72.5t-47.5 52t-69.5 19.5
q-38 0 -68.5 -20t-48 -52.5t-17.5 -71.5z" />
    <glyph glyph-name="p" unicode="p" horiz-adv-x="593" 
d="M325 -10q-47 0 -90.5 22t-67.5 59l6 29v-299h-92v619h80l13 -106l-10 29q30 38 76 63t103 25q58 0 104.5 -28t73.5 -78t27 -117t-29 -116t-79.5 -75.5t-114.5 -26.5zM307 64q40 0 73.5 18.5t53.5 51t20 73.5q0 42 -19 74.5t-50.5 51.5t-70.5 19q-36 0 -65 -14t-48 -38.5
t-27 -56.5v-69q5 -32 24 -57t47.5 -39t61.5 -14z" />
    <glyph glyph-name="q" unicode="q" horiz-adv-x="593" 
d="M247 -10q-55 0 -101 27t-73.5 75.5t-27.5 114.5q0 68 29.5 118t79 78t108.5 28q56 0 99 -24.5t69 -63.5l-11 -29v106h93v-619h-92v305l4 -39q-24 -34 -71 -55.5t-106 -21.5zM278 64q36 0 66 14t49.5 38.5t25.5 56.5v70q-8 32 -27 56.5t-48 38.5t-66 14t-69 -19t-51 -52
t-19 -74t19 -73t51 -51t69 -19z" />
    <glyph glyph-name="r" unicode="r" horiz-adv-x="376" 
d="M164 414l9 -120l-5 16q16 38 46.5 64.5t64 41t58.5 14.5l-5 -92q-47 3 -82.5 -18t-56 -56t-20.5 -75v-189h-92v414h83z" />
    <glyph glyph-name="s" unicode="s" horiz-adv-x="407" 
d="M197 -8q-44 0 -85.5 15.5t-68.5 46.5l39 54q26 -25 53.5 -37.5t54.5 -12.5q20 0 37 5t27.5 16.5t10.5 31.5q0 22 -14.5 35t-37 21t-47.5 15q-51 17 -78 47t-27 73q0 33 16.5 61.5t49 46.5t80.5 18q43 0 77 -10.5t64 -34.5l-37 -58q-18 19 -43 28t-45 10q-17 1 -32.5 -5
t-25.5 -17t-10 -26q0 -21 14 -34t36.5 -20.5t44.5 -15.5q31 -9 55 -24t38.5 -37t14.5 -55q0 -37 -17.5 -68.5t-53 -50t-90.5 -18.5z" />
    <glyph glyph-name="t" unicode="t" horiz-adv-x="359" 
d="M121 596h93v-184h114v-73h-114v-339h-93v339h-76v73h76v184z" />
    <glyph glyph-name="u" unicode="u" horiz-adv-x="546" 
d="M212 -16q-56 0 -92.5 34.5t-38.5 89.5v306h93v-273q2 -34 19.5 -55t55.5 -22q35 0 62.5 20.5t44.5 56t17 80.5v193h93v-414h-85l-8 102l5 -18q-12 -29 -36.5 -51.5t-57.5 -35.5t-72 -13z" />
    <glyph glyph-name="v" unicode="v" horiz-adv-x="494" 
d="M249 -12l-230 426h110l156 -329l-57 2l143 327h104l-221 -426h-5z" />
    <glyph glyph-name="w" unicode="w" horiz-adv-x="674" 
d="M346 414l122 -279l-18 -2l114 281h91l-190 -439l-133 284l-121 -284l-192 439h91l129 -292l-32 6l92 214l-33 72h80z" />
    <glyph glyph-name="x" unicode="x" horiz-adv-x="465" 
d="M237 260l99 154h94l-159 -222zM446 0h-112l-315 414h115zM227 154l-109 -154h-94l158 216z" />
    <glyph glyph-name="y" unicode="y" horiz-adv-x="494" 
d="M116 -199l273 613h86l-267 -613h-92zM218 -3l-199 417h105l167 -370z" />
    <glyph glyph-name="z" unicode="z" horiz-adv-x="463" 
d="M119 338q-31 0 -53 19t-22 57v39h71v-13q0 -16 8 -21t26 -5h265l-248 -357l-18 20h263v-77h-383l253 364l16 -26h-178z" />
    <glyph glyph-name="braceleft" unicode="{" horiz-adv-x="353" 
d="M263 673q-21 0 -32.5 -8t-16 -30t-4.5 -66v-117q0 -47 -10.5 -77t-25.5 -46.5t-30 -25.5q14 -9 29 -25.5t26 -43.5t11 -68v-131q0 -43 4.5 -65.5t16 -30.5t32.5 -8h44v-82h-64q-25 0 -48 1.5t-41.5 12.5t-29.5 38.5t-11 80.5v158q0 29 -8 57t-25.5 47t-46.5 19v0v82
q29 1 46.5 19.5t25.5 47t8 57.5v166q0 47 11 72t29.5 35t42 11.5t47.5 1.5h64v-82h-44z" />
    <glyph glyph-name="bar" unicode="|" horiz-adv-x="274" 
d="M92 709h85v-944h-85v944z" />
    <glyph glyph-name="braceright" unicode="}" horiz-adv-x="371" 
d="M109 -69q21 0 32 8t15.5 30.5t4.5 65.5v131q0 42 11.5 69t27 43t27.5 23q-12 10 -28 26t-27 43.5t-11 68.5v131q0 44 -4.5 66t-15.5 29.5t-32 7.5h-45v82h63q24 0 47 -1t42 -11t30.5 -35t11.5 -72v-158q0 -20 3.5 -43.5t12 -44.5t24.5 -34.5t40 -14.5v0v-82
q-24 0 -40 -14t-24.5 -34.5t-12 -44t-3.5 -44.5v-153q0 -47 -11 -72t-30 -35t-42 -11.5t-48 -1.5h-63v82h45z" />
    <glyph glyph-name="asciitilde" unicode="~" horiz-adv-x="426" 
d="M297 436q-37 0 -60.5 16.5t-43.5 33.5q-13 13 -26.5 23t-30.5 10q-14 0 -24.5 -10t-16 -29.5t-4.5 -44.5h-58q-3 44 9.5 79.5t38.5 56t61 20.5q29 0 50.5 -16t40.5 -33q15 -15 30 -26.5t31 -11.5q15 0 24 11t13 31t4 46l58 -1q5 -47 -7 -82t-35.5 -54t-53.5 -19z" />
    <glyph glyph-name="uni00A0" unicode="&#xa0;" horiz-adv-x="316" 
 />
    <glyph glyph-name="exclamdown" unicode="&#xa1;" horiz-adv-x="202" 
d="M57 -212h84v572h-84v-572zM101 543q-25 0 -42 -15t-17 -38t17 -38.5t42 -15.5q26 0 42.5 15.5t16.5 38.5t-16.5 38t-42.5 15z" />
    <glyph glyph-name="cent" unicode="&#xa2;" horiz-adv-x="456" 
d="M237 481h58v-549h-58v549zM417 38q-28 -22 -67 -35t-78 -13q-68 0 -119 27t-79.5 75.5t-28.5 114.5t30.5 115t80 75.5t106.5 26.5q50 0 89.5 -14t67.5 -38l-46 -60q-18 14 -44 25t-59 11q-36 0 -66.5 -18.5t-48 -50.5t-17.5 -72q0 -38 18 -70.5t50 -51t73 -18.5
q27 0 49.5 8t40.5 22z" />
    <glyph glyph-name="sterling" unicode="&#xa3;" horiz-adv-x="632" 
d="M389 384v-94h-301v94h301zM154 538q0 47 26 83.5t73 57t110 20.5q71 0 118 -27.5t72 -74.5l-70 -48q-10 15 -24 28t-36 21t-59 8q-41 0 -66 -12t-36.5 -35t-11.5 -55v-305v-22q0 -14 -1.5 -31.5t-7 -33t-16.5 -25.5l-14 6h216q36 0 52.5 10t16.5 34v42l85 1v-65
q0 -25 -6.5 -46t-21.5 -36.5t-40.5 -24t-64.5 -8.5h-392v93h45q22 0 33 7.5t15.5 29.5t4.5 65v343z" />
    <glyph glyph-name="currency" unicode="&#xa4;" horiz-adv-x="504" 
d="M376 443q26 -37 26 -82q0 -24 -7.5 -45.5t-20.5 -39.5l30 -30l-40 -40q-8 7 -15.5 15t-16.5 16q-35 -25 -82 -25q-23 0 -43.5 6.5t-37.5 17.5v0l-31 -31l-41 40l30 30q-12 18 -19 40t-7 46v0q0 23 6.5 43.5t18.5 38.5q-8 7 -14.5 14t-14.5 15l41 40l29 -29q18 12 39 19.5
t44 7.5q24 0 45 -7.5t39 -19.5v0l29 29l41 -41zM158 361q0 -26 13 -47t34 -33.5t46 -12.5q26 0 47 12.5t33.5 33.5t12.5 47t-13 47t-33.5 33.5t-46.5 12.5q-25 0 -46.5 -12.5t-34 -33.5t-12.5 -47v0z" />
    <glyph glyph-name="yen" unicode="&#xa5;" horiz-adv-x="691" 
d="M165 301h368v-76h-368v76zM166 154h366v-77h-366v77zM296 303l-268 420h119l215 -337l-30 -3l213 340h118l-270 -420v-303h-97v303z" />
    <glyph glyph-name="brokenbar" unicode="&#xa6;" horiz-adv-x="217" 
d="M70 709h84v-355h-84v355zM70 118h84v-354h-84v354z" />
    <glyph glyph-name="section" unicode="&#xa7;" horiz-adv-x="571" 
d="M370 137l-34 35q44 -4 80.5 -22t58.5 -49.5t22 -78.5q0 -53 -28.5 -97t-78.5 -70t-114 -26q-45 0 -86.5 9.5t-77 26.5t-62.5 38l48 80q28 -21 56.5 -36.5t57.5 -23.5t58 -8q34 0 62.5 11t46 32.5t17.5 50.5q0 31 -19.5 49t-50.5 29.5t-66 19.5q-33 9 -67 21.5t-62 32
t-45 47.5t-17 68q0 52 26 86.5t67 51t85 14.5l-8 -34q-50 16 -83 39.5t-48.5 55t-15.5 68.5q0 32 12.5 63t38.5 56.5t65 40t92 14.5q55 0 105 -17t88 -45l-41 -72q-36 26 -71 38t-71 13q-39 0 -65 -11t-39 -29t-13 -39q0 -28 19 -46.5t51 -30.5t71 -22q33 -8 66 -20
t60.5 -31t44 -47.5t16.5 -70.5q0 -58 -39 -103.5t-112 -60.5zM427 284q1 29 -19.5 48.5t-51 32t-62.5 18.5q-59 2 -94 -23t-37 -61q0 -32 18.5 -53t50.5 -34.5t72 -24.5q28 3 56 14.5t47 32.5t20 50z" />
    <glyph glyph-name="dieresis" unicode="&#xa8;" horiz-adv-x="415" 
d="M62 527q0 22 16 37.5t36 15.5q19 0 35.5 -15.5t16.5 -38.5t-16.5 -37.5t-35.5 -14.5q-20 0 -36 15t-16 38v0zM249 527q0 22 16.5 37.5t36.5 15.5q18 0 34.5 -15.5t16.5 -38.5t-16.5 -37.5t-34.5 -14.5q-20 0 -36.5 15t-16.5 38v0z" />
    <glyph glyph-name="copyright" unicode="&#xa9;" horiz-adv-x="847" 
d="M566 202q-22 -21 -58 -38.5t-82 -16.5q-51 1 -92.5 27t-65 68.5t-23.5 92.5q0 56 23.5 99t66.5 68t99 25q20 0 41 -3.5t41.5 -11t34.5 -20.5l-37 -71q-16 14 -34.5 19t-38.5 5q-29 0 -51.5 -15t-35.5 -39t-13 -53t12.5 -53t35 -39t52.5 -15q22 0 43.5 8.5t38.5 26.5z
M423 -1q-70 0 -131.5 25t-108.5 70.5t-73.5 106.5t-26.5 133q0 73 26.5 134.5t73.5 106.5t108.5 70t132.5 25q70 0 131.5 -25t108.5 -70t73.5 -106.5t26.5 -134.5q0 -72 -26 -133t-72.5 -106.5t-108 -70.5t-134.5 -25zM423 75q73 0 131.5 33.5t93 92.5t34.5 132
q0 77 -34.5 135.5t-93 92.5t-131.5 34q-72 0 -131 -34t-93.5 -93t-34.5 -135q0 -74 32.5 -132.5t91 -92t135.5 -33.5z" />
    <glyph glyph-name="ordfeminine" unicode="&#xaa;" horiz-adv-x="400" 
d="M165 422q-37 0 -67 17t-47.5 50.5t-17.5 81.5t18 82t48 52.5t64 18.5q40 0 67 -15.5t41 -40.5l-5 -15l6 61h66v-286h-71v70l8 -14q-5 -10 -20 -25t-37.5 -26t-52.5 -11zM187 480q21 0 37.5 9t28 25t14.5 37v49q-7 28 -29 47t-52 19q-34 0 -57.5 -25t-23.5 -67
q0 -26 11 -47.5t29.5 -34t41.5 -12.5z" />
    <glyph glyph-name="guillemotleft" unicode="&#xab;" horiz-adv-x="606" 
d="M53 242q5 5 22 19.5t40.5 34t49 40.5t49 41t40.5 34t22 19v-85q-6 -6 -22 -20.5t-34.5 -30.5t-33.5 -30.5t-22 -21.5q7 -7 22 -21.5t33.5 -31t34.5 -31t22 -21.5v-84zM274 242q5 5 22 19.5t40 34t49 40.5t49.5 41t40.5 34t22 19v-85q-7 -6 -22.5 -20.5t-34 -30.5
t-33.5 -30.5t-22 -21.5q7 -7 22 -21.5t33.5 -31t34 -31t22.5 -21.5v-84z" />
    <glyph glyph-name="logicalnot" unicode="&#xac;" horiz-adv-x="501" 
d="M69 296h364v-184h-97v91h-267v93z" />
    <glyph glyph-name="uni00AD" unicode="&#xad;" horiz-adv-x="600" 
d="M53 256h187v-82h-187v82z" />
    <glyph glyph-name="registered" unicode="&#xae;" horiz-adv-x="486" 
d="M243 303q-58 0 -106.5 27t-77 74.5t-28.5 107.5t28.5 107t77 74t106.5 27q59 0 107 -27t76.5 -74t28.5 -107t-28.5 -107t-76.5 -74.5t-107 -27.5zM242 356q44 0 79.5 20t56 55.5t20.5 80.5t-20.5 80.5t-56 56t-79.5 20.5q-43 0 -78.5 -20.5t-56 -56t-20.5 -80.5
t20.5 -80.5t56 -55.5t78.5 -20zM167 621h84q36 0 56 -17.5t20 -50.5q0 -27 -17.5 -49t-55.5 -22h-34v-74h-53v213zM240 523q18 0 24.5 8t6.5 20q0 13 -7.5 21.5t-21.5 8.5h-22v-58h20zM288 494l40 -86h-60l-34 85z" />
    <glyph glyph-name="macron" unicode="&#xaf;" horiz-adv-x="371" 
d="M63 537h246v-66h-246v66z" />
    <glyph glyph-name="degree" unicode="&#xb0;" horiz-adv-x="285" 
d="M37 567q0 28 13.5 51.5t37 36.5t52.5 13q28 0 50.5 -13.5t36 -36.5t13.5 -51t-13.5 -51.5t-36 -36.5t-50.5 -13q-29 0 -52.5 13t-37 36.5t-13.5 51.5v0zM140 517q20 0 35 14.5t15 35.5q0 19 -15 34t-35 15q-21 0 -35 -14.5t-14 -35.5q0 -20 14.5 -34.5t34.5 -14.5v0z" />
    <glyph glyph-name="plusminus" unicode="&#xb1;" horiz-adv-x="531" 
d="M227 578h85v-142h139v-81h-139v-142h-85v142h-140v81h140v142zM87 171h364v-82h-364v82z" />
    <glyph glyph-name="uni00B2" unicode="&#xb2;" horiz-adv-x="403" 
d="M68 636q17 25 54 42t76 17q61 -1 98 -34t37 -92q0 -40 -20.5 -75.5t-52.5 -66t-65.5 -57.5t-59.5 -49l12 63h201v-78h-272v51q25 18 52.5 39.5t52 45.5t40 50t15.5 52q0 39 -16.5 55.5t-45.5 16.5q-24 0 -45 -12t-32 -29z" />
    <glyph glyph-name="uni00B3" unicode="&#xb3;" horiz-adv-x="390" 
d="M165 303q-40 0 -67.5 15.5t-42.5 31.5l27 54q10 -10 28.5 -25t44.5 -14q30 0 48.5 18.5t18.5 52.5q0 36 -20 52t-48 16q-18 0 -29.5 -3t-19.5 -7l-5 9l89 133l21 -16h-141v68h220l-104 -179l-61 16q12 10 28.5 17t38.5 7q27 1 53.5 -11.5t44.5 -37.5t18 -61
q0 -38 -17.5 -69t-49.5 -49t-75 -18z" />
    <glyph glyph-name="acute" unicode="&#xb4;" horiz-adv-x="276" 
d="M231 619l-127 -134h-59l83 134h103z" />
    <glyph glyph-name="uni00B5" unicode="&#xb5;" horiz-adv-x="546" 
d="M212 -16q-52 0 -86.5 31.5t-40.5 80.5l89 -9v-288h-93v310v305h93v-273q2 -34 19.5 -55t55.5 -22q35 0 62.5 20.5t44.5 56t17 80.5v193h93v-414h-85l-8 106l4 -22q-12 -28 -36 -51t-57 -36t-72 -13z" />
    <glyph glyph-name="paragraph" unicode="&#xb6;" horiz-adv-x="554" 
d="M203 428q-45 0 -82.5 22.5t-60 60t-22.5 82.5q0 47 22.5 84.5t60 59.5t82.5 22h249v-759h-83v678h-82v-678h-84v428z" />
    <glyph glyph-name="periodcentered" unicode="&#xb7;" horiz-adv-x="170" 
d="M34 286q0 22 16.5 37.5t36.5 15.5q18 0 34.5 -15.5t16.5 -37.5q0 -24 -16.5 -38.5t-34.5 -14.5q-20 0 -36.5 14.5t-16.5 38.5v0z" />
    <glyph glyph-name="cedilla" unicode="&#xb8;" horiz-adv-x="402" 
d="M112 -154q11 -11 28 -18.5t39 -7.5q26 0 47 11.5t21 33.5q0 17 -14 31.5t-51 14.5q-16 0 -34 -4t-31 -9l-17 45l70 65l71 -4l-72 -84l-22 23q11 5 27 7.5t31 3.5q53 1 87 -21t34 -66q0 -34 -19.5 -55.5t-50.5 -32t-68 -10.5t-63.5 11.5t-42.5 26.5z" />
    <glyph glyph-name="uni00B9" unicode="&#xb9;" horiz-adv-x="270" 
d="M45 660h147v-372h-87v289h-60v83z" />
    <glyph glyph-name="ordmasculine" unicode="&#xba;" horiz-adv-x="377" 
d="M33 571q0 43 20 77t55.5 54t80.5 20q46 0 81 -20t54.5 -54t19.5 -77t-19.5 -77.5t-54.5 -54.5t-81 -20q-45 0 -80.5 19t-55.5 53t-20 80zM106 570q0 -24 11 -44.5t29.5 -32t41.5 -11.5q24 0 43 11.5t29.5 32t10.5 44.5q0 25 -11 45t-29.5 32t-42.5 12t-42 -12.5
t-29 -32.5t-11 -44z" />
    <glyph glyph-name="guillemotright" unicode="&#xbb;" horiz-adv-x="606" 
d="M538 242q-5 5 -22 19.5t-40.5 34t-49.5 40.5t-49.5 41t-40 34t-22.5 19v-85q7 -6 22.5 -20.5t34 -30.5t33.5 -30.5t22 -21.5q-7 -7 -22 -21.5t-33.5 -31t-34 -31t-22.5 -21.5v-84zM317 242q-5 5 -22 19.5t-40.5 34t-49 40.5t-49 41t-40.5 34t-22 19v-85q6 -6 21.5 -20.5
t34 -30.5t34 -30.5t21.5 -21.5q-6 -7 -21.5 -21.5t-34 -31t-34 -31t-21.5 -21.5v-84z" />
    <glyph glyph-name="onequarter" unicode="&#xbc;" horiz-adv-x="811" 
d="M637 684l-407 -684h-88l407 684h88zM49 660h146v-372h-87v289h-59v83zM776 153v-53h-297l-2 24l198 256h57v-380h-81v283l21 1l-126 -164l-13 33h243z" />
    <glyph glyph-name="onehalf" unicode="&#xbd;" horiz-adv-x="876" 
d="M49 663h147v-372h-87v289h-60v83zM528 324q17 25 54 42t76 17q61 -1 98 -34t37 -92q0 -40 -20.5 -75.5t-52.5 -66t-65.5 -57.5t-59.5 -49l12 63h201v-78h-272v51q25 18 52.5 39.5t52 45.5t40 50t15.5 52q0 39 -16.5 55.5t-45.5 16.5q-24 0 -45 -12t-32 -29zM629 685
l-407 -685h-87l407 685h87z" />
    <glyph glyph-name="threequarters" unicode="&#xbe;" horiz-adv-x="824" 
d="M160 303q-40 0 -67.5 15.5t-42.5 31.5l27 54q10 -10 28.5 -25t44.5 -14q30 0 48.5 18.5t18.5 52.5q0 36 -20 52t-48 16q-18 0 -29.5 -3t-19.5 -7l-5 9l89 133l21 -16h-141v68h220l-104 -179l-61 16q12 10 28.5 17t38.5 7q27 1 53.5 -11.5t44.5 -37.5t18 -61
q0 -38 -17.5 -69t-49.5 -49t-75 -18zM658 685l-407 -685h-87l407 685h87zM770 154v-54h-297l-1 25l197 256h57v-380h-81v282l21 2l-126 -164l-13 33h243z" />
    <glyph glyph-name="questiondown" unicode="&#xbf;" horiz-adv-x="436" 
d="M294 354v-63q0 -48 -13 -78t-33.5 -49.5t-43.5 -39.5q-31 -26 -53.5 -54t-22.5 -75q0 -33 15.5 -58t41 -39t53.5 -14q33 0 58.5 14.5t42.5 38t27 51.5l77 -36q-7 -22 -23.5 -48.5t-42.5 -50.5t-63 -39.5t-85 -15.5q-56 0 -101.5 22t-72 64t-26.5 103q0 48 14 80t36 56.5
t46 46.5q21 18 38.5 35.5t27.5 42t10 64.5v42h93zM246 535q26 0 43 -15t17 -39q0 -22 -17 -37.5t-43 -15.5q-25 0 -41.5 15.5t-16.5 37.5q0 24 16.5 39t41.5 15z" />
    <glyph glyph-name="Agrave" unicode="&#xc0;" horiz-adv-x="701" 
d="M32 0l316 753h6l315 -753h-111l-236 601l69 45l-264 -646h-95zM217 274h269l32 -84h-329zM200 919h103l73 -134h-60z" />
    <glyph glyph-name="Aacute" unicode="&#xc1;" horiz-adv-x="701" 
d="M32 0l316 753h6l315 -753h-111l-236 601l69 45l-264 -646h-95zM217 274h269l32 -84h-329zM504 914l-127 -134h-59l83 134h103z" />
    <glyph glyph-name="Acircumflex" unicode="&#xc2;" horiz-adv-x="701" 
d="M32 0l316 753h6l315 -753h-111l-236 601l69 45l-264 -646h-95zM217 274h269l32 -84h-329zM426 798l-93 98l27 6l-95 -104h-86l165 171h1l167 -171h-86z" />
    <glyph glyph-name="Atilde" unicode="&#xc3;" horiz-adv-x="701" 
d="M32 0l316 753h6l315 -753h-111l-236 601l69 45l-264 -646h-95zM217 274h269l32 -84h-329zM427 814q-32 0 -52.5 14.5t-38.5 30.5q-12 11 -24 20.5t-27 9.5q-12 0 -21.5 -9.5t-14.5 -26t-5 -40.5l-50 1q-3 39 8.5 70t34 49t53.5 18q26 0 45 -14t35 -29q14 -14 27 -24.5
t28 -10.5q20 0 28.5 21.5t8.5 57.5l50 -1q4 -41 -6.5 -72t-31.5 -48t-47 -17z" />
    <glyph glyph-name="Adieresis" unicode="&#xc4;" horiz-adv-x="701" 
d="M32 0l316 753h6l315 -753h-111l-236 601l69 45l-264 -646h-95zM217 274h269l32 -84h-329zM201 840q0 22 16 37.5t36 15.5q19 0 35.5 -15.5t16.5 -38.5t-16.5 -37.5t-35.5 -14.5q-20 0 -36 15t-16 38v0zM388 840q0 22 16.5 37.5t36.5 15.5q18 0 34.5 -15.5t16.5 -38.5
t-16.5 -37.5t-34.5 -14.5q-20 0 -36.5 15t-16.5 38v0z" />
    <glyph glyph-name="Aring" unicode="&#xc5;" horiz-adv-x="701" 
d="M32 0l316 753h6l315 -753h-111l-236 601l69 45l-264 -646h-95zM217 274h269l32 -84h-329zM259 875q0 40 26.5 64.5t67.5 24.5q39 0 66 -24.5t27 -64.5q0 -39 -27 -64t-67 -25t-66.5 25t-26.5 64zM310 874q0 -19 12 -31.5t31 -12.5q18 0 30 12.5t12 31.5q0 20 -12 32
t-30 12q-19 0 -31 -12t-12 -32z" />
    <glyph glyph-name="AE" unicode="&#xc6;" horiz-adv-x="950" 
d="M477 723h395v-94h-298v-221h257v-93h-257v-222h312v-93h-409v723zM491 615q-2 -10 -5.5 -21.5t-4.5 -13.5l-357 -580h-111l464 723zM231 256h260v-77h-289z" />
    <glyph glyph-name="Ccedilla" unicode="&#xc7;" horiz-adv-x="694" 
d="M635 54q-18 -12 -49 -27t-72.5 -25t-90.5 -10q-84 1 -151.5 30t-114.5 79t-72.5 115.5t-25.5 139.5q0 81 26.5 149.5t74.5 119t113.5 78.5t143.5 28q65 0 118 -17.5t91 -41.5l-39 -90q-30 20 -72.5 38t-94.5 18q-53 0 -100 -21t-83 -59t-56.5 -88.5t-20.5 -108.5
q0 -59 18.5 -109.5t53 -87.5t83.5 -58t110 -21q55 0 98 17t71 38zM325 -154q11 -11 28 -18.5t39 -7.5q26 0 47 11.5t21 33.5q0 17 -14 31.5t-51 14.5q-16 0 -34 -4t-31 -9l-17 45l70 65l71 -4l-72 -84l-22 23q11 5 27 7.5t31 3.5q53 1 87 -21t34 -66q0 -34 -19.5 -55.5
t-50.5 -32t-68 -10.5t-63.5 11.5t-42.5 26.5z" />
    <glyph glyph-name="Egrave" unicode="&#xc8;" horiz-adv-x="652" 
d="M104 723h470v-93h-373v-220h333v-93h-333v-224h387v-93h-484v723zM184 907h103l73 -134h-60z" />
    <glyph glyph-name="Eacute" unicode="&#xc9;" horiz-adv-x="652" 
d="M104 723h470v-93h-373v-220h333v-93h-333v-224h387v-93h-484v723zM488 901l-127 -134h-59l83 134h103z" />
    <glyph glyph-name="Ecircumflex" unicode="&#xca;" horiz-adv-x="652" 
d="M104 723h470v-93h-373v-220h333v-93h-333v-224h387v-93h-484v723zM410 785l-93 98l27 6l-95 -104h-86l165 171h1l167 -171h-86z" />
    <glyph glyph-name="Edieresis" unicode="&#xcb;" horiz-adv-x="652" 
d="M104 723h470v-93h-373v-220h333v-93h-333v-224h387v-93h-484v723zM185 828q0 22 16 37.5t36 15.5q19 0 35.5 -15.5t16.5 -38.5t-16.5 -37.5t-35.5 -14.5q-20 0 -36 15t-16 38v0zM372 828q0 22 16.5 37.5t36.5 15.5q18 0 34.5 -15.5t16.5 -38.5t-16.5 -37.5t-34.5 -14.5
q-20 0 -36.5 15t-16.5 38v0z" />
    <glyph glyph-name="Igrave" unicode="&#xcc;" horiz-adv-x="305" 
d="M104 723h97v-723h-97v723zM2 907h103l73 -134h-60z" />
    <glyph glyph-name="Iacute" unicode="&#xcd;" horiz-adv-x="305" 
d="M104 723h97v-723h-97v723zM307 901l-127 -134h-59l83 134h103z" />
    <glyph glyph-name="Icircumflex" unicode="&#xce;" horiz-adv-x="305" 
d="M104 723h97v-723h-97v723zM228 785l-93 98l27 6l-95 -104h-86l165 171h1l167 -171h-86z" />
    <glyph glyph-name="Idieresis" unicode="&#xcf;" horiz-adv-x="305" 
d="M104 723h97v-723h-97v723zM3 828q0 22 16 37.5t36 15.5q19 0 35.5 -15.5t16.5 -38.5t-16.5 -37.5t-35.5 -14.5q-20 0 -36 15t-16 38v0zM190 828q0 22 16.5 37.5t36.5 15.5q18 0 34.5 -15.5t16.5 -38.5t-16.5 -37.5t-34.5 -14.5q-20 0 -36.5 15t-16.5 38v0z" />
    <glyph glyph-name="Eth" unicode="&#xd0;" horiz-adv-x="753" 
d="M104 0v723h197q107 0 182.5 -33t121.5 -87t67.5 -119.5t21.5 -130.5q0 -82 -28.5 -147t-78.5 -111t-114.5 -70.5t-136.5 -24.5h-232zM201 93h116q60 0 110.5 18t88 52t58.5 83.5t21 112.5q0 67 -22 117.5t-60 84.5t-86 51.5t-101 17.5h-125v-537zM17 402h277v-87h-277v87
z" />
    <glyph glyph-name="Ntilde" unicode="&#xd1;" horiz-adv-x="837" 
d="M730 -23l-559 567l28 -7l2 -537h-97v745h5l553 -569l-23 5l-2 542h96v-746h-3zM483 789q-32 0 -52.5 14.5t-38.5 30.5q-12 11 -24 20.5t-27 9.5q-12 0 -21.5 -9.5t-14.5 -26t-5 -40.5l-50 1q-3 39 8.5 70t34 49t53.5 18q26 0 45 -14t35 -29q14 -14 27 -24.5t28 -10.5
q20 0 28.5 21.5t8.5 57.5l50 -1q4 -41 -6.5 -72t-31.5 -48t-47 -17z" />
    <glyph glyph-name="Ograve" unicode="&#xd2;" horiz-adv-x="857" 
d="M59 361q0 75 28.5 141.5t79.5 118t117.5 81t143.5 29.5q76 0 142.5 -29.5t118 -81t80.5 -118t29 -141.5q0 -77 -29 -144t-80.5 -117.5t-118 -79t-142.5 -28.5q-77 0 -143.5 28t-117.5 78t-79.5 117t-28.5 146zM159 360q0 -57 21 -106.5t58 -87.5t86 -59.5t106 -21.5
q56 0 105 21.5t85 59.5t57 87.5t21 107.5q0 57 -21 107.5t-58 88.5t-86 59.5t-105 21.5q-57 0 -106 -22t-86 -60t-57 -88.5t-20 -107.5zM278 901h103l73 -134h-60z" />
    <glyph glyph-name="Oacute" unicode="&#xd3;" horiz-adv-x="857" 
d="M59 361q0 75 28.5 141.5t79.5 118t117.5 81t143.5 29.5q76 0 142.5 -29.5t118 -81t80.5 -118t29 -141.5q0 -77 -29 -144t-80.5 -117.5t-118 -79t-142.5 -28.5q-77 0 -143.5 28t-117.5 78t-79.5 117t-28.5 146zM159 360q0 -57 21 -106.5t58 -87.5t86 -59.5t106 -21.5
q56 0 105 21.5t85 59.5t57 87.5t21 107.5q0 57 -21 107.5t-58 88.5t-86 59.5t-105 21.5q-57 0 -106 -22t-86 -60t-57 -88.5t-20 -107.5zM582 895l-127 -134h-59l83 134h103z" />
    <glyph glyph-name="Ocircumflex" unicode="&#xd4;" horiz-adv-x="857" 
d="M59 361q0 75 28.5 141.5t79.5 118t117.5 81t143.5 29.5q76 0 142.5 -29.5t118 -81t80.5 -118t29 -141.5q0 -77 -29 -144t-80.5 -117.5t-118 -79t-142.5 -28.5q-77 0 -143.5 28t-117.5 78t-79.5 117t-28.5 146zM159 360q0 -57 21 -106.5t58 -87.5t86 -59.5t106 -21.5
q56 0 105 21.5t85 59.5t57 87.5t21 107.5q0 57 -21 107.5t-58 88.5t-86 59.5t-105 21.5q-57 0 -106 -22t-86 -60t-57 -88.5t-20 -107.5zM504 779l-93 98l27 6l-95 -104h-86l165 171h1l167 -171h-86z" />
    <glyph glyph-name="Otilde" unicode="&#xd5;" horiz-adv-x="857" 
d="M59 361q0 75 28.5 141.5t79.5 118t117.5 81t143.5 29.5q76 0 142.5 -29.5t118 -81t80.5 -118t29 -141.5q0 -77 -29 -144t-80.5 -117.5t-118 -79t-142.5 -28.5q-77 0 -143.5 28t-117.5 78t-79.5 117t-28.5 146zM159 360q0 -57 21 -106.5t58 -87.5t86 -59.5t106 -21.5
q56 0 105 21.5t85 59.5t57 87.5t21 107.5q0 57 -21 107.5t-58 88.5t-86 59.5t-105 21.5q-57 0 -106 -22t-86 -60t-57 -88.5t-20 -107.5zM505 795q-32 0 -52.5 14.5t-38.5 30.5q-12 11 -24 20.5t-27 9.5q-12 0 -21.5 -9.5t-14.5 -26t-5 -40.5l-50 1q-3 39 8.5 70t34 49
t53.5 18q26 0 45 -14t35 -29q14 -14 27 -24.5t28 -10.5q20 0 28.5 21.5t8.5 57.5l50 -1q4 -41 -6.5 -72t-31.5 -48t-47 -17z" />
    <glyph glyph-name="Odieresis" unicode="&#xd6;" horiz-adv-x="857" 
d="M59 361q0 75 28.5 141.5t79.5 118t117.5 81t143.5 29.5q76 0 142.5 -29.5t118 -81t80.5 -118t29 -141.5q0 -77 -29 -144t-80.5 -117.5t-118 -79t-142.5 -28.5q-77 0 -143.5 28t-117.5 78t-79.5 117t-28.5 146zM159 360q0 -57 21 -106.5t58 -87.5t86 -59.5t106 -21.5
q56 0 105 21.5t85 59.5t57 87.5t21 107.5q0 57 -21 107.5t-58 88.5t-86 59.5t-105 21.5q-57 0 -106 -22t-86 -60t-57 -88.5t-20 -107.5zM279 821q0 22 16 37.5t36 15.5q19 0 35.5 -15.5t16.5 -38.5t-16.5 -37.5t-35.5 -14.5q-20 0 -36 15t-16 38v0zM466 821q0 22 16.5 37.5
t36.5 15.5q18 0 34.5 -15.5t16.5 -38.5t-16.5 -37.5t-34.5 -14.5q-20 0 -36.5 15t-16.5 38v0z" />
    <glyph glyph-name="multiply" unicode="&#xd7;" horiz-adv-x="517" 
d="M278 240q24 24 47.5 47t47.5 48q17 -17 34.5 -36t34.5 -36l-46.5 -46.5t-45.5 -47.5q24 -24 47 -48t48 -49l-74 -72q-23 24 -47.5 47.5t-49.5 47.5q-22 -23 -46 -46.5t-47 -47.5q-18 18 -36 35.5t-35 35.5q24 24 47.5 47t47.5 48l-97 96l72 74z" />
    <glyph glyph-name="Oslash" unicode="&#xd8;" horiz-adv-x="857" 
d="M753 687l-599 -701l-61 55l600 702zM59 361q0 75 28.5 141.5t79.5 118t117.5 81t143.5 29.5q76 0 142.5 -29.5t118 -81t80.5 -118t29 -141.5q0 -77 -29 -144t-80.5 -117.5t-118 -79t-142.5 -28.5q-77 0 -143.5 28t-117.5 78t-79.5 117t-28.5 146zM159 360
q0 -57 21 -106.5t58 -87.5t86 -59.5t106 -21.5q56 0 105 21.5t85 59.5t57 87.5t21 107.5q0 57 -21 107.5t-58 88.5t-86 59.5t-105 21.5q-57 0 -106 -22t-86 -60t-57 -88.5t-20 -107.5z" />
    <glyph glyph-name="Ugrave" unicode="&#xd9;" horiz-adv-x="731" 
d="M191 256q0 -49 23.5 -87.5t62.5 -60.5t88 -22q51 0 91 22t63 60.5t23 87.5v467h95v-470q0 -79 -36.5 -138t-98 -91t-137.5 -32v0q-76 0 -137 32t-97 91t-36 138v470h96v-467zM215 907h103l73 -134h-60z" />
    <glyph glyph-name="Uacute" unicode="&#xda;" horiz-adv-x="731" 
d="M191 256q0 -49 23.5 -87.5t62.5 -60.5t88 -22q51 0 91 22t63 60.5t23 87.5v467h95v-470q0 -79 -36.5 -138t-98 -91t-137.5 -32v0q-76 0 -137 32t-97 91t-36 138v470h96v-467zM520 901l-127 -134h-59l83 134h103z" />
    <glyph glyph-name="Ucircumflex" unicode="&#xdb;" horiz-adv-x="731" 
d="M191 256q0 -49 23.5 -87.5t62.5 -60.5t88 -22q51 0 91 22t63 60.5t23 87.5v467h95v-470q0 -79 -36.5 -138t-98 -91t-137.5 -32v0q-76 0 -137 32t-97 91t-36 138v470h96v-467zM441 785l-93 98l27 6l-95 -104h-86l165 171h1l167 -171h-86z" />
    <glyph glyph-name="Udieresis" unicode="&#xdc;" horiz-adv-x="731" 
d="M191 256q0 -49 23.5 -87.5t62.5 -60.5t88 -22q51 0 91 22t63 60.5t23 87.5v467h95v-470q0 -79 -36.5 -138t-98 -91t-137.5 -32v0q-76 0 -137 32t-97 91t-36 138v470h96v-467zM216 828q0 22 16 37.5t36 15.5q19 0 35.5 -15.5t16.5 -38.5t-16.5 -37.5t-35.5 -14.5
q-20 0 -36 15t-16 38v0zM403 828q0 22 16.5 37.5t36.5 15.5q18 0 34.5 -15.5t16.5 -38.5t-16.5 -37.5t-34.5 -14.5q-20 0 -36.5 15t-16.5 38v0z" />
    <glyph glyph-name="Yacute" unicode="&#xdd;" horiz-adv-x="691" 
d="M296 241l-268 482h119l215 -399l-30 -2l213 401h118l-270 -482v-241h-97v241zM512 899l-127 -134h-59l83 134h103z" />
    <glyph glyph-name="Thorn" unicode="&#xde;" horiz-adv-x="595" 
d="M315 586q54 0 97.5 -14.5t73.5 -43t46.5 -70t16.5 -96.5q0 -43 -12.5 -84t-39 -74.5t-72 -54t-111.5 -20.5h-110v-129h-100v718h100v-132h111zM305 223q40 0 67 12t44 32.5t25 44.5t8 48q0 35 -15.5 65t-47 49t-80.5 19h-102v-270h101z" />
    <glyph glyph-name="germandbls" unicode="&#xdf;" horiz-adv-x="601" 
d="M109 452q0 67 27 114.5t73.5 73t104.5 25.5q62 0 104.5 -19.5t64 -51.5t21.5 -70q0 -43 -19 -77.5t-56 -52.5q36 -13 64 -38.5t43.5 -64.5t15.5 -95q0 -65 -25.5 -111t-70 -70t-102.5 -24q-41 0 -70 11.5t-44 23.5l37 57q16 -12 32.5 -17t34.5 -5q37 0 62.5 19t39 51
t13.5 70q0 45 -15.5 78t-43.5 50.5t-66 16.5h-5l-1 82q36 0 59 20.5t23 54.5q0 25 -11 44.5t-32 30.5t-52 11q-61 0 -87 -44t-26 -122v-423h-93v343h-65v77h65v32z" />
    <glyph glyph-name="agrave" unicode="&#xe0;" horiz-adv-x="586" 
d="M253 -10q-58 0 -105.5 25t-75 73.5t-27.5 118.5q0 69 29 119.5t77.5 77.5t106.5 27t98 -26.5t61 -62.5l-6 -16l9 88h86v-414h-93v108l10 -24q-4 -10 -17.5 -25.5t-36 -31.5t-51.5 -26.5t-65 -10.5zM278 67q35 0 63 13t46.5 36.5t25.5 56.5v81q-8 30 -28 52.5t-48 35
t-62 12.5q-37 0 -68 -18t-49.5 -50t-18.5 -75q0 -40 19 -73t51 -52t69 -19zM161 632h103l73 -134h-60z" />
    <glyph glyph-name="aacute" unicode="&#xe1;" horiz-adv-x="586" 
d="M253 -10q-58 0 -105.5 25t-75 73.5t-27.5 118.5q0 69 29 119.5t77.5 77.5t106.5 27t98 -26.5t61 -62.5l-6 -16l9 88h86v-414h-93v108l10 -24q-4 -10 -17.5 -25.5t-36 -31.5t-51.5 -26.5t-65 -10.5zM278 67q35 0 63 13t46.5 36.5t25.5 56.5v81q-8 30 -28 52.5t-48 35
t-62 12.5q-37 0 -68 -18t-49.5 -50t-18.5 -75q0 -40 19 -73t51 -52t69 -19zM420 624l-127 -134h-59l83 134h103z" />
    <glyph glyph-name="acircumflex" unicode="&#xe2;" horiz-adv-x="586" 
d="M253 -10q-58 0 -105.5 25t-75 73.5t-27.5 118.5q0 69 29 119.5t77.5 77.5t106.5 27t98 -26.5t61 -62.5l-6 -16l9 88h86v-414h-93v108l10 -24q-4 -10 -17.5 -25.5t-36 -31.5t-51.5 -26.5t-65 -10.5zM278 67q35 0 63 13t46.5 36.5t25.5 56.5v81q-8 30 -28 52.5t-48 35
t-62 12.5q-37 0 -68 -18t-49.5 -50t-18.5 -75q0 -40 19 -73t51 -52t69 -19zM386 499l-93 98l27 6l-95 -104h-86l165 171h1l167 -171h-86z" />
    <glyph glyph-name="atilde" unicode="&#xe3;" horiz-adv-x="586" 
d="M253 -10q-58 0 -105.5 25t-75 73.5t-27.5 118.5q0 69 29 119.5t77.5 77.5t106.5 27t98 -26.5t61 -62.5l-6 -16l9 88h86v-414h-93v108l10 -24q-4 -10 -17.5 -25.5t-36 -31.5t-51.5 -26.5t-65 -10.5zM278 67q35 0 63 13t46.5 36.5t25.5 56.5v81q-8 30 -28 52.5t-48 35
t-62 12.5q-37 0 -68 -18t-49.5 -50t-18.5 -75q0 -40 19 -73t51 -52t69 -19zM382 472q-32 0 -52.5 14.5t-38.5 30.5q-12 11 -24 20.5t-27 9.5q-12 0 -21.5 -9.5t-14.5 -26.5t-5 -40h-50q-3 39 8.5 70.5t34 49.5t53.5 18q26 0 45 -14.5t35 -29.5q14 -13 27 -23.5t28 -10.5
q20 0 28.5 21t8.5 57h50q4 -42 -6.5 -73t-31.5 -47.5t-47 -16.5z" />
    <glyph glyph-name="adieresis" unicode="&#xe4;" horiz-adv-x="586" 
d="M253 -10q-58 0 -105.5 25t-75 73.5t-27.5 118.5q0 69 29 119.5t77.5 77.5t106.5 27t98 -26.5t61 -62.5l-6 -16l9 88h86v-414h-93v108l10 -24q-4 -10 -17.5 -25.5t-36 -31.5t-51.5 -26.5t-65 -10.5zM278 67q35 0 63 13t46.5 36.5t25.5 56.5v81q-8 30 -28 52.5t-48 35
t-62 12.5q-37 0 -68 -18t-49.5 -50t-18.5 -75q0 -40 19 -73t51 -52t69 -19zM159 540q0 22 16 37.5t36 15.5q19 0 35.5 -15.5t16.5 -38.5t-16.5 -37.5t-35.5 -14.5q-20 0 -36 15t-16 38v0zM346 540q0 22 16.5 37.5t36.5 15.5q18 0 34.5 -15.5t16.5 -38.5t-16.5 -37.5
t-34.5 -14.5q-20 0 -36.5 15t-16.5 38v0z" />
    <glyph glyph-name="aring" unicode="&#xe5;" horiz-adv-x="586" 
d="M253 -10q-58 0 -105.5 25t-75 73.5t-27.5 118.5q0 69 29 119.5t77.5 77.5t106.5 27t98 -26.5t61 -62.5l-6 -16l9 88h86v-414h-93v108l10 -24q-4 -10 -17.5 -25.5t-36 -31.5t-51.5 -26.5t-65 -10.5zM278 67q35 0 63 13t46.5 36.5t25.5 56.5v81q-8 30 -28 52.5t-48 35
t-62 12.5q-37 0 -68 -18t-49.5 -50t-18.5 -75q0 -40 19 -73t51 -52t69 -19zM204 554q0 40 26.5 64.5t67.5 24.5q39 0 66 -24.5t27 -64.5q0 -39 -27 -64t-67 -25t-66.5 25t-26.5 64zM255 553q0 -19 12 -31.5t31 -12.5q18 0 30 12.5t12 31.5q0 20 -12 32t-30 12q-19 0 -31 -12
t-12 -32z" />
    <glyph glyph-name="ae" unicode="&#xe6;" horiz-adv-x="814" 
d="M207 -11q-57 0 -92.5 17t-52.5 46t-17 65q0 41 24 69.5t62.5 43.5t81.5 15q47 0 91.5 -16t68.5 -41l-16 -54q-30 25 -57.5 37t-65.5 12q-23 0 -43 -6.5t-32 -20.5t-12 -36q0 -29 21.5 -47t63.5 -18q19 0 40.5 6t41 17.5t31.5 25.5v63h40l1 -103q-21 -27 -51 -43.5
t-63.5 -24t-64.5 -7.5zM339 197v66q0 37 -16 56.5t-37.5 26.5t-40.5 7q-39 0 -71 -18.5t-56 -46.5l-47 59q32 34 78 58.5t109 24.5q51 0 89.5 -16.5t60 -47.5t21.5 -78v-31zM567 -10q-70 0 -121 28.5t-79 78t-28 113.5q0 61 31 111t83 80t116 30q82 0 136 -48t74 -132
l-341 -120l-23 55l280 102l-19 -13q-13 33 -40.5 57.5t-73.5 24.5q-38 0 -67.5 -18.5t-46.5 -50.5t-17 -73q0 -43 17.5 -75.5t49 -51t71.5 -18.5q28 0 53.5 10t47.5 26l43 -69q-32 -21 -70.5 -34t-75.5 -13z" />
    <glyph glyph-name="ccedilla" unicode="&#xe7;" horiz-adv-x="456" 
d="M417 38q-28 -22 -67 -35t-78 -13q-68 0 -119 27t-79.5 75.5t-28.5 114.5t30.5 115t80 75.5t106.5 26.5q50 0 89.5 -14t67.5 -38l-46 -60q-18 14 -44 25t-59 11q-36 0 -66.5 -18.5t-48 -50.5t-17.5 -72q0 -38 18 -70.5t50 -51t73 -18.5q27 0 49.5 8t40.5 22zM148 -152
q11 -11 28 -18.5t39 -7.5q26 0 47 11.5t21 33.5q0 17 -14 31.5t-51 14.5q-16 0 -34 -4t-31 -9l-17 45l70 65l71 -4l-72 -84l-22 23q11 5 27 7.5t31 3.5q53 1 87 -21t34 -66q0 -34 -19.5 -55.5t-50.5 -32t-68 -10.5t-63.5 11.5t-42.5 26.5z" />
    <glyph glyph-name="egrave" unicode="&#xe8;" horiz-adv-x="520" 
d="M273 -10q-71 0 -122 28.5t-78.5 78t-27.5 113.5q0 61 31 111t83 80t116 30q82 0 136 -48t73 -132l-341 -120l-22 55l280 102l-20 -13q-12 33 -40 57.5t-73 24.5q-38 0 -68 -18.5t-47 -50.5t-17 -73q0 -43 18 -75.5t49.5 -51t71.5 -18.5q27 0 52.5 10t47.5 26l43 -69
q-31 -21 -69.5 -34t-75.5 -13zM123 632h103l73 -134h-60z" />
    <glyph glyph-name="eacute" unicode="&#xe9;" horiz-adv-x="520" 
d="M273 -10q-71 0 -122 28.5t-78.5 78t-27.5 113.5q0 61 31 111t83 80t116 30q82 0 136 -48t73 -132l-341 -120l-22 55l280 102l-20 -13q-12 33 -40 57.5t-73 24.5q-38 0 -68 -18.5t-47 -50.5t-17 -73q0 -43 18 -75.5t49.5 -51t71.5 -18.5q27 0 52.5 10t47.5 26l43 -69
q-31 -21 -69.5 -34t-75.5 -13zM382 625l-127 -134h-59l83 134h103z" />
    <glyph glyph-name="ecircumflex" unicode="&#xea;" horiz-adv-x="520" 
d="M273 -10q-71 0 -122 28.5t-78.5 78t-27.5 113.5q0 61 31 111t83 80t116 30q82 0 136 -48t73 -132l-341 -120l-22 55l280 102l-20 -13q-12 33 -40 57.5t-73 24.5q-38 0 -68 -18.5t-47 -50.5t-17 -73q0 -43 18 -75.5t49.5 -51t71.5 -18.5q27 0 52.5 10t47.5 26l43 -69
q-31 -21 -69.5 -34t-75.5 -13zM348 499l-93 98l27 6l-95 -104h-86l165 171h1l167 -171h-86z" />
    <glyph glyph-name="edieresis" unicode="&#xeb;" horiz-adv-x="520" 
d="M273 -10q-71 0 -122 28.5t-78.5 78t-27.5 113.5q0 61 31 111t83 80t116 30q82 0 136 -48t73 -132l-341 -120l-22 55l280 102l-20 -13q-12 33 -40 57.5t-73 24.5q-38 0 -68 -18.5t-47 -50.5t-17 -73q0 -43 18 -75.5t49.5 -51t71.5 -18.5q27 0 52.5 10t47.5 26l43 -69
q-31 -21 -69.5 -34t-75.5 -13zM121 540q0 22 16 37.5t36 15.5q19 0 35.5 -15.5t16.5 -38.5t-16.5 -37.5t-35.5 -14.5q-20 0 -36 15t-16 38v0zM308 540q0 22 16.5 37.5t36.5 15.5q18 0 34.5 -15.5t16.5 -38.5t-16.5 -37.5t-34.5 -14.5q-20 0 -36.5 15t-16.5 38v0z" />
    <glyph glyph-name="igrave" unicode="&#xec;" horiz-adv-x="254" 
d="M81 414h93v-414h-93v414zM-17 619h103l73 -134h-60z" />
    <glyph glyph-name="iacute" unicode="&#xed;" horiz-adv-x="254" 
d="M81 414h93v-414h-93v414zM242 611l-127 -134h-59l83 134h103z" />
    <glyph glyph-name="icircumflex" unicode="&#xee;" horiz-adv-x="254" 
d="M81 414h93v-414h-93v414zM208 486l-93 98l27 6l-95 -104h-86l165 171h1l167 -171h-86z" />
    <glyph glyph-name="idieresis" unicode="&#xef;" horiz-adv-x="254" 
d="M81 414h93v-414h-93v414zM-18 527q0 22 16 37.5t36 15.5q19 0 35.5 -15.5t16.5 -38.5t-16.5 -37.5t-35.5 -14.5q-20 0 -36 15t-16 38v0zM169 527q0 22 16.5 37.5t36.5 15.5q18 0 34.5 -15.5t16.5 -38.5t-16.5 -37.5t-34.5 -14.5q-20 0 -36.5 15t-16.5 38v0z" />
    <glyph glyph-name="eth" unicode="&#xf0;" horiz-adv-x="545" 
d="M264 -10q-61 0 -111 27.5t-79 77t-29 116.5q0 62 27.5 112t74.5 79t104 29q41 0 74 -17t57 -44.5t38 -60t18 -64.5l-33 8q-3 74 -23 137.5t-54 118.5t-80 103.5t-102 92.5l68 61q60 -41 112 -100t91 -129t61 -144.5t22 -146.5q0 -49 -16 -95t-46.5 -82.5t-74 -57.5
t-99.5 -21zM272 67q39 0 69.5 19t47.5 51.5t17 72.5t-17 72.5t-47.5 52t-69.5 19.5q-38 0 -68.5 -20t-48 -52.5t-17.5 -71.5q0 -40 18 -72.5t48 -51.5t68 -19zM425 675l-236 -148l-32 62l236 146z" />
    <glyph glyph-name="ntilde" unicode="&#xf1;" horiz-adv-x="553" 
d="M164 414l8 -101l-4 16q20 46 65 73.5t104 27.5t96.5 -34.5t38.5 -89.5v-306h-94v273q-1 34 -19.5 55.5t-57.5 21.5q-36 0 -65 -20t-45.5 -55t-16.5 -81v-194h-93v414h83zM353 465q-32 0 -52.5 14.5t-38.5 30.5q-12 11 -24 20.5t-27 9.5q-12 0 -21.5 -9.5t-14.5 -26.5
t-5 -40h-50q-3 39 8.5 70.5t34 49.5t53.5 18q26 0 45 -14.5t35 -29.5q14 -13 27 -23.5t28 -10.5q20 0 28.5 21t8.5 57h50q4 -42 -6.5 -73t-31.5 -47.5t-47 -16.5z" />
    <glyph glyph-name="ograve" unicode="&#xf2;" horiz-adv-x="545" 
d="M45 211q0 62 29.5 112t81.5 79t118 29q68 0 119 -29t79 -79t28 -112t-28 -112.5t-79.5 -79.5t-119.5 -29q-66 0 -117.5 27.5t-81 77t-29.5 116.5zM138 210q0 -40 18 -72.5t48.5 -51.5t67.5 -19q39 0 69.5 19t47.5 51.5t17 72.5t-17 72.5t-47.5 52t-69.5 19.5
q-38 0 -68.5 -20t-48 -52.5t-17.5 -71.5zM128 632h103l73 -134h-60z" />
    <glyph glyph-name="oacute" unicode="&#xf3;" horiz-adv-x="545" 
d="M45 211q0 62 29.5 112t81.5 79t118 29q68 0 119 -29t79 -79t28 -112t-28 -112.5t-79.5 -79.5t-119.5 -29q-66 0 -117.5 27.5t-81 77t-29.5 116.5zM138 210q0 -40 18 -72.5t48.5 -51.5t67.5 -19q39 0 69.5 19t47.5 51.5t17 72.5t-17 72.5t-47.5 52t-69.5 19.5
q-38 0 -68.5 -20t-48 -52.5t-17.5 -71.5zM387 624l-127 -134h-59l83 134h103z" />
    <glyph glyph-name="ocircumflex" unicode="&#xf4;" horiz-adv-x="545" 
d="M45 211q0 62 29.5 112t81.5 79t118 29q68 0 119 -29t79 -79t28 -112t-28 -112.5t-79.5 -79.5t-119.5 -29q-66 0 -117.5 27.5t-81 77t-29.5 116.5zM138 210q0 -40 18 -72.5t48.5 -51.5t67.5 -19q39 0 69.5 19t47.5 51.5t17 72.5t-17 72.5t-47.5 52t-69.5 19.5
q-38 0 -68.5 -20t-48 -52.5t-17.5 -71.5zM353 499l-93 98l27 6l-95 -104h-86l165 171h1l167 -171h-86z" />
    <glyph glyph-name="otilde" unicode="&#xf5;" horiz-adv-x="545" 
d="M45 211q0 62 29.5 112t81.5 79t118 29q68 0 119 -29t79 -79t28 -112t-28 -112.5t-79.5 -79.5t-119.5 -29q-66 0 -117.5 27.5t-81 77t-29.5 116.5zM138 210q0 -40 18 -72.5t48.5 -51.5t67.5 -19q39 0 69.5 19t47.5 51.5t17 72.5t-17 72.5t-47.5 52t-69.5 19.5
q-38 0 -68.5 -20t-48 -52.5t-17.5 -71.5zM350 472q-32 0 -52.5 14.5t-38.5 30.5q-12 11 -24 20.5t-27 9.5q-12 0 -21.5 -9.5t-14.5 -26.5t-5 -40h-50q-3 39 8.5 70.5t34 49.5t53.5 18q26 0 45 -14.5t35 -29.5q14 -13 27 -23.5t28 -10.5q20 0 28.5 21t8.5 57h50
q4 -42 -6.5 -73t-31.5 -47.5t-47 -16.5z" />
    <glyph glyph-name="odieresis" unicode="&#xf6;" horiz-adv-x="545" 
d="M45 211q0 62 29.5 112t81.5 79t118 29q68 0 119 -29t79 -79t28 -112t-28 -112.5t-79.5 -79.5t-119.5 -29q-66 0 -117.5 27.5t-81 77t-29.5 116.5zM138 210q0 -40 18 -72.5t48.5 -51.5t67.5 -19q39 0 69.5 19t47.5 51.5t17 72.5t-17 72.5t-47.5 52t-69.5 19.5
q-38 0 -68.5 -20t-48 -52.5t-17.5 -71.5zM126 540q0 22 16 37.5t36 15.5q19 0 35.5 -15.5t16.5 -38.5t-16.5 -37.5t-35.5 -14.5q-20 0 -36 15t-16 38v0zM313 540q0 22 16.5 37.5t36.5 15.5q18 0 34.5 -15.5t16.5 -38.5t-16.5 -37.5t-34.5 -14.5q-20 0 -36.5 15t-16.5 38v0z
" />
    <glyph glyph-name="divide" unicode="&#xf7;" horiz-adv-x="506" 
d="M202 396q0 23 16 38.5t36 15.5q19 0 35.5 -15.5t16.5 -38.5t-16.5 -37.5t-35.5 -14.5q-20 0 -36 14.5t-16 37.5v0zM202 105q0 23 16 38.5t36 15.5q19 0 35.5 -15.5t16.5 -38.5t-16.5 -37.5t-35.5 -14.5q-20 0 -36 14.5t-16 37.5v0zM68 290h365v-81h-365v81z" />
    <glyph glyph-name="oslash" unicode="&#xf8;" horiz-adv-x="521" 
d="M474 404l-372 -427l-45 42l369 425zM45 211q0 62 29.5 112t81.5 79t118 29q68 0 119 -29t79 -79t28 -112t-28 -112.5t-79.5 -79.5t-119.5 -29q-66 0 -117.5 27.5t-81 77t-29.5 116.5zM138 210q0 -40 18 -72.5t48.5 -51.5t67.5 -19q39 0 69.5 19t47.5 51.5t17 72.5
t-17 72.5t-47.5 52t-69.5 19.5q-38 0 -68.5 -20t-48 -52.5t-17.5 -71.5z" />
    <glyph glyph-name="ugrave" unicode="&#xf9;" horiz-adv-x="546" 
d="M212 -16q-56 0 -92.5 34.5t-38.5 89.5v306h93v-273q2 -34 19.5 -55t55.5 -22q35 0 62.5 20.5t44.5 56t17 80.5v193h93v-414h-85l-8 102l5 -18q-12 -29 -36.5 -51.5t-57.5 -35.5t-72 -13zM129 632h103l73 -134h-60z" />
    <glyph glyph-name="uacute" unicode="&#xfa;" horiz-adv-x="546" 
d="M212 -16q-56 0 -92.5 34.5t-38.5 89.5v306h93v-273q2 -34 19.5 -55t55.5 -22q35 0 62.5 20.5t44.5 56t17 80.5v193h93v-414h-85l-8 102l5 -18q-12 -29 -36.5 -51.5t-57.5 -35.5t-72 -13zM388 624l-127 -134h-59l83 134h103z" />
    <glyph glyph-name="ucircumflex" unicode="&#xfb;" horiz-adv-x="546" 
d="M212 -16q-56 0 -92.5 34.5t-38.5 89.5v306h93v-273q2 -34 19.5 -55t55.5 -22q35 0 62.5 20.5t44.5 56t17 80.5v193h93v-414h-85l-8 102l5 -18q-12 -29 -36.5 -51.5t-57.5 -35.5t-72 -13zM354 499l-93 98l27 6l-95 -104h-86l165 171h1l167 -171h-86z" />
    <glyph glyph-name="udieresis" unicode="&#xfc;" horiz-adv-x="546" 
d="M212 -16q-56 0 -92.5 34.5t-38.5 89.5v306h93v-273q2 -34 19.5 -55t55.5 -22q35 0 62.5 20.5t44.5 56t17 80.5v193h93v-414h-85l-8 102l5 -18q-12 -29 -36.5 -51.5t-57.5 -35.5t-72 -13zM128 540q0 22 16 37.5t36 15.5q19 0 35.5 -15.5t16.5 -38.5t-16.5 -37.5
t-35.5 -14.5q-20 0 -36 15t-16 38v0zM315 540q0 22 16.5 37.5t36.5 15.5q18 0 34.5 -15.5t16.5 -38.5t-16.5 -37.5t-34.5 -14.5q-20 0 -36.5 15t-16.5 38v0z" />
    <glyph glyph-name="yacute" unicode="&#xfd;" horiz-adv-x="494" 
d="M116 -199l273 613h86l-267 -613h-92zM218 -3l-199 417h105l167 -370zM367 611l-127 -134h-59l83 134h103z" />
    <glyph glyph-name="thorn" unicode="&#xfe;" horiz-adv-x="584" 
d="M323 -10q-31 0 -61.5 10.5t-55 28.5t-38.5 43l3 35v-306h-92v973h93v-458l-11 22q18 27 45.5 47.5t62 33t72.5 12.5q59 0 105 -28t73 -78t27 -117t-29 -116t-79.5 -75.5t-114.5 -26.5zM306 65q40 0 73 18.5t53 50.5t20 73t-19.5 74t-51 52t-69.5 19q-36 0 -65 -14
t-48 -38.5t-27 -56.5v-72q6 -31 25 -55t47 -37.5t62 -13.5z" />
    <glyph glyph-name="ydieresis" unicode="&#xff;" horiz-adv-x="494" 
d="M116 -199l273 613h86l-267 -613h-92zM218 -3l-199 417h105l167 -370zM106 527q0 22 16 37.5t36 15.5q19 0 35.5 -15.5t16.5 -38.5t-16.5 -37.5t-35.5 -14.5q-20 0 -36 15t-16 38v0zM293 527q0 22 16.5 37.5t36.5 15.5q18 0 34.5 -15.5t16.5 -38.5t-16.5 -37.5
t-34.5 -14.5q-20 0 -36.5 15t-16.5 38v0z" />
    <glyph glyph-name="Amacron" unicode="&#x100;" horiz-adv-x="701" 
d="M32 0l316 753h6l315 -753h-111l-236 601l69 45l-264 -646h-95zM217 274h269l32 -84h-329zM225 855h246v-66h-246v66z" />
    <glyph glyph-name="amacron" unicode="&#x101;" horiz-adv-x="586" 
d="M253 -10q-58 0 -105.5 25t-75 73.5t-27.5 118.5q0 69 29 119.5t77.5 77.5t106.5 27t98 -26.5t61 -62.5l-6 -16l9 88h86v-414h-93v108l10 -24q-4 -10 -17.5 -25.5t-36 -31.5t-51.5 -26.5t-65 -10.5zM278 67q35 0 63 13t46.5 36.5t25.5 56.5v81q-8 30 -28 52.5t-48 35
t-62 12.5q-37 0 -68 -18t-49.5 -50t-18.5 -75q0 -40 19 -73t51 -52t69 -19zM183 556h246v-66h-246v66z" />
    <glyph glyph-name="Abreve" unicode="&#x102;" horiz-adv-x="701" 
d="M32 0l316 753h6l315 -753h-111l-236 601l69 45l-264 -646h-95zM217 274h269l32 -84h-329zM351 785q-42 0 -73.5 20.5t-51 60t-26.5 95.5h63q5 -32 15.5 -57.5t29 -40t43.5 -14.5q27 0 44.5 14.5t27.5 40t14 57.5h64q-7 -57 -26.5 -96.5t-50.5 -59.5t-73 -20z" />
    <glyph glyph-name="abreve" unicode="&#x103;" horiz-adv-x="586" 
d="M253 -10q-58 0 -105.5 25t-75 73.5t-27.5 118.5q0 69 29 119.5t77.5 77.5t106.5 27t98 -26.5t61 -62.5l-6 -16l9 88h86v-414h-93v108l10 -24q-4 -10 -17.5 -25.5t-36 -31.5t-51.5 -26.5t-65 -10.5zM278 67q35 0 63 13t46.5 36.5t25.5 56.5v81q-8 30 -28 52.5t-48 35
t-62 12.5q-37 0 -68 -18t-49.5 -50t-18.5 -75q0 -40 19 -73t51 -52t69 -19zM306 479q-42 0 -73.5 20.5t-51 60t-26.5 95.5h63q5 -32 15.5 -57.5t29 -40t43.5 -14.5q27 0 44.5 14.5t27.5 40t14 57.5h64q-7 -57 -26.5 -96.5t-50.5 -59.5t-73 -20z" />
    <glyph glyph-name="Aogonek" unicode="&#x104;" horiz-adv-x="701" 
d="M32 0l316 753h6l315 -753h-111l-236 601l69 45l-264 -646h-95zM217 274h269l32 -84h-329zM595 -215q-49 0 -83 30t-34 79q0 35 24.5 67t65.5 50l102 -11q-52 -24 -83.5 -47t-31.5 -52q0 -26 15 -37.5t33 -11.5q20 0 37 12.5t31 34.5l36 -47q-17 -29 -49 -48t-63 -19z" />
    <glyph glyph-name="aogonek" unicode="&#x105;" horiz-adv-x="591" 
d="M253 -10q-57 0 -104 25t-74.5 73.5t-27.5 118.5q0 69 28.5 119.5t75.5 77.5t102 27q43 0 74 -12t53 -32t36 -45l7 72h85v-413q-44 -22 -72 -45.5t-28 -54.5q0 -26 15 -37.5t33 -11.5q20 0 37 12.5t31 34.5l36 -47q-18 -29 -49.5 -48t-62.5 -19q-49 0 -83.5 30t-34.5 79
q0 34 24.5 66t64.5 50l8 -14l-12 -12v123l7 -23q-12 -18 -35 -40t-56 -38t-78 -16zM278 67q35 0 63.5 13t47.5 36.5t26 56.5v81q-8 30 -27.5 52.5t-48 35t-61.5 12.5q-37 0 -68.5 -18t-50 -50t-18.5 -75q0 -40 18.5 -73t50 -52t68.5 -19z" />
    <glyph glyph-name="Cacute" unicode="&#x106;" horiz-adv-x="694" 
d="M635 54q-18 -12 -49 -27t-72.5 -25t-90.5 -10q-84 1 -151.5 30t-114.5 79t-72.5 115.5t-25.5 139.5q0 81 26.5 149.5t74.5 119t113.5 78.5t143.5 28q65 0 118 -17.5t91 -41.5l-39 -90q-30 20 -72.5 38t-94.5 18q-53 0 -100 -21t-83 -59t-56.5 -88.5t-20.5 -108.5
q0 -59 18.5 -109.5t53 -87.5t83.5 -58t110 -21q55 0 98 17t71 38zM553 905l-127 -134h-59l83 134h103z" />
    <glyph glyph-name="cacute" unicode="&#x107;" horiz-adv-x="456" 
d="M417 38q-28 -22 -67 -35t-78 -13q-68 0 -119 27t-79.5 75.5t-28.5 114.5t30.5 115t80 75.5t106.5 26.5q50 0 89.5 -14t67.5 -38l-46 -60q-18 14 -44 25t-59 11q-36 0 -66.5 -18.5t-48 -50.5t-17.5 -72q0 -38 18 -70.5t50 -51t73 -18.5q27 0 49.5 8t40.5 22zM367 618
l-127 -134h-59l83 134h103z" />
    <glyph glyph-name="Ccircumflex" unicode="&#x108;" horiz-adv-x="694" 
d="M635 54q-18 -12 -49 -27t-72.5 -25t-90.5 -10q-84 1 -151.5 30t-114.5 79t-72.5 115.5t-25.5 139.5q0 81 26.5 149.5t74.5 119t113.5 78.5t143.5 28q65 0 118 -17.5t91 -41.5l-39 -90q-30 20 -72.5 38t-94.5 18q-53 0 -100 -21t-83 -59t-56.5 -88.5t-20.5 -108.5
q0 -59 18.5 -109.5t53 -87.5t83.5 -58t110 -21q55 0 98 17t71 38zM474 789l-93 98l27 6l-95 -104h-86l165 171h1l167 -171h-86z" />
    <glyph glyph-name="ccircumflex" unicode="&#x109;" horiz-adv-x="456" 
d="M417 38q-28 -22 -67 -35t-78 -13q-68 0 -119 27t-79.5 75.5t-28.5 114.5t30.5 115t80 75.5t106.5 26.5q50 0 89.5 -14t67.5 -38l-46 -60q-18 14 -44 25t-59 11q-36 0 -66.5 -18.5t-48 -50.5t-17.5 -72q0 -38 18 -70.5t50 -51t73 -18.5q27 0 49.5 8t40.5 22zM333 492
l-93 98l27 6l-95 -104h-86l165 171h1l167 -171h-86z" />
    <glyph glyph-name="Cdotaccent" unicode="&#x10a;" horiz-adv-x="694" 
d="M635 54q-18 -12 -49 -27t-72.5 -25t-90.5 -10q-84 1 -151.5 30t-114.5 79t-72.5 115.5t-25.5 139.5q0 81 26.5 149.5t74.5 119t113.5 78.5t143.5 28q65 0 118 -17.5t91 -41.5l-39 -90q-30 20 -72.5 38t-94.5 18q-53 0 -100 -21t-83 -59t-56.5 -88.5t-20.5 -108.5
q0 -59 18.5 -109.5t53 -87.5t83.5 -58t110 -21q55 0 98 17t71 38zM344 829q0 22 17.5 37t38.5 15t37.5 -15t16.5 -37q0 -23 -16.5 -37.5t-37.5 -14.5t-38.5 15t-17.5 37z" />
    <glyph glyph-name="cdotaccent" unicode="&#x10b;" horiz-adv-x="456" 
d="M417 38q-28 -22 -67 -35t-78 -13q-68 0 -119 27t-79.5 75.5t-28.5 114.5t30.5 115t80 75.5t106.5 26.5q50 0 89.5 -14t67.5 -38l-46 -60q-18 14 -44 25t-59 11q-36 0 -66.5 -18.5t-48 -50.5t-17.5 -72q0 -38 18 -70.5t50 -51t73 -18.5q27 0 49.5 8t40.5 22zM199 570
q0 22 17.5 37t38.5 15t37.5 -15t16.5 -37q0 -23 -16.5 -37.5t-37.5 -14.5t-38.5 15t-17.5 37z" />
    <glyph glyph-name="Ccaron" unicode="&#x10c;" horiz-adv-x="694" 
d="M635 54q-18 -12 -49 -27t-72.5 -25t-90.5 -10q-84 1 -151.5 30t-114.5 79t-72.5 115.5t-25.5 139.5q0 81 26.5 149.5t74.5 119t113.5 78.5t143.5 28q65 0 118 -17.5t91 -41.5l-39 -90q-30 20 -72.5 38t-94.5 18q-53 0 -100 -21t-83 -59t-56.5 -88.5t-20.5 -108.5
q0 -59 18.5 -109.5t53 -87.5t83.5 -58t110 -21q55 0 98 17t71 38zM315 936l95 -99l-28 -6l95 105h86l-165 -172h-1l-168 172h86z" />
    <glyph glyph-name="ccaron" unicode="&#x10d;" horiz-adv-x="456" 
d="M417 38q-28 -22 -67 -35t-78 -13q-68 0 -119 27t-79.5 75.5t-28.5 114.5t30.5 115t80 75.5t106.5 26.5q50 0 89.5 -14t67.5 -38l-46 -60q-18 14 -44 25t-59 11q-36 0 -66.5 -18.5t-48 -50.5t-17.5 -72q0 -38 18 -70.5t50 -51t73 -18.5q27 0 49.5 8t40.5 22zM179 643
l95 -99l-28 -6l95 105h86l-165 -172h-1l-168 172h86z" />
    <glyph glyph-name="Dcaron" unicode="&#x10e;" horiz-adv-x="753" 
d="M104 0v723h197q107 0 182.5 -33t121.5 -87t67.5 -119.5t21.5 -130.5q0 -82 -28.5 -147t-78.5 -111t-114.5 -70.5t-136.5 -24.5h-232zM201 93h116q60 0 110.5 18t88 52t58.5 83.5t21 112.5q0 67 -22 117.5t-60 84.5t-86 51.5t-101 17.5h-125v-537zM224 920l95 -99l-28 -6
l95 105h86l-165 -172h-1l-168 172h86z" />
    <glyph glyph-name="dcaron" unicode="&#x10f;" horiz-adv-x="691" 
d="M249 -10q-57 0 -103.5 27.5t-73.5 78t-27 116.5q0 69 28.5 118t77.5 75t110 26q49 0 93.5 -21t69.5 -58l-4 -33v455h92v-774h-93v103l10 -26q-29 -38 -75 -62.5t-105 -24.5zM278 69q37 0 66 13.5t48 37.5t27 57v78q-8 30 -28.5 52.5t-49 36t-63.5 13.5q-38 0 -69.5 -18.5
t-50.5 -50.5t-19 -74q0 -41 19 -73.5t51 -52t69 -19.5zM628 608l-47 24q21 20 33.5 55t5.5 70l74 7q6 -28 -2 -58.5t-25 -56.5t-39 -41v0z" />
    <glyph glyph-name="Dcroat" unicode="&#x110;" horiz-adv-x="760" 
d="M111 0v723h197q107 0 182.5 -33t121.5 -87t67.5 -119.5t21.5 -130.5q0 -82 -28.5 -147t-78.5 -111t-114.5 -70.5t-136.5 -24.5h-232zM208 93h116q60 0 110.5 18t88 52t58.5 83.5t21 112.5q0 67 -22 117.5t-60 84.5t-86 51.5t-101 17.5h-125v-537zM24 402h277v-87h-277v87
z" />
    <glyph glyph-name="dcroat" unicode="&#x111;" horiz-adv-x="593" 
d="M249 -10q-57 0 -103.5 27.5t-73.5 78t-27 116.5q0 69 28.5 118t77.5 75t110 26q49 0 93.5 -21t69.5 -58l-4 -33v455h92v-774h-93v103l10 -26q-29 -38 -75 -62.5t-105 -24.5zM278 69q37 0 66 13.5t48 37.5t27 57v78q-8 30 -28.5 52.5t-49 36t-63.5 13.5q-38 0 -69.5 -18.5
t-50.5 -50.5t-19 -74q0 -41 19 -73.5t51 -52t69 -19.5zM321 677h277v-87h-277v87z" />
    <glyph glyph-name="Emacron" unicode="&#x112;" horiz-adv-x="652" 
d="M104 723h470v-93h-373v-220h333v-93h-333v-224h387v-93h-484v723zM209 843h246v-66h-246v66z" />
    <glyph glyph-name="emacron" unicode="&#x113;" horiz-adv-x="520" 
d="M273 -10q-71 0 -122 28.5t-78.5 78t-27.5 113.5q0 61 31 111t83 80t116 30q82 0 136 -48t73 -132l-341 -120l-22 55l280 102l-20 -13q-12 33 -40 57.5t-73 24.5q-38 0 -68 -18.5t-47 -50.5t-17 -73q0 -43 18 -75.5t49.5 -51t71.5 -18.5q27 0 52.5 10t47.5 26l43 -69
q-31 -21 -69.5 -34t-75.5 -13zM146 556h246v-66h-246v66z" />
    <glyph glyph-name="Ebreve" unicode="&#x114;" horiz-adv-x="652" 
d="M104 723h470v-93h-373v-220h333v-93h-333v-224h387v-93h-484v723zM335 773q-42 0 -73.5 20.5t-51 60t-26.5 95.5h63q5 -32 15.5 -57.5t29 -40t43.5 -14.5q27 0 44.5 14.5t27.5 40t14 57.5h64q-7 -57 -26.5 -96.5t-50.5 -59.5t-73 -20z" />
    <glyph glyph-name="ebreve" unicode="&#x115;" horiz-adv-x="520" 
d="M273 -10q-71 0 -122 28.5t-78.5 78t-27.5 113.5q0 61 31 111t83 80t116 30q82 0 136 -48t73 -132l-341 -120l-22 55l280 102l-20 -13q-12 33 -40 57.5t-73 24.5q-38 0 -68 -18.5t-47 -50.5t-17 -73q0 -43 18 -75.5t49.5 -51t71.5 -18.5q27 0 52.5 10t47.5 26l43 -69
q-31 -21 -69.5 -34t-75.5 -13zM268 479q-42 0 -73.5 20.5t-51 60t-26.5 95.5h63q5 -32 15.5 -57.5t29 -40t43.5 -14.5q27 0 44.5 14.5t27.5 40t14 57.5h64q-7 -57 -26.5 -96.5t-50.5 -59.5t-73 -20z" />
    <glyph glyph-name="Edotaccent" unicode="&#x116;" horiz-adv-x="652" 
d="M104 723h470v-93h-373v-220h333v-93h-333v-224h387v-93h-484v723zM280 826q0 22 17.5 37t38.5 15t37.5 -15t16.5 -37q0 -23 -16.5 -37.5t-37.5 -14.5t-38.5 15t-17.5 37z" />
    <glyph glyph-name="edotaccent" unicode="&#x117;" horiz-adv-x="520" 
d="M273 -10q-71 0 -122 28.5t-78.5 78t-27.5 113.5q0 61 31 111t83 80t116 30q82 0 136 -48t73 -132l-341 -120l-22 55l280 102l-20 -13q-12 33 -40 57.5t-73 24.5q-38 0 -68 -18.5t-47 -50.5t-17 -73q0 -43 18 -75.5t49.5 -51t71.5 -18.5q27 0 52.5 10t47.5 26l43 -69
q-31 -21 -69.5 -34t-75.5 -13zM214 577q0 22 17.5 37t38.5 15t37.5 -15t16.5 -37q0 -23 -16.5 -37.5t-37.5 -14.5t-38.5 15t-17.5 37z" />
    <glyph glyph-name="Eogonek" unicode="&#x118;" horiz-adv-x="652" 
d="M104 723h470v-93h-373v-220h333v-93h-333v-224h387v-93h-484v723zM513 -215q-49 0 -83 30t-34 79q0 35 24.5 67t65.5 50l102 -11q-52 -24 -83.5 -47t-31.5 -52q0 -26 15 -37.5t33 -11.5q20 0 37 12.5t31 34.5l36 -47q-17 -29 -49 -48t-63 -19z" />
    <glyph glyph-name="eogonek" unicode="&#x119;" horiz-adv-x="522" 
d="M329 -215q-56 0 -90.5 31t-34.5 82q0 31 19 61.5t55 49.5l95 14q-9 -10 -27.5 -17t-37.5 -11.5t-33 -4.5q-70 0 -121 28.5t-79 78t-28 113.5q0 61 31 111t83 80t116 30q82 0 136 -48t74 -132l-341 -120l-21 53l279 102l-20 -11q-14 34 -41.5 58t-72.5 24
q-38 0 -67.5 -18.5t-46.5 -50.5t-17 -73q0 -43 18 -76t49.5 -51t70.5 -18q28 0 53.5 10t47.5 26l43 -69q-24 -15 -48.5 -26.5t-45 -24.5t-33 -30.5t-12.5 -44.5t17.5 -43t37.5 -16q19 0 34.5 10t29.5 31l34 -49q-17 -26 -47 -42.5t-59 -16.5z" />
    <glyph glyph-name="Ecaron" unicode="&#x11a;" horiz-adv-x="652" 
d="M104 723h470v-93h-373v-220h333v-93h-333v-224h387v-93h-484v723zM251 932l95 -99l-28 -6l95 105h86l-165 -172h-1l-168 172h86z" />
    <glyph glyph-name="ecaron" unicode="&#x11b;" horiz-adv-x="520" 
d="M273 -10q-71 0 -122 28.5t-78.5 78t-27.5 113.5q0 61 31 111t83 80t116 30q82 0 136 -48t73 -132l-341 -120l-22 55l280 102l-20 -13q-12 33 -40 57.5t-73 24.5q-38 0 -68 -18.5t-47 -50.5t-17 -73q0 -43 18 -75.5t49.5 -51t71.5 -18.5q27 0 52.5 10t47.5 26l43 -69
q-31 -21 -69.5 -34t-75.5 -13zM194 650l95 -99l-28 -6l95 105h86l-165 -172h-1l-168 172h86z" />
    <glyph glyph-name="Gcircumflex" unicode="&#x11c;" horiz-adv-x="751" 
d="M670 62q-15 -13 -42 -25.5t-59.5 -22.5t-67 -16t-64.5 -6q-87 0 -156.5 27t-119 75t-76 113t-26.5 141q0 90 29.5 161.5t81 121t118.5 75t142 25.5q63 0 117 -15t95 -38l-33 -89q-20 12 -49.5 22t-60.5 16.5t-58 6.5q-64 0 -116 -19.5t-89 -56t-57 -88t-20 -115.5
q0 -59 20 -108t57 -84.5t88.5 -55t113.5 -19.5q37 0 73 7.5t62 21.5v144h-144v93h241v-292zM482 773l-93 98l27 6l-95 -104h-86l165 171h1l167 -171h-86z" />
    <glyph glyph-name="gcircumflex" unicode="&#x11d;" horiz-adv-x="598" 
d="M280 -205q-46 0 -81 10.5t-63.5 29.5t-54.5 43l54 63q33 -31 67 -48t76 -17q47 0 79.5 15.5t49.5 43t17 63.5l1 112l8 -18q-18 -43 -65 -72.5t-114 -29.5q-57 0 -104.5 29t-76 78.5t-28.5 111.5q0 65 30 114.5t79 78.5t107 29q55 0 100.5 -22.5t66.5 -57.5l-5 -17l10 80
h85v-417q0 -56 -29 -102t-82 -73t-127 -27zM138 211q0 -40 19 -73t51.5 -52t72.5 -19q37 0 66.5 13.5t49.5 37t28 54.5v82q-9 30 -30 52.5t-50 35t-64 12.5q-40 0 -72.5 -18t-51.5 -50.5t-19 -74.5zM379 499l-93 98l27 6l-95 -104h-86l165 171h1l167 -171h-86z" />
    <glyph glyph-name="Gbreve" unicode="&#x11e;" horiz-adv-x="751" 
d="M670 62q-15 -13 -42 -25.5t-59.5 -22.5t-67 -16t-64.5 -6q-87 0 -156.5 27t-119 75t-76 113t-26.5 141q0 90 29.5 161.5t81 121t118.5 75t142 25.5q63 0 117 -15t95 -38l-33 -89q-20 12 -49.5 22t-60.5 16.5t-58 6.5q-64 0 -116 -19.5t-89 -56t-57 -88t-20 -115.5
q0 -59 20 -108t57 -84.5t88.5 -55t113.5 -19.5q37 0 73 7.5t62 21.5v144h-144v93h241v-292zM408 760q-42 0 -73.5 20.5t-51 60t-26.5 95.5h63q5 -32 15.5 -57.5t29 -40t43.5 -14.5q27 0 44.5 14.5t27.5 40t14 57.5h64q-7 -57 -26.5 -96.5t-50.5 -59.5t-73 -20z" />
    <glyph glyph-name="gbreve" unicode="&#x11f;" horiz-adv-x="598" 
d="M280 -205q-46 0 -81 10.5t-63.5 29.5t-54.5 43l54 63q33 -31 67 -48t76 -17q47 0 79.5 15.5t49.5 43t17 63.5l1 112l8 -18q-18 -43 -65 -72.5t-114 -29.5q-57 0 -104.5 29t-76 78.5t-28.5 111.5q0 65 30 114.5t79 78.5t107 29q55 0 100.5 -22.5t66.5 -57.5l-5 -17l10 80
h85v-417q0 -56 -29 -102t-82 -73t-127 -27zM138 211q0 -40 19 -73t51.5 -52t72.5 -19q37 0 66.5 13.5t49.5 37t28 54.5v82q-9 30 -30 52.5t-50 35t-64 12.5q-40 0 -72.5 -18t-51.5 -50.5t-19 -74.5zM299 479q-42 0 -73.5 20.5t-51 60t-26.5 95.5h63q5 -32 15.5 -57.5t29 -40
t43.5 -14.5q27 0 44.5 14.5t27.5 40t14 57.5h64q-7 -57 -26.5 -96.5t-50.5 -59.5t-73 -20z" />
    <glyph glyph-name="Gdotaccent" unicode="&#x120;" horiz-adv-x="751" 
d="M670 62q-15 -13 -42 -25.5t-59.5 -22.5t-67 -16t-64.5 -6q-87 0 -156.5 27t-119 75t-76 113t-26.5 141q0 90 29.5 161.5t81 121t118.5 75t142 25.5q63 0 117 -15t95 -38l-33 -89q-20 12 -49.5 22t-60.5 16.5t-58 6.5q-64 0 -116 -19.5t-89 -56t-57 -88t-20 -115.5
q0 -59 20 -108t57 -84.5t88.5 -55t113.5 -19.5q37 0 73 7.5t62 21.5v144h-144v93h241v-292zM353 813q0 22 17.5 37t38.5 15t37.5 -15t16.5 -37q0 -23 -16.5 -37.5t-37.5 -14.5t-38.5 15t-17.5 37z" />
    <glyph glyph-name="gdotaccent" unicode="&#x121;" horiz-adv-x="598" 
d="M280 -205q-46 0 -81 10.5t-63.5 29.5t-54.5 43l54 63q33 -31 67 -48t76 -17q47 0 79.5 15.5t49.5 43t17 63.5l1 112l8 -18q-18 -43 -65 -72.5t-114 -29.5q-57 0 -104.5 29t-76 78.5t-28.5 111.5q0 65 30 114.5t79 78.5t107 29q55 0 100.5 -22.5t66.5 -57.5l-5 -17l10 80
h85v-417q0 -56 -29 -102t-82 -73t-127 -27zM138 211q0 -40 19 -73t51.5 -52t72.5 -19q37 0 66.5 13.5t49.5 37t28 54.5v82q-9 30 -30 52.5t-50 35t-64 12.5q-40 0 -72.5 -18t-51.5 -50.5t-19 -74.5zM244 577q0 22 17.5 37t38.5 15t37.5 -15t16.5 -37q0 -23 -16.5 -37.5
t-37.5 -14.5t-38.5 15t-17.5 37z" />
    <glyph glyph-name="uni0122" unicode="&#x122;" horiz-adv-x="751" 
d="M670 62q-15 -13 -42 -25.5t-59.5 -22.5t-67 -16t-64.5 -6q-87 0 -156.5 27t-119 75t-76 113t-26.5 141q0 90 29.5 161.5t81 121t118.5 75t142 25.5q63 0 117 -15t95 -38l-33 -89q-20 12 -49.5 22t-60.5 16.5t-58 6.5q-64 0 -116 -19.5t-89 -56t-57 -88t-20 -115.5
q0 -59 20 -108t57 -84.5t88.5 -55t113.5 -19.5q37 0 73 7.5t62 21.5v144h-144v93h241v-292zM352 -214l-48 33q25 20 35 58t4 75h83q4 -27 -3 -59t-24.5 -60.5t-46.5 -46.5z" />
    <glyph glyph-name="uni0123" unicode="&#x123;" horiz-adv-x="567" 
d="M231 507q22 53 43.5 105t43.5 104h75q-19 -52 -38.5 -104t-39.5 -105h-84zM280 -205q-46 0 -81 10.5t-63.5 29.5t-54.5 43l54 63q33 -31 67 -48t76 -17q47 0 79.5 15.5t49.5 43t17 63.5l1 112l8 -18q-18 -43 -65 -72.5t-114 -29.5q-57 0 -104.5 29t-76 78.5t-28.5 111.5
q0 65 30 114.5t79 78.5t107 29q55 0 100.5 -22.5t66.5 -57.5l-5 -17l10 80h85v-417q0 -56 -29 -102t-82 -73t-127 -27zM138 211q0 -40 19 -73t51.5 -52t72.5 -19q37 0 66.5 13.5t49.5 37t28 54.5v82q-9 30 -30 52.5t-50 35t-64 12.5q-40 0 -72.5 -18t-51.5 -50.5t-19 -74.5z
" />
    <glyph glyph-name="Hcircumflex" unicode="&#x124;" horiz-adv-x="780" 
d="M676 723v-723h-96v317h-379v-317h-97v723h97v-314h379v314h96zM466 773l-93 98l27 6l-95 -104h-86l165 171h1l167 -171h-86z" />
    <glyph glyph-name="hcircumflex" unicode="&#x125;" horiz-adv-x="553" 
d="M81 0v774h91v-456l-2 17q21 41 64.5 68t102.5 27t96.5 -34.5t38.5 -89.5v-306h-94v273q-1 34 -19.5 55.5t-57.5 21.5q-36 0 -65 -20.5t-45.5 -55.5t-16.5 -80v-194h-93zM199 819l-93 98l27 6l-95 -104h-86l165 171h1l167 -171h-86z" />
    <glyph glyph-name="Hbar" unicode="&#x126;" horiz-adv-x="943" 
d="M104 569h735v-73h-735v73zM752 723v-723h-97v317h-378v-317h-97v723h97v-314h378v314h97z" />
    <glyph glyph-name="hbar" unicode="&#x127;" horiz-adv-x="553" 
d="M81 0v774h91v-456l-2 17q21 41 64.5 68t102.5 27t96.5 -34.5t38.5 -89.5v-306h-94v273q-1 34 -19.5 55.5t-57.5 21.5q-36 0 -65 -20.5t-45.5 -55.5t-16.5 -80v-194h-93zM-6 642h277v-87h-277v87z" />
    <glyph glyph-name="Itilde" unicode="&#x128;" horiz-adv-x="305" 
d="M104 723h97v-723h-97v723zM229 802q-32 0 -52.5 14.5t-38.5 30.5q-12 11 -24 20.5t-27 9.5q-12 0 -21.5 -9.5t-14.5 -26t-5 -40.5l-50 1q-3 39 8.5 70t34 49t53.5 18q26 0 45 -14t35 -29q14 -14 27 -24.5t28 -10.5q20 0 28.5 21.5t8.5 57.5l50 -1q4 -41 -6.5 -72
t-31.5 -48t-47 -17z" />
    <glyph glyph-name="itilde" unicode="&#x129;" horiz-adv-x="254" 
d="M81 414h93v-414h-93v414zM205 459q-32 0 -52.5 14.5t-38.5 30.5q-12 11 -24 20.5t-27 9.5q-12 0 -21.5 -9.5t-14.5 -26.5t-5 -40h-50q-3 39 8.5 70.5t34 49.5t53.5 18q26 0 45 -14.5t35 -29.5q14 -13 27 -23.5t28 -10.5q20 0 28.5 21t8.5 57h50q4 -42 -6.5 -73
t-31.5 -47.5t-47 -16.5z" />
    <glyph glyph-name="Imacron" unicode="&#x12a;" horiz-adv-x="305" 
d="M104 723h97v-723h-97v723zM27 843h246v-66h-246v66z" />
    <glyph glyph-name="imacron" unicode="&#x12b;" horiz-adv-x="254" 
d="M81 414h93v-414h-93v414zM6 543h246v-66h-246v66z" />
    <glyph glyph-name="Ibreve" unicode="&#x12c;" horiz-adv-x="305" 
d="M104 723h97v-723h-97v723zM154 773q-42 0 -73.5 20.5t-51 60t-26.5 95.5h63q5 -32 15.5 -57.5t29 -40t43.5 -14.5q27 0 44.5 14.5t27.5 40t14 57.5h64q-7 -57 -26.5 -96.5t-50.5 -59.5t-73 -20z" />
    <glyph glyph-name="ibreve" unicode="&#x12d;" horiz-adv-x="254" 
d="M81 414h93v-414h-93v414zM128 466q-42 0 -73.5 20.5t-51 60t-26.5 95.5h63q5 -32 15.5 -57.5t29 -40t43.5 -14.5q27 0 44.5 14.5t27.5 40t14 57.5h64q-7 -57 -26.5 -96.5t-50.5 -59.5t-73 -20z" />
    <glyph glyph-name="Iogonek" unicode="&#x12e;" horiz-adv-x="273" 
d="M131 -215q-48 0 -82.5 27t-34.5 76q0 35 25 67t65 50l76 1l17 -6q-49 -22 -77 -45t-28 -54q0 -26 15 -37.5t33 -11.5q20 0 37 12.5t31 34.5l36 -47q-18 -29 -49.5 -48t-63.5 -19zM104 723h97v-723h-97v723z" />
    <glyph glyph-name="iogonek" unicode="&#x12f;" horiz-adv-x="258" 
d="M115 -215q-48 0 -82.5 30t-34.5 79q0 35 25 67t65 50l69 -3l18 -8q-46 -22 -72.5 -45t-26.5 -54q0 -26 15 -37.5t33 -11.5q20 0 37 12.5t31 34.5l36 -47q-18 -29 -49.5 -48t-63.5 -19zM81 414h93v-414h-93v414zM73 550q0 22 17.5 37t37.5 15q21 0 38 -15t17 -37
q0 -23 -17 -37.5t-38 -14.5q-20 0 -37.5 14.5t-17.5 37.5z" />
    <glyph glyph-name="Idotaccent" unicode="&#x130;" horiz-adv-x="305" 
d="M104 723h97v-723h-97v723zM98 826q0 22 17.5 37t38.5 15t37.5 -15t16.5 -37q0 -23 -16.5 -37.5t-37.5 -14.5t-38.5 15t-17.5 37z" />
    <glyph glyph-name="dotlessi" unicode="&#x131;" horiz-adv-x="254" 
d="M81 414h93v-414h-93v414z" />
    <glyph glyph-name="IJ" unicode="&#x132;" horiz-adv-x="670" 
d="M104 723h97v-723h-97v723zM566 131q0 -88 -33.5 -150t-91.5 -94.5t-133 -35.5v0v94q70 4 115.5 49.5t45.5 139.5v589h97v-592z" />
    <glyph glyph-name="ij" unicode="&#x133;" horiz-adv-x="504" 
d="M81 414h93v-414h-93v414zM74 564q0 22 17.5 37t38.5 15t37.5 -15t16.5 -37q0 -23 -16.5 -37.5t-37.5 -14.5t-38.5 15t-17.5 37zM325 -199l-55 57q28 24 44 59.5t16 83.5v413h94v-417q0 -70 -23.5 -118.5t-75.5 -77.5zM322 564q0 22 17.5 37t38.5 15t37.5 -15t16.5 -37
q0 -23 -16.5 -37.5t-37.5 -14.5t-38.5 15t-17.5 37z" />
    <glyph glyph-name="Jcircumflex" unicode="&#x134;" horiz-adv-x="365" 
d="M261 131q0 -88 -33.5 -150t-91.5 -94.5t-133 -35.5v0v94q70 4 115.5 49.5t45.5 139.5v589h97v-592zM288 785l-93 98l27 6l-95 -104h-86l165 171h1l167 -171h-86z" />
    <glyph glyph-name="jcircumflex" unicode="&#x135;" horiz-adv-x="259" 
d="M86 -199l-55 57q28 24 44 59.5t16 83.5v413h94v-417q0 -70 -23.5 -118.5t-75.5 -77.5zM218 486l-93 98l27 6l-95 -104h-86l165 171h1l167 -171h-86z" />
    <glyph glyph-name="uni0136" unicode="&#x136;" horiz-adv-x="679" 
d="M202 432l-3 -36l13 18l296 309h125l-299 -310l316 -413h-123l-264 351l-61 -59v-292h-98v723h98v-291zM288 -214l-48 33q25 20 35 58t4 75h83q4 -27 -3 -59t-24.5 -60.5t-46.5 -46.5z" />
    <glyph glyph-name="uni0137" unicode="&#x137;" horiz-adv-x="498" 
d="M81 0v774h93v-774h-93zM274 275l190 -275h-109l-143 223zM145 132l-9 89l251 202l57 -49zM216 -202l-48 33q25 20 35 58t4 75h83q4 -27 -3 -59t-24.5 -60.5t-46.5 -46.5z" />
    <glyph glyph-name="kgreenlandic" unicode="&#x138;" horiz-adv-x="507" 
d="M166 126l-14 82l196 206h113zM174 0h-93v414h93v-414zM266 237l196 -237h-109l-158 196z" />
    <glyph glyph-name="Lacute" unicode="&#x139;" horiz-adv-x="622" 
d="M104 723h97v-630h367v-93h-464v723zM305 901l-127 -134h-59l83 134h103z" />
    <glyph glyph-name="lacute" unicode="&#x13a;" horiz-adv-x="254" 
d="M81 774h93v-774h-93v774zM284 952l-127 -134h-59l83 134h103z" />
    <glyph glyph-name="uni013B" unicode="&#x13b;" horiz-adv-x="622" 
d="M104 723h97v-630h367v-93h-464v723zM289 -214l-48 33q25 20 35 58t4 75h83q4 -27 -3 -59t-24.5 -60.5t-46.5 -46.5z" />
    <glyph glyph-name="uni013C" unicode="&#x13c;" horiz-adv-x="254" 
d="M81 774h93v-774h-93v774zM95 -202l-48 33q25 20 35 58t4 75h83q4 -27 -3 -59t-24.5 -60.5t-46.5 -46.5z" />
    <glyph glyph-name="Lcaron" unicode="&#x13d;" horiz-adv-x="614" 
d="M104 723h97v-630h367v-93h-464v723zM412 564l-47 24q21 20 33.5 55t5.5 70l74 7q6 -28 -2 -58.5t-25 -56.5t-39 -41v0z" />
    <glyph glyph-name="lcaron" unicode="&#x13e;" horiz-adv-x="379" 
d="M81 774h93v-774h-93v774zM299 602l-47 24q21 20 33.5 55t5.5 70l74 7q6 -28 -2 -58.5t-25 -56.5t-39 -41v0z" />
    <glyph glyph-name="Ldot" unicode="&#x13f;" horiz-adv-x="629" 
d="M104 723h97v-630h367v-93h-464v723zM479 385q0 22 16.5 37.5t36.5 15.5q18 0 34.5 -15.5t16.5 -37.5q0 -24 -16.5 -38.5t-34.5 -14.5q-20 0 -36.5 14.5t-16.5 38.5v0z" />
    <glyph glyph-name="ldot" unicode="&#x140;" horiz-adv-x="346" 
d="M81 774h93v-774h-93v774zM249 317q0 22 16.5 37.5t36.5 15.5q18 0 34.5 -15.5t16.5 -37.5q0 -24 -16.5 -38.5t-34.5 -14.5q-20 0 -36.5 14.5t-16.5 38.5v0z" />
    <glyph glyph-name="Lslash" unicode="&#x141;" horiz-adv-x="614" 
d="M387 462l19 -76l-372 -122l-18 76zM104 723h97v-630h367v-93h-464v723z" />
    <glyph glyph-name="lslash" unicode="&#x142;" horiz-adv-x="267" 
d="M255 389v-81l-235 -63v81zM87 774h93v-774h-93v774z" />
    <glyph glyph-name="Nacute" unicode="&#x143;" horiz-adv-x="837" 
d="M730 -23l-559 567l28 -7l2 -537h-97v745h5l553 -569l-23 5l-2 542h96v-746h-3zM560 889l-127 -134h-59l83 134h103z" />
    <glyph glyph-name="nacute" unicode="&#x144;" horiz-adv-x="553" 
d="M164 414l8 -101l-4 16q20 46 65 73.5t104 27.5t96.5 -34.5t38.5 -89.5v-306h-94v273q-1 34 -19.5 55.5t-57.5 21.5q-36 0 -65 -20t-45.5 -55t-16.5 -81v-194h-93v414h83zM390 618l-127 -134h-59l83 134h103z" />
    <glyph glyph-name="uni0145" unicode="&#x145;" horiz-adv-x="837" 
d="M730 -23l-559 567l28 -7l2 -537h-97v745h5l553 -569l-23 5l-2 542h96v-746h-3zM387 -214l-48 33q25 20 35 58t4 75h83q4 -27 -3 -59t-24.5 -60.5t-46.5 -46.5z" />
    <glyph glyph-name="uni0146" unicode="&#x146;" horiz-adv-x="553" 
d="M164 414l8 -101l-4 16q20 46 65 73.5t104 27.5t96.5 -34.5t38.5 -89.5v-306h-94v273q-1 34 -19.5 55.5t-57.5 21.5q-36 0 -65 -20t-45.5 -55t-16.5 -81v-194h-93v414h83zM244 -202l-48 33q25 20 35 58t4 75h83q4 -27 -3 -59t-24.5 -60.5t-46.5 -46.5z" />
    <glyph glyph-name="Ncaron" unicode="&#x147;" horiz-adv-x="837" 
d="M730 -23l-559 567l28 -7l2 -537h-97v745h5l553 -569l-23 5l-2 542h96v-746h-3zM323 920l95 -99l-28 -6l95 105h86l-165 -172h-1l-168 172h86z" />
    <glyph glyph-name="ncaron" unicode="&#x148;" horiz-adv-x="553" 
d="M164 414l8 -101l-4 16q20 46 65 73.5t104 27.5t96.5 -34.5t38.5 -89.5v-306h-94v273q-1 34 -19.5 55.5t-57.5 21.5q-36 0 -65 -20t-45.5 -55t-16.5 -81v-194h-93v414h83zM202 643l95 -99l-28 -6l95 105h86l-165 -172h-1l-168 172h86z" />
    <glyph glyph-name="napostrophe" unicode="&#x149;" horiz-adv-x="566" 
d="M-3 409l-48 33q25 20 35 58t4 75h83q4 -27 -3 -59t-24.5 -60.5t-46.5 -46.5zM177 414l8 -101l-4 16q20 46 65 73.5t104 27.5t96.5 -34.5t38.5 -89.5v-306h-94v273q-1 34 -19.5 55.5t-57.5 21.5q-36 0 -65 -20t-45.5 -55t-16.5 -81v-194h-93v414h83z" />
    <glyph glyph-name="Eng" unicode="&#x14a;" horiz-adv-x="806" 
d="M714 -23l-558 569l27 -9l2 -537h-96v745h4l553 -571l-23 7l-2 542h96v-725zM717 42v-45q0 -66 -24 -115.5t-73 -80.5l-55 57q28 24 44 59.5t16 83.5v125z" />
    <glyph glyph-name="eng" unicode="&#x14b;" horiz-adv-x="553" 
d="M472 2q0 -66 -24 -118t-74 -83l-55 57q28 24 43.5 59.5t15.5 83.5v272q-1 34 -19.5 55.5t-57.5 21.5q-36 0 -65 -20t-45.5 -55t-16.5 -81v-194h-93v414h83l8 -85q20 46 63 73.5t102 27.5t96.5 -34.5t38.5 -89.5v-304z" />
    <glyph glyph-name="Omacron" unicode="&#x14c;" horiz-adv-x="857" 
d="M59 361q0 75 28.5 141.5t79.5 118t117.5 81t143.5 29.5q76 0 142.5 -29.5t118 -81t80.5 -118t29 -141.5q0 -77 -29 -144t-80.5 -117.5t-118 -79t-142.5 -28.5q-77 0 -143.5 28t-117.5 78t-79.5 117t-28.5 146zM159 360q0 -57 21 -106.5t58 -87.5t86 -59.5t106 -21.5
q56 0 105 21.5t85 59.5t57 87.5t21 107.5q0 57 -21 107.5t-58 88.5t-86 59.5t-105 21.5q-57 0 -106 -22t-86 -60t-57 -88.5t-20 -107.5zM303 836h246v-66h-246v66z" />
    <glyph glyph-name="omacron" unicode="&#x14d;" horiz-adv-x="545" 
d="M45 211q0 62 29.5 112t81.5 79t118 29q68 0 119 -29t79 -79t28 -112t-28 -112.5t-79.5 -79.5t-119.5 -29q-66 0 -117.5 27.5t-81 77t-29.5 116.5zM138 210q0 -40 18 -72.5t48.5 -51.5t67.5 -19q39 0 69.5 19t47.5 51.5t17 72.5t-17 72.5t-47.5 52t-69.5 19.5
q-38 0 -68.5 -20t-48 -52.5t-17.5 -71.5zM150 556h246v-66h-246v66z" />
    <glyph glyph-name="Obreve" unicode="&#x14e;" horiz-adv-x="857" 
d="M59 361q0 75 28.5 141.5t79.5 118t117.5 81t143.5 29.5q76 0 142.5 -29.5t118 -81t80.5 -118t29 -141.5q0 -77 -29 -144t-80.5 -117.5t-118 -79t-142.5 -28.5q-77 0 -143.5 28t-117.5 78t-79.5 117t-28.5 146zM159 360q0 -57 21 -106.5t58 -87.5t86 -59.5t106 -21.5
q56 0 105 21.5t85 59.5t57 87.5t21 107.5q0 57 -21 107.5t-58 88.5t-86 59.5t-105 21.5q-57 0 -106 -22t-86 -60t-57 -88.5t-20 -107.5zM429 766q-42 0 -73.5 20.5t-51 60t-26.5 95.5h63q5 -32 15.5 -57.5t29 -40t43.5 -14.5q27 0 44.5 14.5t27.5 40t14 57.5h64
q-7 -57 -26.5 -96.5t-50.5 -59.5t-73 -20z" />
    <glyph glyph-name="obreve" unicode="&#x14f;" horiz-adv-x="545" 
d="M45 211q0 62 29.5 112t81.5 79t118 29q68 0 119 -29t79 -79t28 -112t-28 -112.5t-79.5 -79.5t-119.5 -29q-66 0 -117.5 27.5t-81 77t-29.5 116.5zM138 210q0 -40 18 -72.5t48.5 -51.5t67.5 -19q39 0 69.5 19t47.5 51.5t17 72.5t-17 72.5t-47.5 52t-69.5 19.5
q-38 0 -68.5 -20t-48 -52.5t-17.5 -71.5zM273 479q-42 0 -73.5 20.5t-51 60t-26.5 95.5h63q5 -32 15.5 -57.5t29 -40t43.5 -14.5q27 0 44.5 14.5t27.5 40t14 57.5h64q-7 -57 -26.5 -96.5t-50.5 -59.5t-73 -20z" />
    <glyph glyph-name="Ohungarumlaut" unicode="&#x150;" horiz-adv-x="857" 
d="M59 361q0 75 28.5 141.5t79.5 118t117.5 81t143.5 29.5q76 0 142.5 -29.5t118 -81t80.5 -118t29 -141.5q0 -77 -29 -144t-80.5 -117.5t-118 -79t-142.5 -28.5q-77 0 -143.5 28t-117.5 78t-79.5 117t-28.5 146zM159 360q0 -57 21 -106.5t58 -87.5t86 -59.5t106 -21.5
q56 0 105 21.5t85 59.5t57 87.5t21 107.5q0 57 -21 107.5t-58 88.5t-86 59.5t-105 21.5q-57 0 -106 -22t-86 -60t-57 -88.5t-20 -107.5zM487 907l-127 -134h-59l83 134h103zM637 906l-127 -134h-59l83 134h103z" />
    <glyph glyph-name="ohungarumlaut" unicode="&#x151;" horiz-adv-x="545" 
d="M45 211q0 62 29.5 112t81.5 79t118 29q68 0 119 -29t79 -79t28 -112t-28 -112.5t-79.5 -79.5t-119.5 -29q-66 0 -117.5 27.5t-81 77t-29.5 116.5zM138 210q0 -40 18 -72.5t48.5 -51.5t67.5 -19q39 0 69.5 19t47.5 51.5t17 72.5t-17 72.5t-47.5 52t-69.5 19.5
q-38 0 -68.5 -20t-48 -52.5t-17.5 -71.5zM340 632l-127 -134h-59l83 134h103zM490 631l-127 -134h-59l83 134h103z" />
    <glyph glyph-name="OE" unicode="&#x152;" horiz-adv-x="1016" 
d="M495 628q-14 4 -29 5.5t-30 1.5q-56 0 -105 -21.5t-86 -59.5t-58 -88t-21 -106q0 -57 21 -106.5t58.5 -87.5t87 -59t105.5 -21q30 0 59 7l29 -90q-22 -5 -45 -8t-46 -3q-76 0 -143 28.5t-117.5 79t-79 117.5t-28.5 144q0 75 28.5 141.5t79 118.5t117.5 81t143 29
q25 0 48 -3.5t45 -9.5zM488 723h439v-90h-340v-225h300v-91h-300v-224h354v-93h-453v723z" />
    <glyph glyph-name="oe" unicode="&#x153;" horiz-adv-x="799" 
d="M417 38q-28 -22 -67 -35t-78 -13q-68 0 -119 27t-79.5 75.5t-28.5 114.5t30.5 115t80 75.5t106.5 26.5q50 0 89.5 -14t67.5 -38l-46 -60q-18 14 -44 25t-59 11q-36 0 -66.5 -18.5t-48 -50.5t-17.5 -72q0 -38 18 -70.5t50 -51t73 -18.5q27 0 49.5 8t40.5 22zM552 -10
q-71 0 -122 28.5t-78.5 78t-27.5 113.5q0 61 31 111t83 80t116 30q82 0 136 -48t73 -132l-341 -120l-22 55l280 102l-20 -13q-12 33 -40 57.5t-73 24.5q-38 0 -68 -18.5t-47 -50.5t-17 -73q0 -43 18 -75.5t49.5 -51t71.5 -18.5q27 0 52.5 10t47.5 26l43 -69
q-31 -21 -69.5 -34t-75.5 -13z" />
    <glyph glyph-name="Racute" unicode="&#x154;" horiz-adv-x="659" 
d="M296 723q55 0 101.5 -14.5t81 -43t54 -70t19.5 -96.5q0 -43 -12.5 -84t-41.5 -74.5t-75.5 -54t-114.5 -20.5h-107v-266h-97v723h192zM306 359q43 0 71.5 13t44.5 33.5t23 44.5t7 45q0 22 -7.5 45.5t-24 43.5t-43 33t-64.5 13h-112v-271h105zM425 304l189 -304h-112
l-192 301zM453 901l-127 -134h-59l83 134h103z" />
    <glyph glyph-name="racute" unicode="&#x155;" horiz-adv-x="376" 
d="M164 414l9 -120l-5 16q16 38 46.5 64.5t64 41t58.5 14.5l-5 -92q-47 3 -82.5 -18t-56 -56t-20.5 -75v-189h-92v414h83zM295 611l-127 -134h-59l83 134h103z" />
    <glyph glyph-name="uni0156" unicode="&#x156;" horiz-adv-x="659" 
d="M296 723q55 0 101.5 -14.5t81 -43t54 -70t19.5 -96.5q0 -43 -12.5 -84t-41.5 -74.5t-75.5 -54t-114.5 -20.5h-107v-266h-97v723h192zM306 359q43 0 71.5 13t44.5 33.5t23 44.5t7 45q0 22 -7.5 45.5t-24 43.5t-43 33t-64.5 13h-112v-271h105zM425 304l189 -304h-112
l-192 301zM291 -214l-48 33q25 20 35 58t4 75h83q4 -27 -3 -59t-24.5 -60.5t-46.5 -46.5z" />
    <glyph glyph-name="uni0157" unicode="&#x157;" horiz-adv-x="376" 
d="M164 414l9 -120l-5 16q16 38 46.5 64.5t64 41t58.5 14.5l-5 -92q-47 3 -82.5 -18t-56 -56t-20.5 -75v-189h-92v414h83zM107 -202l-48 33q25 20 35 58t4 75h83q4 -27 -3 -59t-24.5 -60.5t-46.5 -46.5z" />
    <glyph glyph-name="Rcaron" unicode="&#x158;" horiz-adv-x="659" 
d="M296 723q55 0 101.5 -14.5t81 -43t54 -70t19.5 -96.5q0 -43 -12.5 -84t-41.5 -74.5t-75.5 -54t-114.5 -20.5h-107v-266h-97v723h192zM306 359q43 0 71.5 13t44.5 33.5t23 44.5t7 45q0 22 -7.5 45.5t-24 43.5t-43 33t-64.5 13h-112v-271h105zM425 304l189 -304h-112
l-192 301zM216 932l95 -99l-28 -6l95 105h86l-165 -172h-1l-168 172h86z" />
    <glyph glyph-name="rcaron" unicode="&#x159;" horiz-adv-x="376" 
d="M164 414l9 -120l-5 16q16 38 46.5 64.5t64 41t58.5 14.5l-5 -92q-47 3 -82.5 -18t-56 -56t-20.5 -75v-189h-92v414h83zM107 637l95 -99l-28 -6l95 105h86l-165 -172h-1l-168 172h86z" />
    <glyph glyph-name="Sacute" unicode="&#x15a;" horiz-adv-x="582" 
d="M478 594q-37 19 -81 33t-86 14q-58 0 -92.5 -27t-34.5 -72q0 -34 22 -57.5t58 -40.5t75 -32q34 -13 67 -29t59.5 -40t42 -59t15.5 -87q0 -57 -28.5 -104t-81.5 -74t-126 -27q-48 0 -91.5 11t-80.5 28.5t-66 36.5l43 76q24 -17 55 -32.5t65 -25t66 -9.5q34 0 67.5 12.5
t55.5 38.5t22 69q0 37 -19.5 61.5t-51.5 42t-68 31.5q-34 13 -69 28.5t-65 38t-48 55.5t-18 80q0 57 27.5 99.5t75.5 67t110 26.5q70 0 123.5 -17t94.5 -42zM444 896l-127 -134h-59l83 134h103z" />
    <glyph glyph-name="sacute" unicode="&#x15b;" horiz-adv-x="407" 
d="M197 -8q-44 0 -85.5 15.5t-68.5 46.5l39 54q26 -25 53.5 -37.5t54.5 -12.5q20 0 37 5t27.5 16.5t10.5 31.5q0 22 -14.5 35t-37 21t-47.5 15q-51 17 -78 47t-27 73q0 33 16.5 61.5t49 46.5t80.5 18q43 0 77 -10.5t64 -34.5l-37 -58q-18 19 -43 28t-45 10q-17 1 -32.5 -5
t-25.5 -17t-10 -26q0 -21 14 -34t36.5 -20.5t44.5 -15.5q31 -9 55 -24t38.5 -37t14.5 -55q0 -37 -17.5 -68.5t-53 -50t-90.5 -18.5zM319 618l-127 -134h-59l83 134h103z" />
    <glyph glyph-name="Scircumflex" unicode="&#x15c;" horiz-adv-x="582" 
d="M478 594q-37 19 -81 33t-86 14q-58 0 -92.5 -27t-34.5 -72q0 -34 22 -57.5t58 -40.5t75 -32q34 -13 67 -29t59.5 -40t42 -59t15.5 -87q0 -57 -28.5 -104t-81.5 -74t-126 -27q-48 0 -91.5 11t-80.5 28.5t-66 36.5l43 76q24 -17 55 -32.5t65 -25t66 -9.5q34 0 67.5 12.5
t55.5 38.5t22 69q0 37 -19.5 61.5t-51.5 42t-68 31.5q-34 13 -69 28.5t-65 38t-48 55.5t-18 80q0 57 27.5 99.5t75.5 67t110 26.5q70 0 123.5 -17t94.5 -42zM365 780l-93 98l27 6l-95 -104h-86l165 171h1l167 -171h-86z" />
    <glyph glyph-name="scircumflex" unicode="&#x15d;" horiz-adv-x="407" 
d="M197 -8q-44 0 -85.5 15.5t-68.5 46.5l39 54q26 -25 53.5 -37.5t54.5 -12.5q20 0 37 5t27.5 16.5t10.5 31.5q0 22 -14.5 35t-37 21t-47.5 15q-51 17 -78 47t-27 73q0 33 16.5 61.5t49 46.5t80.5 18q43 0 77 -10.5t64 -34.5l-37 -58q-18 19 -43 28t-45 10q-17 1 -32.5 -5
t-25.5 -17t-10 -26q0 -21 14 -34t36.5 -20.5t44.5 -15.5q31 -9 55 -24t38.5 -37t14.5 -55q0 -37 -17.5 -68.5t-53 -50t-90.5 -18.5zM285 492l-93 98l27 6l-95 -104h-86l165 171h1l167 -171h-86z" />
    <glyph glyph-name="Scedilla" unicode="&#x15e;" horiz-adv-x="582" 
d="M478 594q-37 19 -81 33t-86 14q-58 0 -92.5 -27t-34.5 -72q0 -34 22 -57.5t58 -40.5t75 -32q34 -13 67 -29t59.5 -40t42 -59t15.5 -87q0 -57 -28.5 -104t-81.5 -74t-126 -27q-48 0 -91.5 11t-80.5 28.5t-66 36.5l43 76q24 -17 55 -32.5t65 -25t66 -9.5q34 0 67.5 12.5
t55.5 38.5t22 69q0 37 -19.5 61.5t-51.5 42t-68 31.5q-34 13 -69 28.5t-65 38t-48 55.5t-18 80q0 57 27.5 99.5t75.5 67t110 26.5q70 0 123.5 -17t94.5 -42zM210 -160q11 -11 28 -18.5t39 -7.5q26 0 47 11.5t21 33.5q0 17 -14 31.5t-51 14.5q-16 0 -34 -4t-31 -9l-17 45
l70 65l71 -4l-72 -84l-22 23q11 5 27 7.5t31 3.5q53 1 87 -21t34 -66q0 -34 -19.5 -55.5t-50.5 -32t-68 -10.5t-63.5 11.5t-42.5 26.5z" />
    <glyph glyph-name="scedilla" unicode="&#x15f;" horiz-adv-x="407" 
d="M197 -8q-44 0 -85.5 15.5t-68.5 46.5l39 54q26 -25 53.5 -37.5t54.5 -12.5q20 0 37 5t27.5 16.5t10.5 31.5q0 22 -14.5 35t-37 21t-47.5 15q-51 17 -78 47t-27 73q0 33 16.5 61.5t49 46.5t80.5 18q43 0 77 -10.5t64 -34.5l-37 -58q-18 19 -43 28t-45 10q-17 1 -32.5 -5
t-25.5 -17t-10 -26q0 -21 14 -34t36.5 -20.5t44.5 -15.5q31 -9 55 -24t38.5 -37t14.5 -55q0 -37 -17.5 -68.5t-53 -50t-90.5 -18.5zM122 -158q11 -11 28 -18.5t39 -7.5q26 0 47 11.5t21 33.5q0 17 -14 31.5t-51 14.5q-16 0 -34 -4t-31 -9l-17 45l70 65l71 -4l-72 -84l-22 23
q11 5 27 7.5t31 3.5q53 1 87 -21t34 -66q0 -34 -19.5 -55.5t-50.5 -32t-68 -10.5t-63.5 11.5t-42.5 26.5z" />
    <glyph glyph-name="Scaron" unicode="&#x160;" horiz-adv-x="582" 
d="M478 594q-37 19 -81 33t-86 14q-58 0 -92.5 -27t-34.5 -72q0 -34 22 -57.5t58 -40.5t75 -32q34 -13 67 -29t59.5 -40t42 -59t15.5 -87q0 -57 -28.5 -104t-81.5 -74t-126 -27q-48 0 -91.5 11t-80.5 28.5t-66 36.5l43 76q24 -17 55 -32.5t65 -25t66 -9.5q34 0 67.5 12.5
t55.5 38.5t22 69q0 37 -19.5 61.5t-51.5 42t-68 31.5q-34 13 -69 28.5t-65 38t-48 55.5t-18 80q0 57 27.5 99.5t75.5 67t110 26.5q70 0 123.5 -17t94.5 -42zM207 927l95 -99l-28 -6l95 105h86l-165 -172h-1l-168 172h86z" />
    <glyph glyph-name="scaron" unicode="&#x161;" horiz-adv-x="407" 
d="M197 -8q-44 0 -85.5 15.5t-68.5 46.5l39 54q26 -25 53.5 -37.5t54.5 -12.5q20 0 37 5t27.5 16.5t10.5 31.5q0 22 -14.5 35t-37 21t-47.5 15q-51 17 -78 47t-27 73q0 33 16.5 61.5t49 46.5t80.5 18q43 0 77 -10.5t64 -34.5l-37 -58q-18 19 -43 28t-45 10q-17 1 -32.5 -5
t-25.5 -17t-10 -26q0 -21 14 -34t36.5 -20.5t44.5 -15.5q31 -9 55 -24t38.5 -37t14.5 -55q0 -37 -17.5 -68.5t-53 -50t-90.5 -18.5zM131 643l95 -99l-28 -6l95 105h86l-165 -172h-1l-168 172h86z" />
    <glyph glyph-name="uni0162" unicode="&#x162;" horiz-adv-x="581" 
d="M51 723h480v-93h-194v-630h-97v630h-189v93zM211 -154q11 -11 28 -18.5t39 -7.5q26 0 47 11.5t21 33.5q0 17 -14 31.5t-51 14.5q-16 0 -34 -4t-31 -9l-17 45l70 65l71 -4l-72 -84l-22 23q11 5 27 7.5t31 3.5q53 1 87 -21t34 -66q0 -34 -19.5 -55.5t-50.5 -32t-68 -10.5
t-63.5 11.5t-42.5 26.5z" />
    <glyph glyph-name="uni0163" unicode="&#x163;" horiz-adv-x="359" 
d="M121 596h93v-184h114v-73h-114v-339h-93v339h-76v73h76v184zM83 -152q11 -11 28 -18.5t39 -7.5q26 0 47 11.5t21 33.5q0 17 -14 31.5t-51 14.5q-16 0 -34 -4t-31 -9l-17 45l70 65l71 -4l-72 -84l-22 23q11 5 27 7.5t31 3.5q53 1 87 -21t34 -66q0 -34 -19.5 -55.5
t-50.5 -32t-68 -10.5t-63.5 11.5t-42.5 26.5z" />
    <glyph glyph-name="Tcaron" unicode="&#x164;" horiz-adv-x="581" 
d="M51 723h480v-93h-194v-630h-97v630h-189v93zM208 920l95 -99l-28 -6l95 105h86l-165 -172h-1l-168 172h86z" />
    <glyph glyph-name="tcaron" unicode="&#x165;" horiz-adv-x="359" 
d="M121 596h93v-184h114v-73h-114v-339h-93v339h-76v73h76v184zM300 487l-48 33q25 20 35 58t4 75h83q4 -27 -3 -59t-24.5 -60.5t-46.5 -46.5z" />
    <glyph glyph-name="Tbar" unicode="&#x166;" horiz-adv-x="581" 
d="M51 723h480v-93h-194v-630h-97v630h-189v93zM149 402h277v-87h-277v87z" />
    <glyph glyph-name="tbar" unicode="&#x167;" horiz-adv-x="359" 
d="M121 596h93v-184h114v-73h-114v-339h-93v339h-76v73h76v184zM33 236h277v-87h-277v87z" />
    <glyph glyph-name="Utilde" unicode="&#x168;" horiz-adv-x="731" 
d="M191 256q0 -49 23.5 -87.5t62.5 -60.5t88 -22q51 0 91 22t63 60.5t23 87.5v467h95v-470q0 -79 -36.5 -138t-98 -91t-137.5 -32v0q-76 0 -137 32t-97 91t-36 138v470h96v-467zM442 802q-32 0 -52.5 14.5t-38.5 30.5q-12 11 -24 20.5t-27 9.5q-12 0 -21.5 -9.5t-14.5 -26
t-5 -40.5l-50 1q-3 39 8.5 70t34 49t53.5 18q26 0 45 -14t35 -29q14 -14 27 -24.5t28 -10.5q20 0 28.5 21.5t8.5 57.5l50 -1q4 -41 -6.5 -72t-31.5 -48t-47 -17z" />
    <glyph glyph-name="utilde" unicode="&#x169;" horiz-adv-x="546" 
d="M212 -16q-56 0 -92.5 34.5t-38.5 89.5v306h93v-273q2 -34 19.5 -55t55.5 -22q35 0 62.5 20.5t44.5 56t17 80.5v193h93v-414h-85l-8 102l5 -18q-12 -29 -36.5 -51.5t-57.5 -35.5t-72 -13zM351 472q-32 0 -52.5 14.5t-38.5 30.5q-12 11 -24 20.5t-27 9.5q-12 0 -21.5 -9.5
t-14.5 -26.5t-5 -40h-50q-3 39 8.5 70.5t34 49.5t53.5 18q26 0 45 -14.5t35 -29.5q14 -13 27 -23.5t28 -10.5q20 0 28.5 21t8.5 57h50q4 -42 -6.5 -73t-31.5 -47.5t-47 -16.5z" />
    <glyph glyph-name="Umacron" unicode="&#x16a;" horiz-adv-x="731" 
d="M191 256q0 -49 23.5 -87.5t62.5 -60.5t88 -22q51 0 91 22t63 60.5t23 87.5v467h95v-470q0 -79 -36.5 -138t-98 -91t-137.5 -32v0q-76 0 -137 32t-97 91t-36 138v470h96v-467zM240 843h246v-66h-246v66z" />
    <glyph glyph-name="umacron" unicode="&#x16b;" horiz-adv-x="546" 
d="M212 -16q-56 0 -92.5 34.5t-38.5 89.5v306h93v-273q2 -34 19.5 -55t55.5 -22q35 0 62.5 20.5t44.5 56t17 80.5v193h93v-414h-85l-8 102l5 -18q-12 -29 -36.5 -51.5t-57.5 -35.5t-72 -13zM152 556h246v-66h-246v66z" />
    <glyph glyph-name="Ubreve" unicode="&#x16c;" horiz-adv-x="731" 
d="M191 256q0 -49 23.5 -87.5t62.5 -60.5t88 -22q51 0 91 22t63 60.5t23 87.5v467h95v-470q0 -79 -36.5 -138t-98 -91t-137.5 -32v0q-76 0 -137 32t-97 91t-36 138v470h96v-467zM367 773q-42 0 -73.5 20.5t-51 60t-26.5 95.5h63q5 -32 15.5 -57.5t29 -40t43.5 -14.5
q27 0 44.5 14.5t27.5 40t14 57.5h64q-7 -57 -26.5 -96.5t-50.5 -59.5t-73 -20z" />
    <glyph glyph-name="ubreve" unicode="&#x16d;" horiz-adv-x="546" 
d="M212 -16q-56 0 -92.5 34.5t-38.5 89.5v306h93v-273q2 -34 19.5 -55t55.5 -22q35 0 62.5 20.5t44.5 56t17 80.5v193h93v-414h-85l-8 102l5 -18q-12 -29 -36.5 -51.5t-57.5 -35.5t-72 -13zM274 479q-42 0 -73.5 20.5t-51 60t-26.5 95.5h63q5 -32 15.5 -57.5t29 -40
t43.5 -14.5q27 0 44.5 14.5t27.5 40t14 57.5h64q-7 -57 -26.5 -96.5t-50.5 -59.5t-73 -20z" />
    <glyph glyph-name="Uring" unicode="&#x16e;" horiz-adv-x="731" 
d="M191 256q0 -49 23.5 -87.5t62.5 -60.5t88 -22q51 0 91 22t63 60.5t23 87.5v467h95v-470q0 -79 -36.5 -138t-98 -91t-137.5 -32v0q-76 0 -137 32t-97 91t-36 138v470h96v-467zM275 863q0 40 26.5 64.5t67.5 24.5q39 0 66 -24.5t27 -64.5q0 -39 -27 -64t-67 -25t-66.5 25
t-26.5 64zM326 862q0 -19 12 -31.5t31 -12.5q18 0 30 12.5t12 31.5q0 20 -12 32t-30 12q-19 0 -31 -12t-12 -32z" />
    <glyph glyph-name="uring" unicode="&#x16f;" horiz-adv-x="546" 
d="M212 -16q-56 0 -92.5 34.5t-38.5 89.5v306h93v-273q2 -34 19.5 -55t55.5 -22q35 0 62.5 20.5t44.5 56t17 80.5v193h93v-414h-85l-8 102l5 -18q-12 -29 -36.5 -51.5t-57.5 -35.5t-72 -13zM172 554q0 40 26.5 64.5t67.5 24.5q39 0 66 -24.5t27 -64.5q0 -39 -27 -64t-67 -25
t-66.5 25t-26.5 64zM223 553q0 -19 12 -31.5t31 -12.5q18 0 30 12.5t12 31.5q0 20 -12 32t-30 12q-19 0 -31 -12t-12 -32z" />
    <glyph glyph-name="Uhungarumlaut" unicode="&#x170;" horiz-adv-x="731" 
d="M191 256q0 -49 23.5 -87.5t62.5 -60.5t88 -22q51 0 91 22t63 60.5t23 87.5v467h95v-470q0 -79 -36.5 -138t-98 -91t-137.5 -32v0q-76 0 -137 32t-97 91t-36 138v470h96v-467zM424 913l-127 -134h-59l83 134h103zM574 912l-127 -134h-59l83 134h103z" />
    <glyph glyph-name="uhungarumlaut" unicode="&#x171;" horiz-adv-x="546" 
d="M212 -16q-56 0 -92.5 34.5t-38.5 89.5v306h93v-273q2 -34 19.5 -55t55.5 -22q35 0 62.5 20.5t44.5 56t17 80.5v193h93v-414h-85l-8 102l5 -18q-12 -29 -36.5 -51.5t-57.5 -35.5t-72 -13zM342 632l-127 -134h-59l83 134h103zM492 631l-127 -134h-59l83 134h103z" />
    <glyph glyph-name="Uogonek" unicode="&#x172;" horiz-adv-x="731" 
d="M468 -215q-48 0 -82.5 30t-34.5 79q0 33 20.5 65.5t56.5 51.5l28 37l9 -39q-46 -17 -100 -17q-81 0 -141.5 32.5t-94.5 91t-34 137.5v470h96v-467q0 -49 23.5 -87.5t62.5 -60.5t88 -22q51 0 91 22t63 60.5t23 87.5v467h95v-476q0 -55 -17.5 -96t-45.5 -71t-59 -53
q-37 -30 -61.5 -59.5t-24.5 -66.5q0 -26 15 -37.5t33 -11.5q20 0 37 12.5t31 34.5l36 -47q-18 -29 -49.5 -48t-63.5 -19z" />
    <glyph glyph-name="uogonek" unicode="&#x173;" horiz-adv-x="550" 
d="M415 -215q-49 0 -83.5 30t-34.5 79q0 34 24 66t63 50l51 6l33 -16q-42 -21 -67.5 -44.5t-25.5 -54.5q0 -26 15 -37.5t34 -11.5q20 0 36.5 12.5t30.5 34.5l36 -47q-17 -29 -49 -48t-63 -19zM212 -16q-56 0 -92.5 34.5t-38.5 89.5v306h93v-273q2 -34 19.5 -55t55.5 -22
q35 0 62.5 20.5t44.5 56t17 80.5v193h93v-414h-85l-8 102l5 -18q-12 -29 -36.5 -51.5t-57.5 -35.5t-72 -13z" />
    <glyph glyph-name="Wcircumflex" unicode="&#x174;" horiz-adv-x="1008" 
d="M41 719h112l196 -552l-17 7l143 370l45 -131l-191 -446zM388 719h97l212 -544l-20 4l187 540h103l-284 -751zM580 779l-93 98l27 6l-95 -104h-86l165 171h1l167 -171h-86z" />
    <glyph glyph-name="wcircumflex" unicode="&#x175;" horiz-adv-x="674" 
d="M346 414l122 -279l-18 -2l114 281h91l-190 -439l-133 284l-121 -284l-192 439h91l129 -292l-32 6l92 214l-33 72h80zM417 486l-93 98l27 6l-95 -104h-86l165 171h1l167 -171h-86z" />
    <glyph glyph-name="Ycircumflex" unicode="&#x176;" horiz-adv-x="691" 
d="M296 241l-268 482h119l215 -399l-30 -2l213 401h118l-270 -482v-241h-97v241zM434 783l-93 98l27 6l-95 -104h-86l165 171h1l167 -171h-86z" />
    <glyph glyph-name="ycircumflex" unicode="&#x177;" horiz-adv-x="494" 
d="M116 -199l273 613h86l-267 -613h-92zM218 -3l-199 417h105l167 -370zM333 486l-93 98l27 6l-95 -104h-86l165 171h1l167 -171h-86z" />
    <glyph glyph-name="Ydieresis" unicode="&#x178;" horiz-adv-x="691" 
d="M296 241l-268 482h119l215 -399l-30 -2l213 401h118l-270 -482v-241h-97v241zM209 825q0 22 16 37.5t36 15.5q19 0 35.5 -15.5t16.5 -38.5t-16.5 -37.5t-35.5 -14.5q-20 0 -36 15t-16 38v0zM396 825q0 22 16.5 37.5t36.5 15.5q18 0 34.5 -15.5t16.5 -38.5t-16.5 -37.5
t-34.5 -14.5q-20 0 -36.5 15t-16.5 38v0z" />
    <glyph glyph-name="Zacute" unicode="&#x179;" horiz-adv-x="712" 
d="M51 0q11 16 33.5 49t52.5 78t64.5 97t71 106t71 105.5t64.5 96t52.5 77t33.5 47.5l13 -26h-334q-19 0 -38 7t-31 21t-12 33v68h90v-13q0 -18 7 -20.5t24 -2.5h433l-437 -642l-6 12h455v-93h-607zM510 889l-127 -134h-59l83 134h103z" />
    <glyph glyph-name="zacute" unicode="&#x17a;" horiz-adv-x="463" 
d="M119 338q-31 0 -53 19t-22 57v39h71v-13q0 -16 8 -21t26 -5h265l-248 -357l-18 20h263v-77h-383l253 364l16 -26h-178zM348 611l-127 -134h-59l83 134h103z" />
    <glyph glyph-name="Zdotaccent" unicode="&#x17b;" horiz-adv-x="712" 
d="M51 0q11 16 33.5 49t52.5 78t64.5 97t71 106t71 105.5t64.5 96t52.5 77t33.5 47.5l13 -26h-334q-19 0 -38 7t-31 21t-12 33v68h90v-13q0 -18 7 -20.5t24 -2.5h433l-437 -642l-6 12h455v-93h-607zM301 813q0 22 17.5 37t38.5 15t37.5 -15t16.5 -37q0 -23 -16.5 -37.5
t-37.5 -14.5t-38.5 15t-17.5 37z" />
    <glyph glyph-name="zdotaccent" unicode="&#x17c;" horiz-adv-x="463" 
d="M119 338q-31 0 -53 19t-22 57v39h71v-13q0 -16 8 -21t26 -5h265l-248 -357l-18 20h263v-77h-383l253 364l16 -26h-178zM180 564q0 22 17.5 37t38.5 15t37.5 -15t16.5 -37q0 -23 -16.5 -37.5t-37.5 -14.5t-38.5 15t-17.5 37z" />
    <glyph glyph-name="Zcaron" unicode="&#x17d;" horiz-adv-x="712" 
d="M51 0q11 16 33.5 49t52.5 78t64.5 97t71 106t71 105.5t64.5 96t52.5 77t33.5 47.5l13 -26h-334q-19 0 -38 7t-31 21t-12 33v68h90v-13q0 -18 7 -20.5t24 -2.5h433l-437 -642l-6 12h455v-93h-607zM273 920l95 -99l-28 -6l95 105h86l-165 -172h-1l-168 172h86z" />
    <glyph glyph-name="zcaron" unicode="&#x17e;" horiz-adv-x="463" 
d="M119 338q-31 0 -53 19t-22 57v39h71v-13q0 -16 8 -21t26 -5h265l-248 -357l-18 20h263v-77h-383l253 364l16 -26h-178zM160 637l95 -99l-28 -6l95 105h86l-165 -172h-1l-168 172h86z" />
    <glyph glyph-name="uni018F" unicode="&#x18f;" horiz-adv-x="795" 
d="M375 730q81 0 147.5 -27t114 -76t73.5 -114.5t26 -141.5q0 -80 -28 -148t-78.5 -118.5t-116 -79t-139.5 -28.5q-85 0 -151 35.5t-110.5 101t-64.5 154.5l595 213l22 -72l-534 -196l30 31q26 -79 81.5 -130t137.5 -51q52 0 98 22t81 60.5t55 90t20 110.5q0 57 -20.5 106.5
t-57 86t-83 57t-99.5 20.5q-38 0 -77 -11.5t-73 -31.5t-57 -46l-48 78q30 29 73.5 53t92 38t90.5 14z" />
    <glyph glyph-name="florin" unicode="&#x192;" horiz-adv-x="334" 
d="M96 516q0 86 32 142.5t88 85t129 30.5v-92q-51 -3 -84.5 -23.5t-50.5 -57t-17 -86.5v-101h132v-89h-132v-234q0 -85 -28 -142t-83.5 -85.5t-136.5 -31.5v93q51 2 84.5 23t50 57.5t16.5 87.5v232h-70v89h70v102z" />
    <glyph glyph-name="uni019D" unicode="&#x19d;" horiz-adv-x="821" 
d="M714 -23l-558 568l27 -8l2 -537h-96v745h4l553 -569l-23 5l-2 542h96v-725zM185 42v-45q0 -66 -23.5 -115.5t-73.5 -80.5l-59 57q28 24 44 59.5t16 83.5v125z" />
    <glyph glyph-name="Ohorn" unicode="&#x1a0;" horiz-adv-x="857" 
d="M59 361q0 75 28.5 141.5t79.5 118t117.5 81t143.5 29.5q76 0 142.5 -29.5t118 -81t80.5 -118t29 -141.5q0 -77 -29 -144t-80.5 -117.5t-118 -79t-142.5 -28.5q-77 0 -143.5 28t-117.5 78t-79.5 117t-28.5 146zM159 360q0 -57 21 -106.5t58 -87.5t86 -59.5t106 -21.5
q56 0 105 21.5t85 59.5t57 87.5t21 107.5q0 57 -21 107.5t-58 88.5t-86 59.5t-105 21.5q-57 0 -106 -22t-86 -60t-57 -88.5t-20 -107.5zM500 723q42 0 59.5 19.5t22.5 71.5h70q-7 -63 -27 -95t-51.5 -42.5t-73.5 -10.5v57z" />
    <glyph glyph-name="ohorn" unicode="&#x1a1;" horiz-adv-x="545" 
d="M45 211q0 62 29.5 112t81.5 79t118 29q68 0 119 -29t79 -79t28 -112t-28 -112.5t-79.5 -79.5t-119.5 -29q-66 0 -117.5 27.5t-81 77t-29.5 116.5zM138 210q0 -40 18 -72.5t48.5 -51.5t67.5 -19q39 0 69.5 19t47.5 51.5t17 72.5t-17 72.5t-47.5 52t-69.5 19.5
q-38 0 -68.5 -20t-48 -52.5t-17.5 -71.5zM351 414q42 0 64 21.5t28 71.5h70q-7 -61 -29.5 -93.5t-56 -44.5t-76.5 -12v57z" />
    <glyph glyph-name="Uhorn" unicode="&#x1af;" horiz-adv-x="749" 
d="M191 256q0 -49 23.5 -87.5t62.5 -60.5t88 -22q51 0 91 22t63 60.5t23 87.5v467h95v-470q0 -79 -36.5 -138t-98 -91t-137.5 -32v0q-76 0 -137 32t-97 91t-36 138v470h96v-467zM618 678q42 0 59.5 19.5t22.5 71.5h70q-7 -63 -27 -95t-51.5 -42.5t-73.5 -10.5v57z" />
    <glyph glyph-name="uhorn" unicode="&#x1b0;" horiz-adv-x="558" 
d="M212 -16q-56 0 -92.5 34.5t-38.5 89.5v306h93v-273q2 -34 19.5 -55t55.5 -22q35 0 62.5 20.5t44.5 56t17 80.5v193h93v-414h-85l-8 102l5 -18q-12 -29 -36.5 -51.5t-57.5 -35.5t-72 -13zM412 414q42 0 64 21.5t28 71.5h70q-7 -61 -29.5 -93.5t-56 -44.5t-76.5 -12v57z
" />
    <glyph glyph-name="uni01C4" unicode="&#x1c4;" horiz-adv-x="1419" 
d="M104 0v723h197q107 0 182.5 -33t121.5 -87t67.5 -119.5t21.5 -130.5q0 -82 -28.5 -147t-78.5 -111t-114.5 -70.5t-136.5 -24.5h-232zM201 93h116q60 0 110.5 18t88 52t58.5 83.5t21 112.5q0 67 -22 117.5t-60 84.5t-86 51.5t-101 17.5h-125v-537zM757 0q11 16 33.5 49
t52.5 78t64.5 97t71 106t71 105.5t64.5 96t52.5 77t33.5 47.5l13 -26h-334q-19 0 -38 7t-31 21t-12 33v68h90v-13q0 -18 7 -20.5t24 -2.5h433l-437 -642l-6 12h455v-93h-607zM979 920l95 -99l-28 -6l95 105h86l-165 -172h-1l-168 172h86z" />
    <glyph glyph-name="uni01C5" unicode="&#x1c5;" horiz-adv-x="1216" 
d="M104 0v723h197q107 0 182.5 -33t121.5 -87t67.5 -119.5t21.5 -130.5q0 -82 -28.5 -147t-78.5 -111t-114.5 -70.5t-136.5 -24.5h-232zM201 93h116q60 0 110.5 18t88 52t58.5 83.5t21 112.5q0 67 -22 117.5t-60 84.5t-86 51.5t-101 17.5h-125v-537zM872 338q-31 0 -53 19
t-22 57v39h71v-13q0 -16 8 -21t26 -5h265l-248 -357l-18 20h263v-77h-383l253 364l16 -26h-178zM913 637l95 -99l-28 -6l95 105h86l-165 -172h-1l-168 172h86z" />
    <glyph glyph-name="uni01C6" unicode="&#x1c6;" horiz-adv-x="1056" 
d="M249 -10q-57 0 -103.5 27.5t-73.5 78t-27 116.5q0 69 28.5 118t77.5 75t110 26q49 0 93.5 -21t69.5 -58l-4 -33v455h92v-774h-93v103l10 -26q-29 -38 -75 -62.5t-105 -24.5zM278 69q37 0 66 13.5t48 37.5t27 57v78q-8 30 -28.5 52.5t-49 36t-63.5 13.5q-38 0 -69.5 -18.5
t-50.5 -50.5t-19 -74q0 -41 19 -73.5t51 -52t69 -19.5zM712 338q-31 0 -53 19t-22 57v39h71v-13q0 -16 8 -21t26 -5h265l-248 -357l-18 20h263v-77h-383l253 364l16 -26h-178zM753 637l95 -99l-28 -6l95 105h86l-165 -172h-1l-168 172h86z" />
    <glyph glyph-name="uni01C7" unicode="&#x1c7;" horiz-adv-x="987" 
d="M104 723h97v-630h367v-93h-464v723zM883 131q0 -88 -33.5 -150t-91.5 -94.5t-133 -35.5v0v94q70 4 115.5 49.5t45.5 139.5v589h97v-592z" />
    <glyph glyph-name="uni01C8" unicode="&#x1c8;" horiz-adv-x="881" 
d="M104 723h97v-630h367v-93h-464v723zM708 -199l-55 57q28 24 44 59.5t16 83.5v413h94v-417q0 -70 -23.5 -118.5t-75.5 -77.5zM705 564q0 22 17.5 37t38.5 15t37.5 -15t16.5 -37q0 -23 -16.5 -37.5t-37.5 -14.5t-38.5 15t-17.5 37z" />
    <glyph glyph-name="uni01C9" unicode="&#x1c9;" horiz-adv-x="514" 
d="M81 774h93v-774h-93v774zM340 -199l-55 57q28 24 44 59.5t16 83.5v413h94v-417q0 -70 -23.5 -118.5t-75.5 -77.5zM337 564q0 22 17.5 37t38.5 15t37.5 -15t16.5 -37q0 -23 -16.5 -37.5t-37.5 -14.5t-38.5 15t-17.5 37z" />
    <glyph glyph-name="uni01CA" unicode="&#x1ca;" horiz-adv-x="1202" 
d="M730 -23l-559 567l28 -7l2 -537h-97v745h5l553 -569l-23 5l-2 542h96v-746h-3zM1098 131q0 -88 -33.5 -150t-91.5 -94.5t-133 -35.5v0v94q70 4 115.5 49.5t45.5 139.5v589h97v-592z" />
    <glyph glyph-name="uni01CB" unicode="&#x1cb;" horiz-adv-x="1097" 
d="M730 -23l-559 567l28 -7l2 -537h-97v745h5l553 -569l-23 5l-2 542h96v-746h-3zM923 -199l-55 57q28 24 44 59.5t16 83.5v413h94v-417q0 -70 -23.5 -118.5t-75.5 -77.5zM920 564q0 22 17.5 37t38.5 15t37.5 -15t16.5 -37q0 -23 -16.5 -37.5t-37.5 -14.5t-38.5 15t-17.5 37
z" />
    <glyph glyph-name="uni01CC" unicode="&#x1cc;" horiz-adv-x="805" 
d="M164 414l8 -101l-4 16q20 46 65 73.5t104 27.5t96.5 -34.5t38.5 -89.5v-306h-94v273q-1 34 -19.5 55.5t-57.5 21.5q-36 0 -65 -20t-45.5 -55t-16.5 -81v-194h-93v414h83zM626 -199l-55 57q28 24 44 59.5t16 83.5v413h94v-417q0 -70 -23.5 -118.5t-75.5 -77.5zM623 564
q0 22 17.5 37t38.5 15t37.5 -15t16.5 -37q0 -23 -16.5 -37.5t-37.5 -14.5t-38.5 15t-17.5 37z" />
    <glyph glyph-name="uni01D3" unicode="&#x1d3;" horiz-adv-x="731" 
d="M191 256q0 -49 23.5 -87.5t62.5 -60.5t88 -22q51 0 91 22t63 60.5t23 87.5v467h95v-470q0 -79 -36.5 -138t-98 -91t-137.5 -32v0q-76 0 -137 32t-97 91t-36 138v470h96v-467zM283 932l95 -99l-28 -6l95 105h86l-165 -172h-1l-168 172h86z" />
    <glyph glyph-name="Gcaron" unicode="&#x1e6;" horiz-adv-x="751" 
d="M670 62q-15 -13 -42 -25.5t-59.5 -22.5t-67 -16t-64.5 -6q-87 0 -156.5 27t-119 75t-76 113t-26.5 141q0 90 29.5 161.5t81 121t118.5 75t142 25.5q63 0 117 -15t95 -38l-33 -89q-20 12 -49.5 22t-60.5 16.5t-58 6.5q-64 0 -116 -19.5t-89 -56t-57 -88t-20 -115.5
q0 -59 20 -108t57 -84.5t88.5 -55t113.5 -19.5q37 0 73 7.5t62 21.5v144h-144v93h241v-292zM324 920l95 -99l-28 -6l95 105h86l-165 -172h-1l-168 172h86z" />
    <glyph glyph-name="gcaron" unicode="&#x1e7;" horiz-adv-x="598" 
d="M280 -205q-46 0 -81 10.5t-63.5 29.5t-54.5 43l54 63q33 -31 67 -48t76 -17q47 0 79.5 15.5t49.5 43t17 63.5l1 112l8 -18q-18 -43 -65 -72.5t-114 -29.5q-57 0 -104.5 29t-76 78.5t-28.5 111.5q0 65 30 114.5t79 78.5t107 29q55 0 100.5 -22.5t66.5 -57.5l-5 -17l10 80
h85v-417q0 -56 -29 -102t-82 -73t-127 -27zM138 211q0 -40 19 -73t51.5 -52t72.5 -19q37 0 66.5 13.5t49.5 37t28 54.5v82q-9 30 -30 52.5t-50 35t-64 12.5q-40 0 -72.5 -18t-51.5 -50.5t-19 -74.5zM225 650l95 -99l-28 -6l95 105h86l-165 -172h-1l-168 172h86z" />
    <glyph glyph-name="uni01EA" unicode="&#x1ea;" horiz-adv-x="857" 
d="M428 -8q-77 0 -143.5 28t-117.5 78t-79.5 117t-28.5 146q0 75 28.5 141.5t79.5 118t117.5 81t143.5 29.5q76 0 142.5 -29.5t118 -81t80.5 -118t29 -142.5q0 -73 -20.5 -129t-52.5 -96.5t-68 -69.5q-31 -26 -60.5 -45.5t-54.5 -36.5t-39.5 -36t-14.5 -45q0 -27 15 -38.5
t33 -11.5q21 0 37.5 12.5t30.5 34.5l36 -47q-18 -29 -49.5 -48t-62.5 -19q-49 0 -83 27t-34 76q0 27 13 50t35 41t49 29l81 26q-34 -20 -76 -31t-85 -11zM431 86q56 0 104.5 21t85 58.5t57 87.5t20.5 108q0 56 -21 106t-58 87.5t-86 59t-105 21.5q-57 0 -106 -21.5
t-86 -59.5t-57 -88t-20 -106q0 -57 21 -106.5t58 -87.5t86.5 -59t106.5 -21z" />
    <glyph glyph-name="uni01EB" unicode="&#x1eb;" horiz-adv-x="549" 
d="M350 -215q-30 0 -55.5 13.5t-41.5 38.5t-16 62q0 41 25 73t65 52l39 1q-16 -14 -40.5 -24.5t-50.5 -10.5q-66 0 -117.5 27.5t-81 77t-29.5 116.5q0 62 29.5 111.5t81.5 79t118 29.5q68 0 119 -29t79 -79t28 -112q0 -58 -27.5 -107t-74.5 -83q-36 -28 -60.5 -53.5
t-24.5 -61.5q0 -26 15 -40t33 -14q20 0 37 12.5t31 34.5l36 -47q-18 -29 -50.5 -48t-66.5 -19zM274 67q39 0 69.5 19t47.5 51.5t17 72.5t-17 72.5t-47.5 52t-69.5 19.5q-38 0 -68.5 -20t-48 -52.5t-17.5 -71.5q0 -40 18 -72.5t48 -51.5t68 -19z" />
    <glyph glyph-name="uni01F3" unicode="&#x1f3;" horiz-adv-x="1056" 
d="M249 -10q-57 0 -103.5 27.5t-73.5 78t-27 116.5q0 69 28.5 118t77.5 75t110 26q49 0 93.5 -21t69.5 -58l-4 -33v455h92v-774h-93v103l10 -26q-29 -38 -75 -62.5t-105 -24.5zM278 69q37 0 66 13.5t48 37.5t27 57v78q-8 30 -28.5 52.5t-49 36t-63.5 13.5q-38 0 -69.5 -18.5
t-50.5 -50.5t-19 -74q0 -41 19 -73.5t51 -52t69 -19.5zM712 338q-31 0 -53 19t-22 57v39h71v-13q0 -16 8 -21t26 -5h265l-248 -357l-18 20h263v-77h-383l253 364l16 -26h-178z" />
    <glyph glyph-name="Aringacute" unicode="&#x1fa;" horiz-adv-x="701" 
d="M32 0l316 753h6l315 -753h-111l-236 601l69 45l-264 -646h-95zM217 274h269l32 -84h-329zM259 875q0 40 26.5 64.5t67.5 24.5q39 0 66 -24.5t27 -64.5q0 -39 -27 -64t-67 -25t-66.5 25t-26.5 64zM310 874q0 -19 12 -31.5t31 -12.5q18 0 30 12.5t12 31.5q0 20 -12 32
t-30 12q-19 0 -31 -12t-12 -32zM504 1136l-127 -134h-59l83 134h103z" />
    <glyph glyph-name="aringacute" unicode="&#x1fb;" horiz-adv-x="586" 
d="M253 -10q-58 0 -105.5 25t-75 73.5t-27.5 118.5q0 69 29 119.5t77.5 77.5t106.5 27t98 -26.5t61 -62.5l-6 -16l9 88h86v-414h-93v108l10 -24q-4 -10 -17.5 -25.5t-36 -31.5t-51.5 -26.5t-65 -10.5zM278 67q35 0 63 13t46.5 36.5t25.5 56.5v81q-8 30 -28 52.5t-48 35
t-62 12.5q-37 0 -68 -18t-49.5 -50t-18.5 -75q0 -40 19 -73t51 -52t69 -19zM204 554q0 40 26.5 64.5t67.5 24.5q39 0 66 -24.5t27 -64.5q0 -39 -27 -64t-67 -25t-66.5 25t-26.5 64zM255 553q0 -19 12 -31.5t31 -12.5q18 0 30 12.5t12 31.5q0 20 -12 32t-30 12q-19 0 -31 -12
t-12 -32zM420 841l-127 -134h-59l83 134h103z" />
    <glyph glyph-name="AEacute" unicode="&#x1fc;" horiz-adv-x="950" 
d="M477 723h395v-94h-298v-221h257v-93h-257v-222h312v-93h-409v723zM491 615q-2 -10 -5.5 -21.5t-4.5 -13.5l-357 -580h-111l464 723zM231 256h260v-77h-289zM807 901l-127 -134h-59l83 134h103z" />
    <glyph glyph-name="aeacute" unicode="&#x1fd;" horiz-adv-x="814" 
d="M207 -11q-57 0 -92.5 17t-52.5 46t-17 65q0 41 24 69.5t62.5 43.5t81.5 15q47 0 91.5 -16t68.5 -41l-16 -54q-30 25 -57.5 37t-65.5 12q-23 0 -43 -6.5t-32 -20.5t-12 -36q0 -29 21.5 -47t63.5 -18q19 0 40.5 6t41 17.5t31.5 25.5v63h40l1 -103q-21 -27 -51 -43.5
t-63.5 -24t-64.5 -7.5zM339 197v66q0 37 -16 56.5t-37.5 26.5t-40.5 7q-39 0 -71 -18.5t-56 -46.5l-47 59q32 34 78 58.5t109 24.5q51 0 89.5 -16.5t60 -47.5t21.5 -78v-31zM567 -10q-70 0 -121 28.5t-79 78t-28 113.5q0 61 31 111t83 80t116 30q82 0 136 -48t74 -132
l-341 -120l-23 55l280 102l-19 -13q-13 33 -40.5 57.5t-73.5 24.5q-38 0 -67.5 -18.5t-46.5 -50.5t-17 -73q0 -43 17.5 -75.5t49 -51t71.5 -18.5q28 0 53.5 10t47.5 26l43 -69q-32 -21 -70.5 -34t-75.5 -13zM520 611l-127 -134h-59l83 134h103z" />
    <glyph glyph-name="Oslashacute" unicode="&#x1fe;" horiz-adv-x="857" 
d="M753 687l-599 -701l-61 55l600 702zM59 361q0 75 28.5 141.5t79.5 118t117.5 81t143.5 29.5q76 0 142.5 -29.5t118 -81t80.5 -118t29 -141.5q0 -77 -29 -144t-80.5 -117.5t-118 -79t-142.5 -28.5q-77 0 -143.5 28t-117.5 78t-79.5 117t-28.5 146zM159 360
q0 -57 21 -106.5t58 -87.5t86 -59.5t106 -21.5q56 0 105 21.5t85 59.5t57 87.5t21 107.5q0 57 -21 107.5t-58 88.5t-86 59.5t-105 21.5q-57 0 -106 -22t-86 -60t-57 -88.5t-20 -107.5zM581 894l-127 -134h-59l83 134h103z" />
    <glyph glyph-name="oslashacute" unicode="&#x1ff;" horiz-adv-x="521" 
d="M474 404l-372 -427l-45 42l369 425zM45 211q0 62 29.5 112t81.5 79t118 29q68 0 119 -29t79 -79t28 -112t-28 -112.5t-79.5 -79.5t-119.5 -29q-66 0 -117.5 27.5t-81 77t-29.5 116.5zM138 210q0 -40 18 -72.5t48.5 -51.5t67.5 -19q39 0 69.5 19t47.5 51.5t17 72.5
t-17 72.5t-47.5 52t-69.5 19.5q-38 0 -68.5 -20t-48 -52.5t-17.5 -71.5zM374 611l-127 -134h-59l83 134h103z" />
    <glyph glyph-name="uni0200" unicode="&#x200;" horiz-adv-x="701" 
d="M32 0l316 753h6l315 -753h-111l-236 601l69 45l-264 -646h-95zM217 274h269l32 -84h-329zM150 929h103l73 -134h-60zM292 929h103l73 -134h-60z" />
    <glyph glyph-name="uni0201" unicode="&#x201;" horiz-adv-x="586" 
d="M253 -10q-58 0 -105.5 25t-75 73.5t-27.5 118.5q0 69 29 119.5t77.5 77.5t106.5 27t98 -26.5t61 -62.5l-6 -16l9 88h86v-414h-93v108l10 -24q-4 -10 -17.5 -25.5t-36 -31.5t-51.5 -26.5t-65 -10.5zM278 67q35 0 63 13t46.5 36.5t25.5 56.5v81q-8 30 -28 52.5t-48 35
t-62 12.5q-37 0 -68 -18t-49.5 -50t-18.5 -75q0 -40 19 -73t51 -52t69 -19zM97 632h103l73 -134h-60zM239 632h103l73 -134h-60z" />
    <glyph glyph-name="uni0202" unicode="&#x202;" horiz-adv-x="701" 
d="M32 0l316 753h6l315 -753h-111l-236 601l69 45l-264 -646h-95zM217 274h269l32 -84h-329zM346 938q43 0 74 -20.5t51 -60t26 -95.5h-63q-4 32 -15 57.5t-28.5 40t-44.5 14.5q-25 0 -43 -14.5t-28.5 -40t-14.5 -57.5h-64q7 57 26.5 96.5t51 59.5t72.5 20z" />
    <glyph glyph-name="uni0203" unicode="&#x203;" horiz-adv-x="586" 
d="M253 -10q-58 0 -105.5 25t-75 73.5t-27.5 118.5q0 69 29 119.5t77.5 77.5t106.5 27t98 -26.5t61 -62.5l-6 -16l9 88h86v-414h-93v108l10 -24q-4 -10 -17.5 -25.5t-36 -31.5t-51.5 -26.5t-65 -10.5zM278 67q35 0 63 13t46.5 36.5t25.5 56.5v81q-8 30 -28 52.5t-48 35
t-62 12.5q-37 0 -68 -18t-49.5 -50t-18.5 -75q0 -40 19 -73t51 -52t69 -19zM309 648q42 0 73.5 -20.5t51 -60t26.5 -95.5h-63q-4 33 -15 58t-29 39.5t-44 14.5t-44 -14.5t-28 -39.5t-14 -58h-64q7 57 26.5 96.5t50.5 59.5t73 20z" />
    <glyph glyph-name="uni0204" unicode="&#x204;" horiz-adv-x="652" 
d="M104 723h470v-93h-373v-220h333v-93h-333v-224h387v-93h-484v723zM134 917h103l73 -134h-60zM276 917h103l73 -134h-60z" />
    <glyph glyph-name="uni0205" unicode="&#x205;" horiz-adv-x="520" 
d="M273 -10q-71 0 -122 28.5t-78.5 78t-27.5 113.5q0 61 31 111t83 80t116 30q82 0 136 -48t73 -132l-341 -120l-22 55l280 102l-20 -13q-12 33 -40 57.5t-73 24.5q-38 0 -68 -18.5t-47 -50.5t-17 -73q0 -43 18 -75.5t49.5 -51t71.5 -18.5q27 0 52.5 10t47.5 26l43 -69
q-31 -21 -69.5 -34t-75.5 -13zM60 632h103l73 -134h-60zM202 632h103l73 -134h-60z" />
    <glyph glyph-name="uni0206" unicode="&#x206;" horiz-adv-x="652" 
d="M104 723h470v-93h-373v-220h333v-93h-333v-224h387v-93h-484v723zM330 926q43 0 74 -20.5t51 -60t26 -95.5h-63q-4 32 -15 57.5t-28.5 40t-44.5 14.5q-25 0 -43 -14.5t-28.5 -40t-14.5 -57.5h-64q7 57 26.5 96.5t51 59.5t72.5 20z" />
    <glyph glyph-name="uni0207" unicode="&#x207;" horiz-adv-x="520" 
d="M273 -10q-71 0 -122 28.5t-78.5 78t-27.5 113.5q0 61 31 111t83 80t116 30q82 0 136 -48t73 -132l-341 -120l-22 55l280 102l-20 -13q-12 33 -40 57.5t-73 24.5q-38 0 -68 -18.5t-47 -50.5t-17 -73q0 -43 18 -75.5t49.5 -51t71.5 -18.5q27 0 52.5 10t47.5 26l43 -69
q-31 -21 -69.5 -34t-75.5 -13zM272 648q42 0 73.5 -20.5t51 -60t26.5 -95.5h-63q-4 33 -15 58t-29 39.5t-44 14.5t-44 -14.5t-28 -39.5t-14 -58h-64q7 57 26.5 96.5t50.5 59.5t73 20z" />
    <glyph glyph-name="uni0208" unicode="&#x208;" horiz-adv-x="305" 
d="M104 723h97v-723h-97v723zM-47 917h103l73 -134h-60zM95 917h103l73 -134h-60z" />
    <glyph glyph-name="uni0209" unicode="&#x209;" horiz-adv-x="254" 
d="M81 414h93v-414h-93v414zM-80 619h103l73 -134h-60zM62 619h103l73 -134h-60z" />
    <glyph glyph-name="uni020A" unicode="&#x20a;" horiz-adv-x="305" 
d="M104 723h97v-723h-97v723zM148 926q43 0 74 -20.5t51 -60t26 -95.5h-63q-4 32 -15 57.5t-28.5 40t-44.5 14.5q-25 0 -43 -14.5t-28.5 -40t-14.5 -57.5h-64q7 57 26.5 96.5t51 59.5t72.5 20z" />
    <glyph glyph-name="uni020B" unicode="&#x20b;" horiz-adv-x="254" 
d="M81 414h93v-414h-93v414zM132 635q42 0 73.5 -20.5t51 -60t26.5 -95.5h-63q-4 33 -15 58t-29 39.5t-44 14.5t-44 -14.5t-28 -39.5t-14 -58h-64q7 57 26.5 96.5t50.5 59.5t73 20z" />
    <glyph glyph-name="uni020C" unicode="&#x20c;" horiz-adv-x="857" 
d="M59 361q0 75 28.5 141.5t79.5 118t117.5 81t143.5 29.5q76 0 142.5 -29.5t118 -81t80.5 -118t29 -141.5q0 -77 -29 -144t-80.5 -117.5t-118 -79t-142.5 -28.5q-77 0 -143.5 28t-117.5 78t-79.5 117t-28.5 146zM159 360q0 -57 21 -106.5t58 -87.5t86 -59.5t106 -21.5
q56 0 105 21.5t85 59.5t57 87.5t21 107.5q0 57 -21 107.5t-58 88.5t-86 59.5t-105 21.5q-57 0 -106 -22t-86 -60t-57 -88.5t-20 -107.5zM228 910h103l73 -134h-60zM370 910h103l73 -134h-60z" />
    <glyph glyph-name="uni020D" unicode="&#x20d;" horiz-adv-x="545" 
d="M45 211q0 62 29.5 112t81.5 79t118 29q68 0 119 -29t79 -79t28 -112t-28 -112.5t-79.5 -79.5t-119.5 -29q-66 0 -117.5 27.5t-81 77t-29.5 116.5zM138 210q0 -40 18 -72.5t48.5 -51.5t67.5 -19q39 0 69.5 19t47.5 51.5t17 72.5t-17 72.5t-47.5 52t-69.5 19.5
q-38 0 -68.5 -20t-48 -52.5t-17.5 -71.5zM64 632h103l73 -134h-60zM206 632h103l73 -134h-60z" />
    <glyph glyph-name="uni020E" unicode="&#x20e;" horiz-adv-x="857" 
d="M59 361q0 75 28.5 141.5t79.5 118t117.5 81t143.5 29.5q76 0 142.5 -29.5t118 -81t80.5 -118t29 -141.5q0 -77 -29 -144t-80.5 -117.5t-118 -79t-142.5 -28.5q-77 0 -143.5 28t-117.5 78t-79.5 117t-28.5 146zM159 360q0 -57 21 -106.5t58 -87.5t86 -59.5t106 -21.5
q56 0 105 21.5t85 59.5t57 87.5t21 107.5q0 57 -21 107.5t-58 88.5t-86 59.5t-105 21.5q-57 0 -106 -22t-86 -60t-57 -88.5t-20 -107.5zM424 919q43 0 74 -20.5t51 -60t26 -95.5h-63q-4 32 -15 57.5t-28.5 40t-44.5 14.5q-25 0 -43 -14.5t-28.5 -40t-14.5 -57.5h-64
q7 57 26.5 96.5t51 59.5t72.5 20z" />
    <glyph glyph-name="uni020F" unicode="&#x20f;" horiz-adv-x="545" 
d="M45 211q0 62 29.5 112t81.5 79t118 29q68 0 119 -29t79 -79t28 -112t-28 -112.5t-79.5 -79.5t-119.5 -29q-66 0 -117.5 27.5t-81 77t-29.5 116.5zM138 210q0 -40 18 -72.5t48.5 -51.5t67.5 -19q39 0 69.5 19t47.5 51.5t17 72.5t-17 72.5t-47.5 52t-69.5 19.5
q-38 0 -68.5 -20t-48 -52.5t-17.5 -71.5zM277 648q42 0 73.5 -20.5t51 -60t26.5 -95.5h-63q-4 33 -15 58t-29 39.5t-44 14.5t-44 -14.5t-28 -39.5t-14 -58h-64q7 57 26.5 96.5t50.5 59.5t73 20z" />
    <glyph glyph-name="uni0210" unicode="&#x210;" horiz-adv-x="659" 
d="M296 723q55 0 101.5 -14.5t81 -43t54 -70t19.5 -96.5q0 -43 -12.5 -84t-41.5 -74.5t-75.5 -54t-114.5 -20.5h-107v-266h-97v723h192zM306 359q43 0 71.5 13t44.5 33.5t23 44.5t7 45q0 22 -7.5 45.5t-24 43.5t-43 33t-64.5 13h-112v-271h105zM425 304l189 -304h-112
l-192 301zM99 917h103l73 -134h-60zM241 917h103l73 -134h-60z" />
    <glyph glyph-name="uni0211" unicode="&#x211;" horiz-adv-x="376" 
d="M164 414l9 -120l-5 16q16 38 46.5 64.5t64 41t58.5 14.5l-5 -92q-47 3 -82.5 -18t-56 -56t-20.5 -75v-189h-92v414h83zM-28 619h103l73 -134h-60zM114 619h103l73 -134h-60z" />
    <glyph glyph-name="uni0212" unicode="&#x212;" horiz-adv-x="659" 
d="M296 723q55 0 101.5 -14.5t81 -43t54 -70t19.5 -96.5q0 -43 -12.5 -84t-41.5 -74.5t-75.5 -54t-114.5 -20.5h-107v-266h-97v723h192zM306 359q43 0 71.5 13t44.5 33.5t23 44.5t7 45q0 22 -7.5 45.5t-24 43.5t-43 33t-64.5 13h-112v-271h105zM425 304l189 -304h-112
l-192 301zM294 926q43 0 74 -20.5t51 -60t26 -95.5h-63q-4 32 -15 57.5t-28.5 40t-44.5 14.5q-25 0 -43 -14.5t-28.5 -40t-14.5 -57.5h-64q7 57 26.5 96.5t51 59.5t72.5 20z" />
    <glyph glyph-name="uni0213" unicode="&#x213;" horiz-adv-x="376" 
d="M164 414l9 -120l-5 16q16 38 46.5 64.5t64 41t58.5 14.5l-5 -92q-47 3 -82.5 -18t-56 -56t-20.5 -75v-189h-92v414h83zM185 635q42 0 73.5 -20.5t51 -60t26.5 -95.5h-63q-4 33 -15 58t-29 39.5t-44 14.5t-44 -14.5t-28 -39.5t-14 -58h-64q7 57 26.5 96.5t50.5 59.5t73 20
z" />
    <glyph glyph-name="uni0214" unicode="&#x214;" horiz-adv-x="731" 
d="M191 256q0 -49 23.5 -87.5t62.5 -60.5t88 -22q51 0 91 22t63 60.5t23 87.5v467h95v-470q0 -79 -36.5 -138t-98 -91t-137.5 -32v0q-76 0 -137 32t-97 91t-36 138v470h96v-467zM166 917h103l73 -134h-60zM308 917h103l73 -134h-60z" />
    <glyph glyph-name="uni0215" unicode="&#x215;" horiz-adv-x="546" 
d="M212 -16q-56 0 -92.5 34.5t-38.5 89.5v306h93v-273q2 -34 19.5 -55t55.5 -22q35 0 62.5 20.5t44.5 56t17 80.5v193h93v-414h-85l-8 102l5 -18q-12 -29 -36.5 -51.5t-57.5 -35.5t-72 -13zM66 632h103l73 -134h-60zM208 632h103l73 -134h-60z" />
    <glyph glyph-name="uni0216" unicode="&#x216;" horiz-adv-x="731" 
d="M191 256q0 -49 23.5 -87.5t62.5 -60.5t88 -22q51 0 91 22t63 60.5t23 87.5v467h95v-470q0 -79 -36.5 -138t-98 -91t-137.5 -32v0q-76 0 -137 32t-97 91t-36 138v470h96v-467zM361 926q43 0 74 -20.5t51 -60t26 -95.5h-63q-4 32 -15 57.5t-28.5 40t-44.5 14.5
q-25 0 -43 -14.5t-28.5 -40t-14.5 -57.5h-64q7 57 26.5 96.5t51 59.5t72.5 20z" />
    <glyph glyph-name="uni0217" unicode="&#x217;" horiz-adv-x="546" 
d="M212 -16q-56 0 -92.5 34.5t-38.5 89.5v306h93v-273q2 -34 19.5 -55t55.5 -22q35 0 62.5 20.5t44.5 56t17 80.5v193h93v-414h-85l-8 102l5 -18q-12 -29 -36.5 -51.5t-57.5 -35.5t-72 -13zM278 648q42 0 73.5 -20.5t51 -60t26.5 -95.5h-63q-4 33 -15 58t-29 39.5t-44 14.5
t-44 -14.5t-28 -39.5t-14 -58h-64q7 57 26.5 96.5t50.5 59.5t73 20z" />
    <glyph glyph-name="uni0218" unicode="&#x218;" horiz-adv-x="582" 
d="M478 594q-37 19 -81 33t-86 14q-58 0 -92.5 -27t-34.5 -72q0 -34 22 -57.5t58 -40.5t75 -32q34 -13 67 -29t59.5 -40t42 -59t15.5 -87q0 -57 -28.5 -104t-81.5 -74t-126 -27q-48 0 -91.5 11t-80.5 28.5t-66 36.5l43 76q24 -17 55 -32.5t65 -25t66 -9.5q34 0 67.5 12.5
t55.5 38.5t22 69q0 37 -19.5 61.5t-51.5 42t-68 31.5q-34 13 -69 28.5t-65 38t-48 55.5t-18 80q0 57 27.5 99.5t75.5 67t110 26.5q70 0 123.5 -17t94.5 -42zM257 -221l-48 33q25 20 35 58t4 75h83q4 -27 -3 -59t-24.5 -60.5t-46.5 -46.5z" />
    <glyph glyph-name="uni0219" unicode="&#x219;" horiz-adv-x="407" 
d="M197 -8q-44 0 -85.5 15.5t-68.5 46.5l39 54q26 -25 53.5 -37.5t54.5 -12.5q20 0 37 5t27.5 16.5t10.5 31.5q0 22 -14.5 35t-37 21t-47.5 15q-51 17 -78 47t-27 73q0 33 16.5 61.5t49 46.5t80.5 18q43 0 77 -10.5t64 -34.5l-37 -58q-18 19 -43 28t-45 10q-17 1 -32.5 -5
t-25.5 -17t-10 -26q0 -21 14 -34t36.5 -20.5t44.5 -15.5q31 -9 55 -24t38.5 -37t14.5 -55q0 -37 -17.5 -68.5t-53 -50t-90.5 -18.5zM168 -208l-48 33q25 20 35 58t4 75h83q4 -27 -3 -59t-24.5 -60.5t-46.5 -46.5z" />
    <glyph glyph-name="uni021A" unicode="&#x21a;" horiz-adv-x="581" 
d="M51 723h480v-93h-194v-630h-97v630h-189v93zM258 -214l-48 33q25 20 35 58t4 75h83q4 -27 -3 -59t-24.5 -60.5t-46.5 -46.5z" />
    <glyph glyph-name="uni021B" unicode="&#x21b;" horiz-adv-x="359" 
d="M121 596h93v-184h114v-73h-114v-339h-93v339h-76v73h76v184zM130 -202l-48 33q25 20 35 58t4 75h83q4 -27 -3 -59t-24.5 -60.5t-46.5 -46.5z" />
    <glyph glyph-name="uni022A" unicode="&#x22a;" horiz-adv-x="857" 
d="M59 361q0 75 28.5 141.5t79.5 118t117.5 81t143.5 29.5q76 0 142.5 -29.5t118 -81t80.5 -118t29 -141.5q0 -77 -29 -144t-80.5 -117.5t-118 -79t-142.5 -28.5q-77 0 -143.5 28t-117.5 78t-79.5 117t-28.5 146zM159 360q0 -57 21 -106.5t58 -87.5t86 -59.5t106 -21.5
q56 0 105 21.5t85 59.5t57 87.5t21 107.5q0 57 -21 107.5t-58 88.5t-86 59.5t-105 21.5q-57 0 -106 -22t-86 -60t-57 -88.5t-20 -107.5zM279 821q0 22 16 37.5t36 15.5q19 0 35.5 -15.5t16.5 -38.5t-16.5 -37.5t-35.5 -14.5q-20 0 -36 15t-16 38v0zM466 821q0 22 16.5 37.5
t36.5 15.5q18 0 34.5 -15.5t16.5 -38.5t-16.5 -37.5t-34.5 -14.5q-20 0 -36.5 15t-16.5 38v0zM303 982h246v-66h-246v66z" />
    <glyph glyph-name="uni022B" unicode="&#x22b;" horiz-adv-x="545" 
d="M45 211q0 62 29.5 112t81.5 79t118 29q68 0 119 -29t79 -79t28 -112t-28 -112.5t-79.5 -79.5t-119.5 -29q-66 0 -117.5 27.5t-81 77t-29.5 116.5zM138 210q0 -40 18 -72.5t48.5 -51.5t67.5 -19q39 0 69.5 19t47.5 51.5t17 72.5t-17 72.5t-47.5 52t-69.5 19.5
q-38 0 -68.5 -20t-48 -52.5t-17.5 -71.5zM126 540q0 22 16 37.5t36 15.5q19 0 35.5 -15.5t16.5 -38.5t-16.5 -37.5t-35.5 -14.5q-20 0 -36 15t-16 38v0zM313 540q0 22 16.5 37.5t36.5 15.5q18 0 34.5 -15.5t16.5 -38.5t-16.5 -37.5t-34.5 -14.5q-20 0 -36.5 15t-16.5 38v0z
M150 722h246v-66h-246v66z" />
    <glyph glyph-name="uni022C" unicode="&#x22c;" horiz-adv-x="857" 
d="M59 361q0 75 28.5 141.5t79.5 118t117.5 81t143.5 29.5q76 0 142.5 -29.5t118 -81t80.5 -118t29 -141.5q0 -77 -29 -144t-80.5 -117.5t-118 -79t-142.5 -28.5q-77 0 -143.5 28t-117.5 78t-79.5 117t-28.5 146zM159 360q0 -57 21 -106.5t58 -87.5t86 -59.5t106 -21.5
q56 0 105 21.5t85 59.5t57 87.5t21 107.5q0 57 -21 107.5t-58 88.5t-86 59.5t-105 21.5q-57 0 -106 -22t-86 -60t-57 -88.5t-20 -107.5zM505 795q-32 0 -52.5 14.5t-38.5 30.5q-12 11 -24 20.5t-27 9.5q-12 0 -21.5 -9.5t-14.5 -26t-5 -40.5l-50 1q-3 39 8.5 70t34 49
t53.5 18q26 0 45 -14t35 -29q14 -14 27 -24.5t28 -10.5q20 0 28.5 21.5t8.5 57.5l50 -1q4 -41 -6.5 -72t-31.5 -48t-47 -17zM303 1057h246v-66h-246v66z" />
    <glyph glyph-name="uni022D" unicode="&#x22d;" horiz-adv-x="545" 
d="M45 211q0 62 29.5 112t81.5 79t118 29q68 0 119 -29t79 -79t28 -112t-28 -112.5t-79.5 -79.5t-119.5 -29q-66 0 -117.5 27.5t-81 77t-29.5 116.5zM138 210q0 -40 18 -72.5t48.5 -51.5t67.5 -19q39 0 69.5 19t47.5 51.5t17 72.5t-17 72.5t-47.5 52t-69.5 19.5
q-38 0 -68.5 -20t-48 -52.5t-17.5 -71.5zM350 472q-32 0 -52.5 14.5t-38.5 30.5q-12 11 -24 20.5t-27 9.5q-12 0 -21.5 -9.5t-14.5 -26.5t-5 -40h-50q-3 39 8.5 70.5t34 49.5t53.5 18q26 0 45 -14.5t35 -29.5q14 -13 27 -23.5t28 -10.5q20 0 28.5 21t8.5 57h50
q4 -42 -6.5 -73t-31.5 -47.5t-47 -16.5zM159 742h246v-66h-246v66z" />
    <glyph glyph-name="uni0230" unicode="&#x230;" horiz-adv-x="857" 
d="M59 361q0 75 28.5 141.5t79.5 118t117.5 81t143.5 29.5q76 0 142.5 -29.5t118 -81t80.5 -118t29 -141.5q0 -77 -29 -144t-80.5 -117.5t-118 -79t-142.5 -28.5q-77 0 -143.5 28t-117.5 78t-79.5 117t-28.5 146zM159 360q0 -57 21 -106.5t58 -87.5t86 -59.5t106 -21.5
q56 0 105 21.5t85 59.5t57 87.5t21 107.5q0 57 -21 107.5t-58 88.5t-86 59.5t-105 21.5q-57 0 -106 -22t-86 -60t-57 -88.5t-20 -107.5zM374 819q0 22 17.5 37t38.5 15t37.5 -15t16.5 -37q0 -23 -16.5 -37.5t-37.5 -14.5t-38.5 15t-17.5 37zM303 978h246v-66h-246v66z" />
    <glyph glyph-name="uni0231" unicode="&#x231;" horiz-adv-x="545" 
d="M45 211q0 62 29.5 112t81.5 79t118 29q68 0 119 -29t79 -79t28 -112t-28 -112.5t-79.5 -79.5t-119.5 -29q-66 0 -117.5 27.5t-81 77t-29.5 116.5zM138 210q0 -40 18 -72.5t48.5 -51.5t67.5 -19q39 0 69.5 19t47.5 51.5t17 72.5t-17 72.5t-47.5 52t-69.5 19.5
q-38 0 -68.5 -20t-48 -52.5t-17.5 -71.5zM218 577q0 22 17.5 37t38.5 15t37.5 -15t16.5 -37q0 -23 -16.5 -37.5t-37.5 -14.5t-38.5 15t-17.5 37zM150 757h246v-66h-246v66z" />
    <glyph glyph-name="uni0232" unicode="&#x232;" horiz-adv-x="691" 
d="M296 241l-268 482h119l215 -399l-30 -2l213 401h118l-270 -482v-241h-97v241zM233 840h246v-66h-246v66z" />
    <glyph glyph-name="uni0233" unicode="&#x233;" horiz-adv-x="494" 
d="M116 -199l273 613h86l-267 -613h-92zM218 -3l-199 417h105l167 -370zM131 543h246v-66h-246v66z" />
    <glyph glyph-name="uni0237" unicode="&#x237;" horiz-adv-x="259" 
d="M86 -199l-55 57q28 24 44 59.5t16 83.5v413h94v-417q0 -70 -23.5 -118.5t-75.5 -77.5z" />
    <glyph glyph-name="uni0259" unicode="&#x259;" horiz-adv-x="520" 
d="M247 424q70 0 121.5 -28.5t79 -78.5t27.5 -113q0 -61 -31 -111t-83 -80t-116 -30q-82 0 -136 47.5t-73 132.5l341 120l22 -55l-280 -103l20 14q12 -33 39.5 -57.5t73.5 -24.5q38 0 68 18.5t47 50.5t17 73q0 43 -18 75.5t-49.5 51t-71.5 18.5q-28 0 -53.5 -9.5
t-47.5 -26.5l-43 69q32 21 70.5 34t75.5 13z" />
    <glyph glyph-name="uni0272" unicode="&#x272;" horiz-adv-x="553" 
d="M78 -199l-55 57q28 24 44 59.5t16 83.5v44h93v-48q0 -67 -27 -116t-71 -80zM164 414l8 -101l-4 16q20 46 65 73.5t104 27.5t96.5 -34.5t38.5 -89.5v-306h-94v273q-1 34 -19.5 55.5t-57.5 21.5q-36 0 -65 -20t-45.5 -55t-16.5 -81v-194h-93v414h83z" />
    <glyph glyph-name="uni02BC" unicode="&#x2bc;" horiz-adv-x="203" 
d="M172 641q-22 -52 -43.5 -103.5t-43.5 -104.5h-75q20 53 39 104.5t39 103.5h84z" />
    <glyph glyph-name="circumflex" unicode="&#x2c6;" horiz-adv-x="422" 
d="M291 497l-93 98l27 6l-95 -104h-86l165 171h1l167 -171h-86z" />
    <glyph glyph-name="caron" unicode="&#x2c7;" horiz-adv-x="420" 
d="M129 657l95 -99l-28 -6l95 105h86l-165 -172h-1l-168 172h86z" />
    <glyph glyph-name="uni02C9" unicode="&#x2c9;" horiz-adv-x="354" 
d="M46 606h246v-66h-246v66z" />
    <glyph glyph-name="breve" unicode="&#x2d8;" horiz-adv-x="401" 
d="M201 481q-42 0 -73.5 20.5t-51 60t-26.5 95.5h63q5 -32 15.5 -57.5t29 -40t43.5 -14.5q27 0 44.5 14.5t27.5 40t14 57.5h64q-7 -57 -26.5 -96.5t-50.5 -59.5t-73 -20z" />
    <glyph glyph-name="dotaccent" unicode="&#x2d9;" horiz-adv-x="218" 
d="M52 571q0 22 17.5 37t38.5 15t37.5 -15t16.5 -37q0 -23 -16.5 -37.5t-37.5 -14.5t-38.5 15t-17.5 37z" />
    <glyph glyph-name="ring" unicode="&#x2da;" horiz-adv-x="339" 
d="M77 530q0 40 26.5 64.5t67.5 24.5q39 0 66 -24.5t27 -64.5q0 -39 -27 -64t-67 -25t-66.5 25t-26.5 64zM128 529q0 -19 12 -31.5t31 -12.5q18 0 30 12.5t12 31.5q0 20 -12 32t-30 12q-19 0 -31 -12t-12 -32z" />
    <glyph glyph-name="ogonek" unicode="&#x2db;" horiz-adv-x="340" 
d="M176 -215q-49 0 -83 30t-34 79q0 35 24.5 67t65.5 50l102 -11q-52 -24 -83.5 -47t-31.5 -52q0 -26 15 -37.5t33 -11.5q20 0 37 12.5t31 34.5l36 -47q-17 -29 -49 -48t-63 -19z" />
    <glyph glyph-name="tilde" unicode="&#x2dc;" horiz-adv-x="448" 
d="M309 455q-37 0 -60.5 16.5t-43.5 33.5q-13 13 -26.5 23t-30.5 10q-14 0 -24.5 -10t-16 -29.5t-4.5 -44.5h-58q-3 44 9.5 79.5t38.5 56t61 20.5q29 0 50.5 -16t40.5 -33q15 -15 30 -26.5t31 -11.5q15 0 24 11t13 31t4 46l58 -1q5 -47 -7 -82t-35.5 -54t-53.5 -19z" />
    <glyph glyph-name="hungarumlaut" unicode="&#x2dd;" horiz-adv-x="426" 
d="M231 619l-127 -134h-59l83 134h103zM381 618l-127 -134h-59l83 134h103z" />
    <glyph glyph-name="gravecomb" unicode="&#x300;" 
d="M14 619h103l73 -134h-60z" />
    <glyph glyph-name="acutecomb" unicode="&#x301;" 
d="M273 619l-127 -134h-59l83 134h103z" />
    <glyph glyph-name="uni0302" unicode="&#x302;" 
d="M291 497l-93 98l27 6l-95 -104h-86l165 171h1l167 -171h-86z" />
    <glyph glyph-name="tildecomb" unicode="&#x303;" 
d="M299 459q-32 0 -52.5 14.5t-38.5 30.5q-12 11 -24 20.5t-27 9.5q-12 0 -21.5 -9.5t-14.5 -26.5t-5 -40h-50q-3 39 8.5 70.5t34 49.5t53.5 18q26 0 45 -14.5t35 -29.5q14 -13 27 -23.5t28 -10.5q20 0 28.5 21t8.5 57h50q4 -42 -6.5 -73t-31.5 -47.5t-47 -16.5z" />
    <glyph glyph-name="uni0304" unicode="&#x304;" 
d="M46 537h246v-66h-246v66z" />
    <glyph glyph-name="uni0306" unicode="&#x306;" 
d="M201 481q-42 0 -73.5 20.5t-51 60t-26.5 95.5h63q5 -32 15.5 -57.5t29 -40t43.5 -14.5q27 0 44.5 14.5t27.5 40t14 57.5h64q-7 -57 -26.5 -96.5t-50.5 -59.5t-73 -20z" />
    <glyph glyph-name="uni0307" unicode="&#x307;" 
d="M52 571q0 22 17.5 37t38.5 15t37.5 -15t16.5 -37q0 -23 -16.5 -37.5t-37.5 -14.5t-38.5 15t-17.5 37z" />
    <glyph glyph-name="uni0308" unicode="&#x308;" 
d="M74 527q0 22 16 37.5t36 15.5q19 0 35.5 -15.5t16.5 -38.5t-16.5 -37.5t-35.5 -14.5q-20 0 -36 15t-16 38v0zM261 527q0 22 16.5 37.5t36.5 15.5q18 0 34.5 -15.5t16.5 -38.5t-16.5 -37.5t-34.5 -14.5q-20 0 -36.5 15t-16.5 38v0z" />
    <glyph glyph-name="hookabovecomb" unicode="&#x309;" 
d="M151 584q19 15 31.5 28.5t12.5 32.5q0 15 -8 25t-24 10t-27 -8.5t-20 -22.5l-35 23q17 32 41.5 47t52.5 15q25 0 41.5 -10.5t25 -28.5t8.5 -39q0 -35 -22.5 -58.5t-53.5 -42.5z" />
    <glyph glyph-name="uni030A" unicode="&#x30a;" 
d="M94 530q0 40 26.5 64.5t67.5 24.5q39 0 66 -24.5t27 -64.5q0 -39 -27 -64t-67 -25t-66.5 25t-26.5 64zM145 529q0 -19 12 -31.5t31 -12.5q18 0 30 12.5t12 31.5q0 20 -12 32t-30 12q-19 0 -31 -12t-12 -32z" />
    <glyph glyph-name="uni030B" unicode="&#x30b;" 
d="M230 619l-127 -134h-59l83 134h103zM380 618l-127 -134h-59l83 134h103z" />
    <glyph glyph-name="uni030C" unicode="&#x30c;" 
d="M108 657l95 -99l-28 -6l95 105h86l-165 -172h-1l-168 172h86z" />
    <glyph glyph-name="uni030F" unicode="&#x30f;" 
d="M92 619h103l73 -134h-60zM234 619h103l73 -134h-60z" />
    <glyph glyph-name="uni0311" unicode="&#x311;" 
d="M200 676q42 0 73.5 -20.5t51 -60t26.5 -95.5h-63q-4 33 -15 58t-29 39.5t-44 14.5t-44 -14.5t-28 -39.5t-14 -58h-64q7 57 26.5 96.5t50.5 59.5t73 20z" />
    <glyph glyph-name="uni0312" unicode="&#x312;" 
d="M128 660l48 -33q-24 -20 -34 -57.5t-4 -75.5h-83q-4 28 2.5 60t24.5 60.5t46 45.5z" />
    <glyph glyph-name="uni031B" unicode="&#x31b;" 
d="M69 723q42 0 64 21.5t28 71.5h70q-7 -61 -29.5 -93.5t-56 -44.5t-76.5 -12v57z" />
    <glyph glyph-name="dotbelowcomb" unicode="&#x323;" 
d="M60 -104q0 19 15 32t34 13q17 0 32 -13t15 -32q0 -20 -15 -32.5t-32 -12.5q-19 0 -34 13t-15 32z" />
    <glyph glyph-name="uni0324" unicode="&#x324;" 
d="M74 -101q0 22 16 37.5t36 15.5q19 0 35.5 -15.5t16.5 -38.5t-16.5 -37.5t-35.5 -14.5q-20 0 -36 15t-16 38v0zM261 -101q0 22 16.5 37.5t36.5 15.5q18 0 34.5 -15.5t16.5 -38.5t-16.5 -37.5t-34.5 -14.5q-20 0 -36.5 15t-16.5 38v0z" />
    <glyph glyph-name="uni0326" unicode="&#x326;" 
d="M101 -202l-48 33q25 20 35 58t4 75h83q4 -27 -3 -59t-24.5 -60.5t-46.5 -46.5z" />
    <glyph glyph-name="uni0327" unicode="&#x327;" 
d="M79 -154q11 -11 28 -18.5t39 -7.5q26 0 47 11.5t21 33.5q0 17 -14 31.5t-51 14.5q-16 0 -34 -4t-31 -9l-17 45l70 65l71 -4l-72 -84l-22 23q11 5 27 7.5t31 3.5q53 1 87 -21t34 -66q0 -34 -19.5 -55.5t-50.5 -32t-68 -10.5t-63.5 11.5t-42.5 26.5z" />
    <glyph glyph-name="uni0328" unicode="&#x328;" 
d="M190 -215q-49 0 -83 30t-34 79q0 35 24.5 67t65.5 50l102 -11q-52 -24 -83.5 -47t-31.5 -52q0 -26 15 -37.5t33 -11.5q20 0 37 12.5t31 34.5l36 -47q-17 -29 -49 -48t-63 -19z" />
    <glyph glyph-name="uni032E" unicode="&#x32e;" 
d="M201 -219q-42 0 -73.5 20.5t-51 60t-26.5 95.5h63q5 -32 15.5 -57.5t29 -40t43.5 -14.5q27 0 44.5 14.5t27.5 40t14 57.5h64q-7 -57 -26.5 -96.5t-50.5 -59.5t-73 -20z" />
    <glyph glyph-name="uni0331" unicode="&#x331;" 
d="M46 -85h246v-66h-246v66z" />
    <glyph glyph-name="uni0335" unicode="&#x335;" 
d="M48 365h277v-87h-277v87z" />
    <glyph glyph-name="uni0394" unicode="&#x394;" horiz-adv-x="738" 
d="M32 0l334 753h5l335 -753h-674zM584 46l-257 593l82 -11l-262 -591l-53 56h540z" />
    <glyph glyph-name="uni03BC" unicode="&#x3bc;" horiz-adv-x="546" 
d="M212 -16q-56 0 -92.5 34.5t-38.5 89.5v306h93v-273q2 -34 19.5 -55t55.5 -22q35 0 62.5 20.5t44.5 56t17 80.5v193h93v-414h-85l-8 102l5 -18q-12 -29 -36.5 -51.5t-57.5 -35.5t-72 -13zM81 377h84v-612h-84v612z" />
    <glyph glyph-name="pi" unicode="&#x3c0;" horiz-adv-x="382" 
d="M7 350h365v-81h-54v-269h-83v269h-88v-269h-84v269h-56v81z" />
    <glyph glyph-name="Wgrave" unicode="&#x1e80;" horiz-adv-x="1008" 
d="M41 719h112l196 -552l-17 7l143 370l45 -131l-191 -446zM388 719h97l212 -544l-20 4l187 540h103l-284 -751zM354 901h103l73 -134h-60z" />
    <glyph glyph-name="wgrave" unicode="&#x1e81;" horiz-adv-x="674" 
d="M346 414l122 -279l-18 -2l114 281h91l-190 -439l-133 284l-121 -284l-192 439h91l129 -292l-32 6l92 214l-33 72h80zM192 619h103l73 -134h-60z" />
    <glyph glyph-name="Wacute" unicode="&#x1e82;" horiz-adv-x="1008" 
d="M41 719h112l196 -552l-17 7l143 370l45 -131l-191 -446zM388 719h97l212 -544l-20 4l187 540h103l-284 -751zM658 895l-127 -134h-59l83 134h103z" />
    <glyph glyph-name="wacute" unicode="&#x1e83;" horiz-adv-x="674" 
d="M346 414l122 -279l-18 -2l114 281h91l-190 -439l-133 284l-121 -284l-192 439h91l129 -292l-32 6l92 214l-33 72h80zM451 611l-127 -134h-59l83 134h103z" />
    <glyph glyph-name="Wdieresis" unicode="&#x1e84;" horiz-adv-x="1008" 
d="M41 719h112l196 -552l-17 7l143 370l45 -131l-191 -446zM388 719h97l212 -544l-20 4l187 540h103l-284 -751zM355 821q0 22 16 37.5t36 15.5q19 0 35.5 -15.5t16.5 -38.5t-16.5 -37.5t-35.5 -14.5q-20 0 -36 15t-16 38v0zM542 821q0 22 16.5 37.5t36.5 15.5
q18 0 34.5 -15.5t16.5 -38.5t-16.5 -37.5t-34.5 -14.5q-20 0 -36.5 15t-16.5 38v0z" />
    <glyph glyph-name="wdieresis" unicode="&#x1e85;" horiz-adv-x="674" 
d="M346 414l122 -279l-18 -2l114 281h91l-190 -439l-133 284l-121 -284l-192 439h91l129 -292l-32 6l92 214l-33 72h80zM190 527q0 22 16 37.5t36 15.5q19 0 35.5 -15.5t16.5 -38.5t-16.5 -37.5t-35.5 -14.5q-20 0 -36 15t-16 38v0zM377 527q0 22 16.5 37.5t36.5 15.5
q18 0 34.5 -15.5t16.5 -38.5t-16.5 -37.5t-34.5 -14.5q-20 0 -36.5 15t-16.5 38v0z" />
    <glyph glyph-name="uni1E9E" unicode="&#x1e9e;" horiz-adv-x="839" 
d="M572 -8q-63 0 -120 17.5t-104 48.5l43 76q36 -24 83.5 -40.5t90.5 -16.5q26 0 53.5 11t46 34t18.5 59q0 29 -17 49t-43.5 36.5t-56.5 33.5q-39 20 -76.5 46t-62.5 63t-25 87t20 88.5t59 62t95 26.5q29 0 45.5 -7t28.5 -17l-30 -47q-40 39 -92.5 58.5t-107.5 19.5
q-67 0 -116 -30.5t-76 -95t-27 -166.5v-388h-97v392q0 108 34.5 190.5t103 128.5t167.5 46q57 0 111.5 -15t98.5 -38.5t67 -50.5l-27 -71q-7 6 -25 15.5t-44 9.5t-47 -12.5t-32.5 -33.5t-11.5 -48q0 -33 18 -56t46 -41t58 -36q28 -16 57 -33t52.5 -39t38 -52.5t14.5 -73.5
q0 -51 -25 -94t-72 -69.5t-114 -26.5z" />
    <glyph glyph-name="uni1EA0" unicode="&#x1ea0;" horiz-adv-x="701" 
d="M32 0l316 753h6l315 -753h-111l-236 601l69 45l-264 -646h-95zM217 274h269l32 -84h-329zM294 -102q0 22 17.5 37t38.5 15t37.5 -15t16.5 -37q0 -23 -16.5 -37.5t-37.5 -14.5t-38.5 15t-17.5 37z" />
    <glyph glyph-name="uni1EA1" unicode="&#x1ea1;" horiz-adv-x="586" 
d="M253 -10q-58 0 -105.5 25t-75 73.5t-27.5 118.5q0 69 29 119.5t77.5 77.5t106.5 27t98 -26.5t61 -62.5l-6 -16l9 88h86v-414h-93v108l10 -24q-4 -10 -17.5 -25.5t-36 -31.5t-51.5 -26.5t-65 -10.5zM278 67q35 0 63 13t46.5 36.5t25.5 56.5v81q-8 30 -28 52.5t-48 35
t-62 12.5q-37 0 -68 -18t-49.5 -50t-18.5 -75q0 -40 19 -73t51 -52t69 -19zM244 -104q0 19 15 32t34 13q17 0 32 -13t15 -32q0 -20 -15 -32.5t-32 -12.5q-19 0 -34 13t-15 32z" />
    <glyph glyph-name="uni1EA2" unicode="&#x1ea2;" horiz-adv-x="701" 
d="M32 0l316 753h6l315 -753h-111l-236 601l69 45l-264 -646h-95zM217 274h269l32 -84h-329zM344 814q19 15 31.5 28.5t12.5 32.5q0 15 -8 25t-24 10t-27 -8.5t-20 -22.5l-35 23q17 32 41.5 47t52.5 15q25 0 41.5 -10.5t25 -28.5t8.5 -39q0 -35 -22.5 -58.5t-53.5 -42.5z
" />
    <glyph glyph-name="uni1EA3" unicode="&#x1ea3;" horiz-adv-x="586" 
d="M253 -10q-58 0 -105.5 25t-75 73.5t-27.5 118.5q0 69 29 119.5t77.5 77.5t106.5 27t98 -26.5t61 -62.5l-6 -16l9 88h86v-414h-93v108l10 -24q-4 -10 -17.5 -25.5t-36 -31.5t-51.5 -26.5t-65 -10.5zM278 67q35 0 63 13t46.5 36.5t25.5 56.5v81q-8 30 -28 52.5t-48 35
t-62 12.5q-37 0 -68 -18t-49.5 -50t-18.5 -75q0 -40 19 -73t51 -52t69 -19zM286 503q19 15 31.5 28.5t12.5 32.5q0 15 -8 25t-24 10t-27 -8.5t-20 -22.5l-35 23q17 32 41.5 47t52.5 15q25 0 41.5 -10.5t25 -28.5t8.5 -39q0 -35 -22.5 -58.5t-53.5 -42.5z" />
    <glyph glyph-name="uni1EA4" unicode="&#x1ea4;" horiz-adv-x="701" 
d="M32 0l316 753h6l315 -753h-111l-236 601l69 45l-264 -646h-95zM217 274h269l32 -84h-329zM432 815l-93 98l27 6l-95 -104h-86l165 171h1l167 -171h-86zM624 1046l-127 -134h-59l83 134h103z" />
    <glyph glyph-name="uni1EA5" unicode="&#x1ea5;" horiz-adv-x="586" 
d="M253 -10q-58 0 -105.5 25t-75 73.5t-27.5 118.5q0 69 29 119.5t77.5 77.5t106.5 27t98 -26.5t61 -62.5l-6 -16l9 88h86v-414h-93v108l10 -24q-4 -10 -17.5 -25.5t-36 -31.5t-51.5 -26.5t-65 -10.5zM278 67q35 0 63 13t46.5 36.5t25.5 56.5v81q-8 30 -28 52.5t-48 35
t-62 12.5q-37 0 -68 -18t-49.5 -50t-18.5 -75q0 -40 19 -73t51 -52t69 -19zM388 494l-93 98l27 6l-95 -104h-86l165 171h1l167 -171h-86zM580 725l-127 -134h-59l83 134h103z" />
    <glyph glyph-name="uni1EA6" unicode="&#x1ea6;" horiz-adv-x="701" 
d="M32 0l316 753h6l315 -753h-111l-236 601l69 45l-264 -646h-95zM217 274h269l32 -84h-329zM426 812l-93 98l27 6l-95 -104h-86l165 171h1l167 -171h-86zM45 1052h103l73 -134h-60z" />
    <glyph glyph-name="uni1EA7" unicode="&#x1ea7;" horiz-adv-x="586" 
d="M253 -10q-58 0 -105.5 25t-75 73.5t-27.5 118.5q0 69 29 119.5t77.5 77.5t106.5 27t98 -26.5t61 -62.5l-6 -16l9 88h86v-414h-93v108l10 -24q-4 -10 -17.5 -25.5t-36 -31.5t-51.5 -26.5t-65 -10.5zM278 67q35 0 63 13t46.5 36.5t25.5 56.5v81q-8 30 -28 52.5t-48 35
t-62 12.5q-37 0 -68 -18t-49.5 -50t-18.5 -75q0 -40 19 -73t51 -52t69 -19zM382 491l-93 98l27 6l-95 -104h-86l165 171h1l167 -171h-86zM1 731h103l73 -134h-60z" />
    <glyph glyph-name="uni1EA8" unicode="&#x1ea8;" horiz-adv-x="701" 
d="M32 0l316 753h6l315 -753h-111l-236 601l69 45l-264 -646h-95zM217 274h269l32 -84h-329zM428 815l-93 98l27 6l-95 -104h-86l165 171h1l167 -171h-86zM503 919q19 15 31.5 28.5t12.5 32.5q0 15 -8 25t-24 10t-27 -8.5t-20 -22.5l-35 23q17 32 41.5 47t52.5 15
q25 0 41.5 -10.5t25 -28.5t8.5 -39q0 -35 -22.5 -58.5t-53.5 -42.5z" />
    <glyph glyph-name="uni1EA9" unicode="&#x1ea9;" horiz-adv-x="586" 
d="M253 -10q-58 0 -105.5 25t-75 73.5t-27.5 118.5q0 69 29 119.5t77.5 77.5t106.5 27t98 -26.5t61 -62.5l-6 -16l9 88h86v-414h-93v108l10 -24q-4 -10 -17.5 -25.5t-36 -31.5t-51.5 -26.5t-65 -10.5zM278 67q35 0 63 13t46.5 36.5t25.5 56.5v81q-8 30 -28 52.5t-48 35
t-62 12.5q-37 0 -68 -18t-49.5 -50t-18.5 -75q0 -40 19 -73t51 -52t69 -19zM383 494l-93 98l27 6l-95 -104h-86l165 171h1l167 -171h-86zM458 598q19 15 31.5 28.5t12.5 32.5q0 15 -8 25t-24 10t-27 -8.5t-20 -22.5l-35 23q17 32 41.5 47t52.5 15q25 0 41.5 -10.5t25 -28.5
t8.5 -39q0 -35 -22.5 -58.5t-53.5 -42.5z" />
    <glyph glyph-name="uni1EAA" unicode="&#x1eaa;" horiz-adv-x="701" 
d="M32 0l316 753h6l315 -753h-111l-236 601l69 45l-264 -646h-95zM217 274h269l32 -84h-329zM426 807l-93 98l27 6l-95 -104h-86l165 171h1l167 -171h-86zM423 1003q-32 0 -52.5 14.5t-38.5 30.5q-12 11 -24 20.5t-27 9.5q-12 0 -21.5 -9.5t-14.5 -26.5t-5 -40h-50
q-3 39 8.5 70.5t34 49.5t53.5 18q26 0 45 -14.5t35 -29.5q14 -13 27 -23.5t28 -10.5q20 0 28.5 21t8.5 57h50q4 -42 -6.5 -73t-31.5 -47.5t-47 -16.5z" />
    <glyph glyph-name="uni1EAB" unicode="&#x1eab;" horiz-adv-x="586" 
d="M253 -10q-58 0 -105.5 25t-75 73.5t-27.5 118.5q0 69 29 119.5t77.5 77.5t106.5 27t98 -26.5t61 -62.5l-6 -16l9 88h86v-414h-93v108l10 -24q-4 -10 -17.5 -25.5t-36 -31.5t-51.5 -26.5t-65 -10.5zM278 67q35 0 63 13t46.5 36.5t25.5 56.5v81q-8 30 -28 52.5t-48 35
t-62 12.5q-37 0 -68 -18t-49.5 -50t-18.5 -75q0 -40 19 -73t51 -52t69 -19zM381 486l-93 98l27 6l-95 -104h-86l165 171h1l167 -171h-86zM378 682q-32 0 -52.5 14.5t-38.5 30.5q-12 11 -24 20.5t-27 9.5q-12 0 -21.5 -9.5t-14.5 -26.5t-5 -40h-50q-3 39 8.5 70.5t34 49.5
t53.5 18q26 0 45 -14.5t35 -29.5q14 -13 27 -23.5t28 -10.5q20 0 28.5 21t8.5 57h50q4 -42 -6.5 -73t-31.5 -47.5t-47 -16.5z" />
    <glyph glyph-name="uni1EAC" unicode="&#x1eac;" horiz-adv-x="701" 
d="M32 0l316 753h6l315 -753h-111l-236 601l69 45l-264 -646h-95zM217 274h269l32 -84h-329zM294 -102q0 22 17.5 37t38.5 15t37.5 -15t16.5 -37q0 -23 -16.5 -37.5t-37.5 -14.5t-38.5 15t-17.5 37zM426 798l-93 98l27 6l-95 -104h-86l165 171h1l167 -171h-86z" />
    <glyph glyph-name="uni1EAD" unicode="&#x1ead;" horiz-adv-x="586" 
d="M253 -10q-58 0 -105.5 25t-75 73.5t-27.5 118.5q0 69 29 119.5t77.5 77.5t106.5 27t98 -26.5t61 -62.5l-6 -16l9 88h86v-414h-93v108l10 -24q-4 -10 -17.5 -25.5t-36 -31.5t-51.5 -26.5t-65 -10.5zM278 67q35 0 63 13t46.5 36.5t25.5 56.5v81q-8 30 -28 52.5t-48 35
t-62 12.5q-37 0 -68 -18t-49.5 -50t-18.5 -75q0 -40 19 -73t51 -52t69 -19zM244 -104q0 19 15 32t34 13q17 0 32 -13t15 -32q0 -20 -15 -32.5t-32 -12.5q-19 0 -34 13t-15 32zM386 499l-93 98l27 6l-95 -104h-86l165 171h1l167 -171h-86z" />
    <glyph glyph-name="uni1EAE" unicode="&#x1eae;" horiz-adv-x="701" 
d="M32 0l316 753h6l315 -753h-111l-236 601l69 45l-264 -646h-95zM217 274h269l32 -84h-329zM351 785q-42 0 -73.5 20.5t-51 60t-26.5 95.5h63q5 -32 15.5 -57.5t29 -40t43.5 -14.5q27 0 44.5 14.5t27.5 40t14 57.5h64q-7 -57 -26.5 -96.5t-50.5 -59.5t-73 -20zM503 1132
l-127 -134h-59l83 134h103z" />
    <glyph glyph-name="uni1EAF" unicode="&#x1eaf;" horiz-adv-x="586" 
d="M253 -10q-58 0 -105.5 25t-75 73.5t-27.5 118.5q0 69 29 119.5t77.5 77.5t106.5 27t98 -26.5t61 -62.5l-6 -16l9 88h86v-414h-93v108l10 -24q-4 -10 -17.5 -25.5t-36 -31.5t-51.5 -26.5t-65 -10.5zM278 67q35 0 63 13t46.5 36.5t25.5 56.5v81q-8 30 -28 52.5t-48 35
t-62 12.5q-37 0 -68 -18t-49.5 -50t-18.5 -75q0 -40 19 -73t51 -52t69 -19zM306 479q-42 0 -73.5 20.5t-51 60t-26.5 95.5h63q5 -32 15.5 -57.5t29 -40t43.5 -14.5q27 0 44.5 14.5t27.5 40t14 57.5h64q-7 -57 -26.5 -96.5t-50.5 -59.5t-73 -20zM408 809l-127 -134h-59
l83 134h103z" />
    <glyph glyph-name="uni1EB0" unicode="&#x1eb0;" horiz-adv-x="701" 
d="M32 0l316 753h6l315 -753h-111l-236 601l69 45l-264 -646h-95zM217 274h269l32 -84h-329zM351 785q-42 0 -73.5 20.5t-51 60t-26.5 95.5h63q5 -32 15.5 -57.5t29 -40t43.5 -14.5q27 0 44.5 14.5t27.5 40t14 57.5h64q-7 -57 -26.5 -96.5t-50.5 -59.5t-73 -20zM199 1138
h103l73 -134h-60z" />
    <glyph glyph-name="uni1EB1" unicode="&#x1eb1;" horiz-adv-x="586" 
d="M253 -10q-58 0 -105.5 25t-75 73.5t-27.5 118.5q0 69 29 119.5t77.5 77.5t106.5 27t98 -26.5t61 -62.5l-6 -16l9 88h86v-414h-93v108l10 -24q-4 -10 -17.5 -25.5t-36 -31.5t-51.5 -26.5t-65 -10.5zM278 67q35 0 63 13t46.5 36.5t25.5 56.5v81q-8 30 -28 52.5t-48 35
t-62 12.5q-37 0 -68 -18t-49.5 -50t-18.5 -75q0 -40 19 -73t51 -52t69 -19zM306 479q-42 0 -73.5 20.5t-51 60t-26.5 95.5h63q5 -32 15.5 -57.5t29 -40t43.5 -14.5q27 0 44.5 14.5t27.5 40t14 57.5h64q-7 -57 -26.5 -96.5t-50.5 -59.5t-73 -20zM162 806h103l73 -134h-60z
" />
    <glyph glyph-name="uni1EB2" unicode="&#x1eb2;" horiz-adv-x="701" 
d="M32 0l316 753h6l315 -753h-111l-236 601l69 45l-264 -646h-95zM217 274h269l32 -84h-329zM351 785q-42 0 -73.5 20.5t-51 60t-26.5 95.5h63q5 -32 15.5 -57.5t29 -40t43.5 -14.5q27 0 44.5 14.5t27.5 40t14 57.5h64q-7 -57 -26.5 -96.5t-50.5 -59.5t-73 -20zM343 1033
q19 15 31.5 28.5t12.5 32.5q0 15 -8 25t-24 10t-27 -8.5t-20 -22.5l-35 23q17 32 41.5 47t52.5 15q25 0 41.5 -10.5t25 -28.5t8.5 -39q0 -35 -22.5 -58.5t-53.5 -42.5z" />
    <glyph glyph-name="uni1EB3" unicode="&#x1eb3;" horiz-adv-x="586" 
d="M253 -10q-58 0 -105.5 25t-75 73.5t-27.5 118.5q0 69 29 119.5t77.5 77.5t106.5 27t98 -26.5t61 -62.5l-6 -16l9 88h86v-414h-93v108l10 -24q-4 -10 -17.5 -25.5t-36 -31.5t-51.5 -26.5t-65 -10.5zM278 67q35 0 63 13t46.5 36.5t25.5 56.5v81q-8 30 -28 52.5t-48 35
t-62 12.5q-37 0 -68 -18t-49.5 -50t-18.5 -75q0 -40 19 -73t51 -52t69 -19zM306 479q-42 0 -73.5 20.5t-51 60t-26.5 95.5h63q5 -32 15.5 -57.5t29 -40t43.5 -14.5q27 0 44.5 14.5t27.5 40t14 57.5h64q-7 -57 -26.5 -96.5t-50.5 -59.5t-73 -20zM299 687q19 15 31.5 28.5
t12.5 32.5q0 15 -8 25t-24 10t-27 -8.5t-20 -22.5l-35 23q17 32 41.5 47t52.5 15q25 0 41.5 -10.5t25 -28.5t8.5 -39q0 -35 -22.5 -58.5t-53.5 -42.5z" />
    <glyph glyph-name="uni1EB4" unicode="&#x1eb4;" horiz-adv-x="701" 
d="M32 0l316 753h6l315 -753h-111l-236 601l69 45l-264 -646h-95zM217 274h269l32 -84h-329zM351 785q-42 0 -73.5 20.5t-51 60t-26.5 95.5h63q5 -32 15.5 -57.5t29 -40t43.5 -14.5q27 0 44.5 14.5t27.5 40t14 57.5h64q-7 -57 -26.5 -96.5t-50.5 -59.5t-73 -20zM426 1033
q-32 0 -52.5 14.5t-38.5 30.5q-12 11 -24 20.5t-27 9.5q-12 0 -21.5 -9.5t-14.5 -26t-5 -40.5l-50 1q-3 39 8.5 70t34 49t53.5 18q26 0 45 -14t35 -29q14 -14 27 -24.5t28 -10.5q20 0 28.5 21.5t8.5 57.5l50 -1q4 -41 -6.5 -72t-31.5 -48t-47 -17z" />
    <glyph glyph-name="uni1EB5" unicode="&#x1eb5;" horiz-adv-x="586" 
d="M253 -10q-58 0 -105.5 25t-75 73.5t-27.5 118.5q0 69 29 119.5t77.5 77.5t106.5 27t98 -26.5t61 -62.5l-6 -16l9 88h86v-414h-93v108l10 -24q-4 -10 -17.5 -25.5t-36 -31.5t-51.5 -26.5t-65 -10.5zM278 67q35 0 63 13t46.5 36.5t25.5 56.5v81q-8 30 -28 52.5t-48 35
t-62 12.5q-37 0 -68 -18t-49.5 -50t-18.5 -75q0 -40 19 -73t51 -52t69 -19zM306 479q-42 0 -73.5 20.5t-51 60t-26.5 95.5h63q5 -32 15.5 -57.5t29 -40t43.5 -14.5q27 0 44.5 14.5t27.5 40t14 57.5h64q-7 -57 -26.5 -96.5t-50.5 -59.5t-73 -20zM391 689q-32 0 -52.5 14.5
t-38.5 30.5q-12 11 -24 20.5t-27 9.5q-12 0 -21.5 -9.5t-14.5 -26.5t-5 -40h-50q-3 39 8.5 70.5t34 49.5t53.5 18q26 0 45 -14.5t35 -29.5q14 -13 27 -23.5t28 -10.5q20 0 28.5 21t8.5 57h50q4 -42 -6.5 -73t-31.5 -47.5t-47 -16.5z" />
    <glyph glyph-name="uni1EB6" unicode="&#x1eb6;" horiz-adv-x="701" 
d="M32 0l316 753h6l315 -753h-111l-236 601l69 45l-264 -646h-95zM217 274h269l32 -84h-329zM294 -102q0 22 17.5 37t38.5 15t37.5 -15t16.5 -37q0 -23 -16.5 -37.5t-37.5 -14.5t-38.5 15t-17.5 37zM351 785q-42 0 -73.5 20.5t-51 60t-26.5 95.5h63q5 -32 15.5 -57.5t29 -40
t43.5 -14.5q27 0 44.5 14.5t27.5 40t14 57.5h64q-7 -57 -26.5 -96.5t-50.5 -59.5t-73 -20z" />
    <glyph glyph-name="uni1EB7" unicode="&#x1eb7;" horiz-adv-x="586" 
d="M253 -10q-58 0 -105.5 25t-75 73.5t-27.5 118.5q0 69 29 119.5t77.5 77.5t106.5 27t98 -26.5t61 -62.5l-6 -16l9 88h86v-414h-93v108l10 -24q-4 -10 -17.5 -25.5t-36 -31.5t-51.5 -26.5t-65 -10.5zM278 67q35 0 63 13t46.5 36.5t25.5 56.5v81q-8 30 -28 52.5t-48 35
t-62 12.5q-37 0 -68 -18t-49.5 -50t-18.5 -75q0 -40 19 -73t51 -52t69 -19zM244 -104q0 19 15 32t34 13q17 0 32 -13t15 -32q0 -20 -15 -32.5t-32 -12.5q-19 0 -34 13t-15 32zM306 479q-42 0 -73.5 20.5t-51 60t-26.5 95.5h63q5 -32 15.5 -57.5t29 -40t43.5 -14.5
q27 0 44.5 14.5t27.5 40t14 57.5h64q-7 -57 -26.5 -96.5t-50.5 -59.5t-73 -20z" />
    <glyph glyph-name="uni1EB8" unicode="&#x1eb8;" horiz-adv-x="652" 
d="M104 723h470v-93h-373v-220h333v-93h-333v-224h387v-93h-484v723zM278 -102q0 22 17.5 37t38.5 15t37.5 -15t16.5 -37q0 -23 -16.5 -37.5t-37.5 -14.5t-38.5 15t-17.5 37z" />
    <glyph glyph-name="uni1EB9" unicode="&#x1eb9;" horiz-adv-x="520" 
d="M273 -10q-71 0 -122 28.5t-78.5 78t-27.5 113.5q0 61 31 111t83 80t116 30q82 0 136 -48t73 -132l-341 -120l-22 55l280 102l-20 -13q-12 33 -40 57.5t-73 24.5q-38 0 -68 -18.5t-47 -50.5t-17 -73q0 -43 18 -75.5t49.5 -51t71.5 -18.5q27 0 52.5 10t47.5 26l43 -69
q-31 -21 -69.5 -34t-75.5 -13zM212 -104q0 19 15 32t34 13q17 0 32 -13t15 -32q0 -20 -15 -32.5t-32 -12.5q-19 0 -34 13t-15 32z" />
    <glyph glyph-name="uni1EBA" unicode="&#x1eba;" horiz-adv-x="652" 
d="M104 723h470v-93h-373v-220h333v-93h-333v-224h387v-93h-484v723zM328 802q19 15 31.5 28.5t12.5 32.5q0 15 -8 25t-24 10t-27 -8.5t-20 -22.5l-35 23q17 32 41.5 47t52.5 15q25 0 41.5 -10.5t25 -28.5t8.5 -39q0 -35 -22.5 -58.5t-53.5 -42.5z" />
    <glyph glyph-name="uni1EBB" unicode="&#x1ebb;" horiz-adv-x="520" 
d="M273 -10q-71 0 -122 28.5t-78.5 78t-27.5 113.5q0 61 31 111t83 80t116 30q82 0 136 -48t73 -132l-341 -120l-22 55l280 102l-20 -13q-12 33 -40 57.5t-73 24.5q-38 0 -68 -18.5t-47 -50.5t-17 -73q0 -43 18 -75.5t49.5 -51t71.5 -18.5q27 0 52.5 10t47.5 26l43 -69
q-31 -21 -69.5 -34t-75.5 -13zM248 504q19 15 31.5 28.5t12.5 32.5q0 15 -8 25t-24 10t-27 -8.5t-20 -22.5l-35 23q17 32 41.5 47t52.5 15q25 0 41.5 -10.5t25 -28.5t8.5 -39q0 -35 -22.5 -58.5t-53.5 -42.5z" />
    <glyph glyph-name="uni1EBC" unicode="&#x1ebc;" horiz-adv-x="652" 
d="M104 723h470v-93h-373v-220h333v-93h-333v-224h387v-93h-484v723zM411 802q-32 0 -52.5 14.5t-38.5 30.5q-12 11 -24 20.5t-27 9.5q-12 0 -21.5 -9.5t-14.5 -26t-5 -40.5l-50 1q-3 39 8.5 70t34 49t53.5 18q26 0 45 -14t35 -29q14 -14 27 -24.5t28 -10.5q20 0 28.5 21.5
t8.5 57.5l50 -1q4 -41 -6.5 -72t-31.5 -48t-47 -17z" />
    <glyph glyph-name="uni1EBD" unicode="&#x1ebd;" horiz-adv-x="520" 
d="M273 -10q-71 0 -122 28.5t-78.5 78t-27.5 113.5q0 61 31 111t83 80t116 30q82 0 136 -48t73 -132l-341 -120l-22 55l280 102l-20 -13q-12 33 -40 57.5t-73 24.5q-38 0 -68 -18.5t-47 -50.5t-17 -73q0 -43 18 -75.5t49.5 -51t71.5 -18.5q27 0 52.5 10t47.5 26l43 -69
q-31 -21 -69.5 -34t-75.5 -13zM345 472q-32 0 -52.5 14.5t-38.5 30.5q-12 11 -24 20.5t-27 9.5q-12 0 -21.5 -9.5t-14.5 -26.5t-5 -40h-50q-3 39 8.5 70.5t34 49.5t53.5 18q26 0 45 -14.5t35 -29.5q14 -13 27 -23.5t28 -10.5q20 0 28.5 21t8.5 57h50q4 -42 -6.5 -73
t-31.5 -47.5t-47 -16.5z" />
    <glyph glyph-name="uni1EBE" unicode="&#x1ebe;" horiz-adv-x="652" 
d="M104 723h470v-93h-373v-220h333v-93h-333v-224h387v-93h-484v723zM416 803l-93 98l27 6l-95 -104h-86l165 171h1l167 -171h-86zM608 1034l-127 -134h-59l83 134h103z" />
    <glyph glyph-name="uni1EBF" unicode="&#x1ebf;" horiz-adv-x="520" 
d="M273 -10q-71 0 -122 28.5t-78.5 78t-27.5 113.5q0 61 31 111t83 80t116 30q82 0 136 -48t73 -132l-341 -120l-22 55l280 102l-20 -13q-12 33 -40 57.5t-73 24.5q-38 0 -68 -18.5t-47 -50.5t-17 -73q0 -43 18 -75.5t49.5 -51t71.5 -18.5q27 0 52.5 10t47.5 26l43 -69
q-31 -21 -69.5 -34t-75.5 -13zM350 494l-93 98l27 6l-95 -104h-86l165 171h1l167 -171h-86zM542 725l-127 -134h-59l83 134h103z" />
    <glyph glyph-name="uni1EC0" unicode="&#x1ec0;" horiz-adv-x="652" 
d="M104 723h470v-93h-373v-220h333v-93h-333v-224h387v-93h-484v723zM410 800l-93 98l27 6l-95 -104h-86l165 171h1l167 -171h-86zM29 1040h103l73 -134h-60z" />
    <glyph glyph-name="uni1EC1" unicode="&#x1ec1;" horiz-adv-x="520" 
d="M273 -10q-71 0 -122 28.5t-78.5 78t-27.5 113.5q0 61 31 111t83 80t116 30q82 0 136 -48t73 -132l-341 -120l-22 55l280 102l-20 -13q-12 33 -40 57.5t-73 24.5q-38 0 -68 -18.5t-47 -50.5t-17 -73q0 -43 18 -75.5t49.5 -51t71.5 -18.5q27 0 52.5 10t47.5 26l43 -69
q-31 -21 -69.5 -34t-75.5 -13zM344 491l-93 98l27 6l-95 -104h-86l165 171h1l167 -171h-86zM-37 731h103l73 -134h-60z" />
    <glyph glyph-name="uni1EC2" unicode="&#x1ec2;" horiz-adv-x="652" 
d="M104 723h470v-93h-373v-220h333v-93h-333v-224h387v-93h-484v723zM412 803l-93 98l27 6l-95 -104h-86l165 171h1l167 -171h-86zM487 907q19 15 31.5 28.5t12.5 32.5q0 15 -8 25t-24 10t-27 -8.5t-20 -22.5l-35 23q17 32 41.5 47t52.5 15q25 0 41.5 -10.5t25 -28.5
t8.5 -39q0 -35 -22.5 -58.5t-53.5 -42.5z" />
    <glyph glyph-name="uni1EC3" unicode="&#x1ec3;" horiz-adv-x="520" 
d="M273 -10q-71 0 -122 28.5t-78.5 78t-27.5 113.5q0 61 31 111t83 80t116 30q82 0 136 -48t73 -132l-341 -120l-22 55l280 102l-20 -13q-12 33 -40 57.5t-73 24.5q-38 0 -68 -18.5t-47 -50.5t-17 -73q0 -43 18 -75.5t49.5 -51t71.5 -18.5q27 0 52.5 10t47.5 26l43 -69
q-31 -21 -69.5 -34t-75.5 -13zM346 494l-93 98l27 6l-95 -104h-86l165 171h1l167 -171h-86zM421 598q19 15 31.5 28.5t12.5 32.5q0 15 -8 25t-24 10t-27 -8.5t-20 -22.5l-35 23q17 32 41.5 47t52.5 15q25 0 41.5 -10.5t25 -28.5t8.5 -39q0 -35 -22.5 -58.5t-53.5 -42.5z" />
    <glyph glyph-name="uni1EC4" unicode="&#x1ec4;" horiz-adv-x="652" 
d="M104 723h470v-93h-373v-220h333v-93h-333v-224h387v-93h-484v723zM409 795l-93 98l27 6l-95 -104h-86l165 171h1l167 -171h-86zM406 991q-32 0 -52.5 14.5t-38.5 30.5q-12 11 -24 20.5t-27 9.5q-12 0 -21.5 -9.5t-14.5 -26.5t-5 -40h-50q-3 39 8.5 70.5t34 49.5t53.5 18
q26 0 45 -14.5t35 -29.5q14 -13 27 -23.5t28 -10.5q20 0 28.5 21t8.5 57h50q4 -42 -6.5 -73t-31.5 -47.5t-47 -16.5z" />
    <glyph glyph-name="uni1EC5" unicode="&#x1ec5;" horiz-adv-x="520" 
d="M273 -10q-71 0 -122 28.5t-78.5 78t-27.5 113.5q0 61 31 111t83 80t116 30q82 0 136 -48t73 -132l-341 -120l-22 55l280 102l-20 -13q-12 33 -40 57.5t-73 24.5q-38 0 -68 -18.5t-47 -50.5t-17 -73q0 -43 18 -75.5t49.5 -51t71.5 -18.5q27 0 52.5 10t47.5 26l43 -69
q-31 -21 -69.5 -34t-75.5 -13zM343 487l-93 98l27 6l-95 -104h-86l165 171h1l167 -171h-86zM340 683q-32 0 -52.5 14.5t-38.5 30.5q-12 11 -24 20.5t-27 9.5q-12 0 -21.5 -9.5t-14.5 -26.5t-5 -40h-50q-3 39 8.5 70.5t34 49.5t53.5 18q26 0 45 -14.5t35 -29.5
q14 -13 27 -23.5t28 -10.5q20 0 28.5 21t8.5 57h50q4 -42 -6.5 -73t-31.5 -47.5t-47 -16.5z" />
    <glyph glyph-name="uni1EC6" unicode="&#x1ec6;" horiz-adv-x="652" 
d="M104 723h470v-93h-373v-220h333v-93h-333v-224h387v-93h-484v723zM278 -102q0 22 17.5 37t38.5 15t37.5 -15t16.5 -37q0 -23 -16.5 -37.5t-37.5 -14.5t-38.5 15t-17.5 37zM410 785l-93 98l27 6l-95 -104h-86l165 171h1l167 -171h-86z" />
    <glyph glyph-name="uni1EC7" unicode="&#x1ec7;" horiz-adv-x="520" 
d="M273 -10q-71 0 -122 28.5t-78.5 78t-27.5 113.5q0 61 31 111t83 80t116 30q82 0 136 -48t73 -132l-341 -120l-22 55l280 102l-20 -13q-12 33 -40 57.5t-73 24.5q-38 0 -68 -18.5t-47 -50.5t-17 -73q0 -43 18 -75.5t49.5 -51t71.5 -18.5q27 0 52.5 10t47.5 26l43 -69
q-31 -21 -69.5 -34t-75.5 -13zM212 -104q0 19 15 32t34 13q17 0 32 -13t15 -32q0 -20 -15 -32.5t-32 -12.5q-19 0 -34 13t-15 32zM348 499l-93 98l27 6l-95 -104h-86l165 171h1l167 -171h-86z" />
    <glyph glyph-name="uni1EC8" unicode="&#x1ec8;" horiz-adv-x="305" 
d="M104 723h97v-723h-97v723zM147 802q19 15 31.5 28.5t12.5 32.5q0 15 -8 25t-24 10t-27 -8.5t-20 -22.5l-35 23q17 32 41.5 47t52.5 15q25 0 41.5 -10.5t25 -28.5t8.5 -39q0 -35 -22.5 -58.5t-53.5 -42.5z" />
    <glyph glyph-name="uni1EC9" unicode="&#x1ec9;" horiz-adv-x="254" 
d="M81 414h93v-414h-93v414zM108 490q19 15 31.5 28.5t12.5 32.5q0 15 -8 25t-24 10t-27 -8.5t-20 -22.5l-35 23q17 32 41.5 47t52.5 15q25 0 41.5 -10.5t25 -28.5t8.5 -39q0 -35 -22.5 -58.5t-53.5 -42.5z" />
    <glyph glyph-name="uni1ECA" unicode="&#x1eca;" horiz-adv-x="305" 
d="M104 723h97v-723h-97v723zM96 -102q0 22 17.5 37t38.5 15t37.5 -15t16.5 -37q0 -23 -16.5 -37.5t-37.5 -14.5t-38.5 15t-17.5 37z" />
    <glyph glyph-name="uni1ECB" unicode="&#x1ecb;" horiz-adv-x="254" 
d="M81 414h93v-414h-93v414zM74 564q0 22 17.5 37t38.5 15t37.5 -15t16.5 -37q0 -23 -16.5 -37.5t-37.5 -14.5t-38.5 15t-17.5 37zM77 -104q0 19 15 32t34 13q17 0 32 -13t15 -32q0 -20 -15 -32.5t-32 -12.5q-19 0 -34 13t-15 32z" />
    <glyph glyph-name="uni1ECC" unicode="&#x1ecc;" horiz-adv-x="857" 
d="M59 361q0 75 28.5 141.5t79.5 118t117.5 81t143.5 29.5q76 0 142.5 -29.5t118 -81t80.5 -118t29 -141.5q0 -77 -29 -144t-80.5 -117.5t-118 -79t-142.5 -28.5q-77 0 -143.5 28t-117.5 78t-79.5 117t-28.5 146zM159 360q0 -57 21 -106.5t58 -87.5t86 -59.5t106 -21.5
q56 0 105 21.5t85 59.5t57 87.5t21 107.5q0 57 -21 107.5t-58 88.5t-86 59.5t-105 21.5q-57 0 -106 -22t-86 -60t-57 -88.5t-20 -107.5zM372 -102q0 22 17.5 37t38.5 15t37.5 -15t16.5 -37q0 -23 -16.5 -37.5t-37.5 -14.5t-38.5 15t-17.5 37z" />
    <glyph glyph-name="uni1ECD" unicode="&#x1ecd;" horiz-adv-x="545" 
d="M45 211q0 62 29.5 112t81.5 79t118 29q68 0 119 -29t79 -79t28 -112t-28 -112.5t-79.5 -79.5t-119.5 -29q-66 0 -117.5 27.5t-81 77t-29.5 116.5zM138 210q0 -40 18 -72.5t48.5 -51.5t67.5 -19q39 0 69.5 19t47.5 51.5t17 72.5t-17 72.5t-47.5 52t-69.5 19.5
q-38 0 -68.5 -20t-48 -52.5t-17.5 -71.5zM224 -104q0 19 15 32t34 13q17 0 32 -13t15 -32q0 -20 -15 -32.5t-32 -12.5q-19 0 -34 13t-15 32z" />
    <glyph glyph-name="uni1ECE" unicode="&#x1ece;" horiz-adv-x="857" 
d="M59 361q0 75 28.5 141.5t79.5 118t117.5 81t143.5 29.5q76 0 142.5 -29.5t118 -81t80.5 -118t29 -141.5q0 -77 -29 -144t-80.5 -117.5t-118 -79t-142.5 -28.5q-77 0 -143.5 28t-117.5 78t-79.5 117t-28.5 146zM159 360q0 -57 21 -106.5t58 -87.5t86 -59.5t106 -21.5
q56 0 105 21.5t85 59.5t57 87.5t21 107.5q0 57 -21 107.5t-58 88.5t-86 59.5t-105 21.5q-57 0 -106 -22t-86 -60t-57 -88.5t-20 -107.5zM422 795q19 15 31.5 28.5t12.5 32.5q0 15 -8 25t-24 10t-27 -8.5t-20 -22.5l-35 23q17 32 41.5 47t52.5 15q25 0 41.5 -10.5t25 -28.5
t8.5 -39q0 -35 -22.5 -58.5t-53.5 -42.5z" />
    <glyph glyph-name="uni1ECF" unicode="&#x1ecf;" horiz-adv-x="545" 
d="M45 211q0 62 29.5 112t81.5 79t118 29q68 0 119 -29t79 -79t28 -112t-28 -112.5t-79.5 -79.5t-119.5 -29q-66 0 -117.5 27.5t-81 77t-29.5 116.5zM138 210q0 -40 18 -72.5t48.5 -51.5t67.5 -19q39 0 69.5 19t47.5 51.5t17 72.5t-17 72.5t-47.5 52t-69.5 19.5
q-38 0 -68.5 -20t-48 -52.5t-17.5 -71.5zM253 503q19 15 31.5 28.5t12.5 32.5q0 15 -8 25t-24 10t-27 -8.5t-20 -22.5l-35 23q17 32 41.5 47t52.5 15q25 0 41.5 -10.5t25 -28.5t8.5 -39q0 -35 -22.5 -58.5t-53.5 -42.5z" />
    <glyph glyph-name="uni1ED0" unicode="&#x1ed0;" horiz-adv-x="857" 
d="M59 361q0 75 28.5 141.5t79.5 118t117.5 81t143.5 29.5q76 0 142.5 -29.5t118 -81t80.5 -118t29 -141.5q0 -77 -29 -144t-80.5 -117.5t-118 -79t-142.5 -28.5q-77 0 -143.5 28t-117.5 78t-79.5 117t-28.5 146zM159 360q0 -57 21 -106.5t58 -87.5t86 -59.5t106 -21.5
q56 0 105 21.5t85 59.5t57 87.5t21 107.5q0 57 -21 107.5t-58 88.5t-86 59.5t-105 21.5q-57 0 -106 -22t-86 -60t-57 -88.5t-20 -107.5zM510 796l-93 98l27 6l-95 -104h-86l165 171h1l167 -171h-86zM702 1027l-127 -134h-59l83 134h103z" />
    <glyph glyph-name="uni1ED1" unicode="&#x1ed1;" horiz-adv-x="545" 
d="M45 211q0 62 29.5 112t81.5 79t118 29q68 0 119 -29t79 -79t28 -112t-28 -112.5t-79.5 -79.5t-119.5 -29q-66 0 -117.5 27.5t-81 77t-29.5 116.5zM138 210q0 -40 18 -72.5t48.5 -51.5t67.5 -19q39 0 69.5 19t47.5 51.5t17 72.5t-17 72.5t-47.5 52t-69.5 19.5
q-38 0 -68.5 -20t-48 -52.5t-17.5 -71.5zM355 494l-93 98l27 6l-95 -104h-86l165 171h1l167 -171h-86zM547 725l-127 -134h-59l83 134h103z" />
    <glyph glyph-name="uni1ED2" unicode="&#x1ed2;" horiz-adv-x="857" 
d="M59 361q0 75 28.5 141.5t79.5 118t117.5 81t143.5 29.5q76 0 142.5 -29.5t118 -81t80.5 -118t29 -141.5q0 -77 -29 -144t-80.5 -117.5t-118 -79t-142.5 -28.5q-77 0 -143.5 28t-117.5 78t-79.5 117t-28.5 146zM159 360q0 -57 21 -106.5t58 -87.5t86 -59.5t106 -21.5
q56 0 105 21.5t85 59.5t57 87.5t21 107.5q0 57 -21 107.5t-58 88.5t-86 59.5t-105 21.5q-57 0 -106 -22t-86 -60t-57 -88.5t-20 -107.5zM504 793l-93 98l27 6l-95 -104h-86l165 171h1l167 -171h-86zM123 1033h103l73 -134h-60z" />
    <glyph glyph-name="uni1ED3" unicode="&#x1ed3;" horiz-adv-x="545" 
d="M45 211q0 62 29.5 112t81.5 79t118 29q68 0 119 -29t79 -79t28 -112t-28 -112.5t-79.5 -79.5t-119.5 -29q-66 0 -117.5 27.5t-81 77t-29.5 116.5zM138 210q0 -40 18 -72.5t48.5 -51.5t67.5 -19q39 0 69.5 19t47.5 51.5t17 72.5t-17 72.5t-47.5 52t-69.5 19.5
q-38 0 -68.5 -20t-48 -52.5t-17.5 -71.5zM349 491l-93 98l27 6l-95 -104h-86l165 171h1l167 -171h-86zM-32 731h103l73 -134h-60z" />
    <glyph glyph-name="uni1ED4" unicode="&#x1ed4;" horiz-adv-x="857" 
d="M59 361q0 75 28.5 141.5t79.5 118t117.5 81t143.5 29.5q76 0 142.5 -29.5t118 -81t80.5 -118t29 -141.5q0 -77 -29 -144t-80.5 -117.5t-118 -79t-142.5 -28.5q-77 0 -143.5 28t-117.5 78t-79.5 117t-28.5 146zM159 360q0 -57 21 -106.5t58 -87.5t86 -59.5t106 -21.5
q56 0 105 21.5t85 59.5t57 87.5t21 107.5q0 57 -21 107.5t-58 88.5t-86 59.5t-105 21.5q-57 0 -106 -22t-86 -60t-57 -88.5t-20 -107.5zM506 796l-93 98l27 6l-95 -104h-86l165 171h1l167 -171h-86zM581 900q19 15 31.5 28.5t12.5 32.5q0 15 -8 25t-24 10t-27 -8.5
t-20 -22.5l-35 23q17 32 41.5 47t52.5 15q25 0 41.5 -10.5t25 -28.5t8.5 -39q0 -35 -22.5 -58.5t-53.5 -42.5z" />
    <glyph glyph-name="uni1ED5" unicode="&#x1ed5;" horiz-adv-x="545" 
d="M45 211q0 62 29.5 112t81.5 79t118 29q68 0 119 -29t79 -79t28 -112t-28 -112.5t-79.5 -79.5t-119.5 -29q-66 0 -117.5 27.5t-81 77t-29.5 116.5zM138 210q0 -40 18 -72.5t48.5 -51.5t67.5 -19q39 0 69.5 19t47.5 51.5t17 72.5t-17 72.5t-47.5 52t-69.5 19.5
q-38 0 -68.5 -20t-48 -52.5t-17.5 -71.5zM350 494l-93 98l27 6l-95 -104h-86l165 171h1l167 -171h-86zM425 598q19 15 31.5 28.5t12.5 32.5q0 15 -8 25t-24 10t-27 -8.5t-20 -22.5l-35 23q17 32 41.5 47t52.5 15q25 0 41.5 -10.5t25 -28.5t8.5 -39q0 -35 -22.5 -58.5
t-53.5 -42.5z" />
    <glyph glyph-name="uni1ED6" unicode="&#x1ed6;" horiz-adv-x="857" 
d="M59 361q0 75 28.5 141.5t79.5 118t117.5 81t143.5 29.5q76 0 142.5 -29.5t118 -81t80.5 -118t29 -141.5q0 -77 -29 -144t-80.5 -117.5t-118 -79t-142.5 -28.5q-77 0 -143.5 28t-117.5 78t-79.5 117t-28.5 146zM159 360q0 -57 21 -106.5t58 -87.5t86 -59.5t106 -21.5
q56 0 105 21.5t85 59.5t57 87.5t21 107.5q0 57 -21 107.5t-58 88.5t-86 59.5t-105 21.5q-57 0 -106 -22t-86 -60t-57 -88.5t-20 -107.5zM504 788l-93 98l27 6l-95 -104h-86l165 171h1l167 -171h-86zM501 984q-32 0 -52.5 14.5t-38.5 30.5q-12 11 -24 20.5t-27 9.5
q-12 0 -21.5 -9.5t-14.5 -26.5t-5 -40h-50q-3 39 8.5 70.5t34 49.5t53.5 18q26 0 45 -14.5t35 -29.5q14 -13 27 -23.5t28 -10.5q20 0 28.5 21t8.5 57h50q4 -42 -6.5 -73t-31.5 -47.5t-47 -16.5z" />
    <glyph glyph-name="uni1ED7" unicode="&#x1ed7;" horiz-adv-x="545" 
d="M45 211q0 62 29.5 112t81.5 79t118 29q68 0 119 -29t79 -79t28 -112t-28 -112.5t-79.5 -79.5t-119.5 -29q-66 0 -117.5 27.5t-81 77t-29.5 116.5zM138 210q0 -40 18 -72.5t48.5 -51.5t67.5 -19q39 0 69.5 19t47.5 51.5t17 72.5t-17 72.5t-47.5 52t-69.5 19.5
q-38 0 -68.5 -20t-48 -52.5t-17.5 -71.5zM348 486l-93 98l27 6l-95 -104h-86l165 171h1l167 -171h-86zM345 682q-32 0 -52.5 14.5t-38.5 30.5q-12 11 -24 20.5t-27 9.5q-12 0 -21.5 -9.5t-14.5 -26.5t-5 -40h-50q-3 39 8.5 70.5t34 49.5t53.5 18q26 0 45 -14.5t35 -29.5
q14 -13 27 -23.5t28 -10.5q20 0 28.5 21t8.5 57h50q4 -42 -6.5 -73t-31.5 -47.5t-47 -16.5z" />
    <glyph glyph-name="uni1ED8" unicode="&#x1ed8;" horiz-adv-x="857" 
d="M59 361q0 75 28.5 141.5t79.5 118t117.5 81t143.5 29.5q76 0 142.5 -29.5t118 -81t80.5 -118t29 -141.5q0 -77 -29 -144t-80.5 -117.5t-118 -79t-142.5 -28.5q-77 0 -143.5 28t-117.5 78t-79.5 117t-28.5 146zM159 360q0 -57 21 -106.5t58 -87.5t86 -59.5t106 -21.5
q56 0 105 21.5t85 59.5t57 87.5t21 107.5q0 57 -21 107.5t-58 88.5t-86 59.5t-105 21.5q-57 0 -106 -22t-86 -60t-57 -88.5t-20 -107.5zM372 -102q0 22 17.5 37t38.5 15t37.5 -15t16.5 -37q0 -23 -16.5 -37.5t-37.5 -14.5t-38.5 15t-17.5 37zM504 779l-93 98l27 6l-95 -104
h-86l165 171h1l167 -171h-86z" />
    <glyph glyph-name="uni1ED9" unicode="&#x1ed9;" horiz-adv-x="545" 
d="M45 211q0 62 29.5 112t81.5 79t118 29q68 0 119 -29t79 -79t28 -112t-28 -112.5t-79.5 -79.5t-119.5 -29q-66 0 -117.5 27.5t-81 77t-29.5 116.5zM138 210q0 -40 18 -72.5t48.5 -51.5t67.5 -19q39 0 69.5 19t47.5 51.5t17 72.5t-17 72.5t-47.5 52t-69.5 19.5
q-38 0 -68.5 -20t-48 -52.5t-17.5 -71.5zM224 -104q0 19 15 32t34 13q17 0 32 -13t15 -32q0 -20 -15 -32.5t-32 -12.5q-19 0 -34 13t-15 32zM353 499l-93 98l27 6l-95 -104h-86l165 171h1l167 -171h-86z" />
    <glyph glyph-name="uni1EDA" unicode="&#x1eda;" horiz-adv-x="857" 
d="M59 361q0 75 28.5 141.5t79.5 118t117.5 81t143.5 29.5q76 0 142.5 -29.5t118 -81t80.5 -118t29 -141.5q0 -77 -29 -144t-80.5 -117.5t-118 -79t-142.5 -28.5q-77 0 -143.5 28t-117.5 78t-79.5 117t-28.5 146zM159 360q0 -57 21 -106.5t58 -87.5t86 -59.5t106 -21.5
q56 0 105 21.5t85 59.5t57 87.5t21 107.5q0 57 -21 107.5t-58 88.5t-86 59.5t-105 21.5q-57 0 -106 -22t-86 -60t-57 -88.5t-20 -107.5zM500 723q42 0 59.5 19.5t22.5 71.5h70q-7 -63 -27 -95t-51.5 -42.5t-73.5 -10.5v57zM582 895l-127 -134h-59l83 134h103z" />
    <glyph glyph-name="uni1EDB" unicode="&#x1edb;" horiz-adv-x="545" 
d="M45 211q0 62 29.5 112t81.5 79t118 29q68 0 119 -29t79 -79t28 -112t-28 -112.5t-79.5 -79.5t-119.5 -29q-66 0 -117.5 27.5t-81 77t-29.5 116.5zM138 210q0 -40 18 -72.5t48.5 -51.5t67.5 -19q39 0 69.5 19t47.5 51.5t17 72.5t-17 72.5t-47.5 52t-69.5 19.5
q-38 0 -68.5 -20t-48 -52.5t-17.5 -71.5zM351 414q42 0 64 21.5t28 71.5h70q-7 -61 -29.5 -93.5t-56 -44.5t-76.5 -12v57zM387 614l-127 -134h-59l83 134h103z" />
    <glyph glyph-name="uni1EDC" unicode="&#x1edc;" horiz-adv-x="857" 
d="M59 361q0 75 28.5 141.5t79.5 118t117.5 81t143.5 29.5q76 0 142.5 -29.5t118 -81t80.5 -118t29 -141.5q0 -77 -29 -144t-80.5 -117.5t-118 -79t-142.5 -28.5q-77 0 -143.5 28t-117.5 78t-79.5 117t-28.5 146zM159 360q0 -57 21 -106.5t58 -87.5t86 -59.5t106 -21.5
q56 0 105 21.5t85 59.5t57 87.5t21 107.5q0 57 -21 107.5t-58 88.5t-86 59.5t-105 21.5q-57 0 -106 -22t-86 -60t-57 -88.5t-20 -107.5zM500 723q42 0 59.5 19.5t22.5 71.5h70q-7 -63 -27 -95t-51.5 -42.5t-73.5 -10.5v57zM297 901h103l73 -134h-60z" />
    <glyph glyph-name="uni1EDD" unicode="&#x1edd;" horiz-adv-x="545" 
d="M45 211q0 62 29.5 112t81.5 79t118 29q68 0 119 -29t79 -79t28 -112t-28 -112.5t-79.5 -79.5t-119.5 -29q-66 0 -117.5 27.5t-81 77t-29.5 116.5zM138 210q0 -40 18 -72.5t48.5 -51.5t67.5 -19q39 0 69.5 19t47.5 51.5t17 72.5t-17 72.5t-47.5 52t-69.5 19.5
q-38 0 -68.5 -20t-48 -52.5t-17.5 -71.5zM351 414q42 0 64 21.5t28 71.5h70q-7 -61 -29.5 -93.5t-56 -44.5t-76.5 -12v57zM128 632h103l73 -134h-60z" />
    <glyph glyph-name="uni1EDE" unicode="&#x1ede;" horiz-adv-x="857" 
d="M59 361q0 75 28.5 141.5t79.5 118t117.5 81t143.5 29.5q76 0 142.5 -29.5t118 -81t80.5 -118t29 -141.5q0 -77 -29 -144t-80.5 -117.5t-118 -79t-142.5 -28.5q-77 0 -143.5 28t-117.5 78t-79.5 117t-28.5 146zM159 360q0 -57 21 -106.5t58 -87.5t86 -59.5t106 -21.5
q56 0 105 21.5t85 59.5t57 87.5t21 107.5q0 57 -21 107.5t-58 88.5t-86 59.5t-105 21.5q-57 0 -106 -22t-86 -60t-57 -88.5t-20 -107.5zM500 723q42 0 59.5 19.5t22.5 71.5h70q-7 -63 -27 -95t-51.5 -42.5t-73.5 -10.5v57zM422 795q19 15 31.5 28.5t12.5 32.5q0 15 -8 25
t-24 10t-27 -8.5t-20 -22.5l-35 23q17 32 41.5 47t52.5 15q25 0 41.5 -10.5t25 -28.5t8.5 -39q0 -35 -22.5 -58.5t-53.5 -42.5z" />
    <glyph glyph-name="uni1EDF" unicode="&#x1edf;" horiz-adv-x="545" 
d="M45 211q0 62 29.5 112t81.5 79t118 29q68 0 119 -29t79 -79t28 -112t-28 -112.5t-79.5 -79.5t-119.5 -29q-66 0 -117.5 27.5t-81 77t-29.5 116.5zM138 210q0 -40 18 -72.5t48.5 -51.5t67.5 -19q39 0 69.5 19t47.5 51.5t17 72.5t-17 72.5t-47.5 52t-69.5 19.5
q-38 0 -68.5 -20t-48 -52.5t-17.5 -71.5zM351 414q42 0 64 21.5t28 71.5h70q-7 -61 -29.5 -93.5t-56 -44.5t-76.5 -12v57zM253 503q19 15 31.5 28.5t12.5 32.5q0 15 -8 25t-24 10t-27 -8.5t-20 -22.5l-35 23q17 32 41.5 47t52.5 15q25 0 41.5 -10.5t25 -28.5t8.5 -39
q0 -35 -22.5 -58.5t-53.5 -42.5z" />
    <glyph glyph-name="uni1EE0" unicode="&#x1ee0;" horiz-adv-x="857" 
d="M59 361q0 75 28.5 141.5t79.5 118t117.5 81t143.5 29.5q76 0 142.5 -29.5t118 -81t80.5 -118t29 -141.5q0 -77 -29 -144t-80.5 -117.5t-118 -79t-142.5 -28.5q-77 0 -143.5 28t-117.5 78t-79.5 117t-28.5 146zM159 360q0 -57 21 -106.5t58 -87.5t86 -59.5t106 -21.5
q56 0 105 21.5t85 59.5t57 87.5t21 107.5q0 57 -21 107.5t-58 88.5t-86 59.5t-105 21.5q-57 0 -106 -22t-86 -60t-57 -88.5t-20 -107.5zM500 723q42 0 59.5 19.5t22.5 71.5h70q-7 -63 -27 -95t-51.5 -42.5t-73.5 -10.5v57zM505 795q-32 0 -52.5 14.5t-38.5 30.5
q-12 11 -24 20.5t-27 9.5q-12 0 -21.5 -9.5t-14.5 -26t-5 -40.5l-50 1q-3 39 8.5 70t34 49t53.5 18q26 0 45 -14t35 -29q14 -14 27 -24.5t28 -10.5q20 0 28.5 21.5t8.5 57.5l50 -1q4 -41 -6.5 -72t-31.5 -48t-47 -17z" />
    <glyph glyph-name="uni1EE1" unicode="&#x1ee1;" horiz-adv-x="545" 
d="M327 476q-28 0 -46.5 13t-33.5 27q-11 10 -21.5 18t-24.5 8q-12 0 -20.5 -8t-13 -23t-4.5 -36h-43q-1 35 8.5 62.5t29.5 43t47 15.5q23 0 39.5 -12.5t31.5 -26.5q12 -12 23.5 -21t26.5 -9q17 0 25 18.5t8 51.5h43q4 -38 -5.5 -65t-28 -41.5t-41.5 -14.5zM45 211
q0 62 29.5 112t81.5 79t118 29q68 0 119 -29t79 -79t28 -112t-28 -112.5t-79.5 -79.5t-119.5 -29q-66 0 -117.5 27.5t-81 77t-29.5 116.5zM138 210q0 -40 18 -72.5t48.5 -51.5t67.5 -19q39 0 69.5 19t47.5 51.5t17 72.5t-17 72.5t-47.5 52t-69.5 19.5q-38 0 -68.5 -20
t-48 -52.5t-17.5 -71.5zM351 414q41 0 63.5 21.5t28.5 71.5h70q-7 -61 -29.5 -93.5t-56 -44.5t-76.5 -12v57z" />
    <glyph glyph-name="uni1EE2" unicode="&#x1ee2;" horiz-adv-x="857" 
d="M59 361q0 75 28.5 141.5t79.5 118t117.5 81t143.5 29.5q76 0 142.5 -29.5t118 -81t80.5 -118t29 -141.5q0 -77 -29 -144t-80.5 -117.5t-118 -79t-142.5 -28.5q-77 0 -143.5 28t-117.5 78t-79.5 117t-28.5 146zM159 360q0 -57 21 -106.5t58 -87.5t86 -59.5t106 -21.5
q56 0 105 21.5t85 59.5t57 87.5t21 107.5q0 57 -21 107.5t-58 88.5t-86 59.5t-105 21.5q-57 0 -106 -22t-86 -60t-57 -88.5t-20 -107.5zM500 723q42 0 59.5 19.5t22.5 71.5h70q-7 -63 -27 -95t-51.5 -42.5t-73.5 -10.5v57zM372 -102q0 22 17.5 37t38.5 15t37.5 -15t16.5 -37
q0 -23 -16.5 -37.5t-37.5 -14.5t-38.5 15t-17.5 37z" />
    <glyph glyph-name="uni1EE3" unicode="&#x1ee3;" horiz-adv-x="545" 
d="M45 211q0 62 29.5 112t81.5 79t118 29q68 0 119 -29t79 -79t28 -112t-28 -112.5t-79.5 -79.5t-119.5 -29q-66 0 -117.5 27.5t-81 77t-29.5 116.5zM138 210q0 -40 18 -72.5t48.5 -51.5t67.5 -19q39 0 69.5 19t47.5 51.5t17 72.5t-17 72.5t-47.5 52t-69.5 19.5
q-38 0 -68.5 -20t-48 -52.5t-17.5 -71.5zM351 414q42 0 64 21.5t28 71.5h70q-7 -61 -29.5 -93.5t-56 -44.5t-76.5 -12v57zM224 -104q0 19 15 32t34 13q17 0 32 -13t15 -32q0 -20 -15 -32.5t-32 -12.5q-19 0 -34 13t-15 32z" />
    <glyph glyph-name="uni1EE4" unicode="&#x1ee4;" horiz-adv-x="731" 
d="M191 256q0 -49 23.5 -87.5t62.5 -60.5t88 -22q51 0 91 22t63 60.5t23 87.5v467h95v-470q0 -79 -36.5 -138t-98 -91t-137.5 -32v0q-76 0 -137 32t-97 91t-36 138v470h96v-467zM309 -102q0 22 17.5 37t38.5 15t37.5 -15t16.5 -37q0 -23 -16.5 -37.5t-37.5 -14.5t-38.5 15
t-17.5 37z" />
    <glyph glyph-name="uni1EE5" unicode="&#x1ee5;" horiz-adv-x="546" 
d="M212 -16q-56 0 -92.5 34.5t-38.5 89.5v306h93v-273q2 -34 19.5 -55t55.5 -22q35 0 62.5 20.5t44.5 56t17 80.5v193h93v-414h-85l-8 102l5 -18q-12 -29 -36.5 -51.5t-57.5 -35.5t-72 -13zM224 -104q0 19 15 32t34 13q17 0 32 -13t15 -32q0 -20 -15 -32.5t-32 -12.5
q-19 0 -34 13t-15 32z" />
    <glyph glyph-name="uni1EE6" unicode="&#x1ee6;" horiz-adv-x="731" 
d="M191 256q0 -49 23.5 -87.5t62.5 -60.5t88 -22q51 0 91 22t63 60.5t23 87.5v467h95v-470q0 -79 -36.5 -138t-98 -91t-137.5 -32v0q-76 0 -137 32t-97 91t-36 138v470h96v-467zM360 802q19 15 31.5 28.5t12.5 32.5q0 15 -8 25t-24 10t-27 -8.5t-20 -22.5l-35 23
q17 32 41.5 47t52.5 15q25 0 41.5 -10.5t25 -28.5t8.5 -39q0 -35 -22.5 -58.5t-53.5 -42.5z" />
    <glyph glyph-name="uni1EE7" unicode="&#x1ee7;" horiz-adv-x="546" 
d="M212 -16q-56 0 -92.5 34.5t-38.5 89.5v306h93v-273q2 -34 19.5 -55t55.5 -22q35 0 62.5 20.5t44.5 56t17 80.5v193h93v-414h-85l-8 102l5 -18q-12 -29 -36.5 -51.5t-57.5 -35.5t-72 -13zM254 503q19 15 31.5 28.5t12.5 32.5q0 15 -8 25t-24 10t-27 -8.5t-20 -22.5l-35 23
q17 32 41.5 47t52.5 15q25 0 41.5 -10.5t25 -28.5t8.5 -39q0 -35 -22.5 -58.5t-53.5 -42.5z" />
    <glyph glyph-name="uni1EE8" unicode="&#x1ee8;" horiz-adv-x="749" 
d="M191 256q0 -49 23.5 -87.5t62.5 -60.5t88 -22q51 0 91 22t63 60.5t23 87.5v467h95v-470q0 -79 -36.5 -138t-98 -91t-137.5 -32v0q-76 0 -137 32t-97 91t-36 138v470h96v-467zM618 678q42 0 59.5 19.5t22.5 71.5h70q-7 -63 -27 -95t-51.5 -42.5t-73.5 -10.5v57zM520 901
l-127 -134h-59l83 134h103z" />
    <glyph glyph-name="uni1EE9" unicode="&#x1ee9;" horiz-adv-x="558" 
d="M212 -16q-56 0 -92.5 34.5t-38.5 89.5v306h93v-273q2 -34 19.5 -55t55.5 -22q35 0 62.5 20.5t44.5 56t17 80.5v193h93v-414h-85l-8 102l5 -18q-12 -29 -36.5 -51.5t-57.5 -35.5t-72 -13zM412 414q42 0 64 21.5t28 71.5h70q-7 -61 -29.5 -93.5t-56 -44.5t-76.5 -12v57z
M388 624l-127 -134h-59l83 134h103z" />
    <glyph glyph-name="uni1EEA" unicode="&#x1eea;" horiz-adv-x="749" 
d="M191 256q0 -49 23.5 -87.5t62.5 -60.5t88 -22q51 0 91 22t63 60.5t23 87.5v467h95v-470q0 -79 -36.5 -138t-98 -91t-137.5 -32v0q-76 0 -137 32t-97 91t-36 138v470h96v-467zM618 678q42 0 59.5 19.5t22.5 71.5h70q-7 -63 -27 -95t-51.5 -42.5t-73.5 -10.5v57zM215 907
h103l73 -134h-60z" />
    <glyph glyph-name="uni1EEB" unicode="&#x1eeb;" horiz-adv-x="558" 
d="M212 -16q-56 0 -92.5 34.5t-38.5 89.5v306h93v-273q2 -34 19.5 -55t55.5 -22q35 0 62.5 20.5t44.5 56t17 80.5v193h93v-414h-85l-8 102l5 -18q-12 -29 -36.5 -51.5t-57.5 -35.5t-72 -13zM412 414q42 0 64 21.5t28 71.5h70q-7 -61 -29.5 -93.5t-56 -44.5t-76.5 -12v57z
M129 632h103l73 -134h-60z" />
    <glyph glyph-name="uni1EEC" unicode="&#x1eec;" horiz-adv-x="749" 
d="M191 256q0 -49 23.5 -87.5t62.5 -60.5t88 -22q51 0 91 22t63 60.5t23 87.5v467h95v-470q0 -79 -36.5 -138t-98 -91t-137.5 -32v0q-76 0 -137 32t-97 91t-36 138v470h96v-467zM618 678q42 0 59.5 19.5t22.5 71.5h70q-7 -63 -27 -95t-51.5 -42.5t-73.5 -10.5v57zM360 802
q19 15 31.5 28.5t12.5 32.5q0 15 -8 25t-24 10t-27 -8.5t-20 -22.5l-35 23q17 32 41.5 47t52.5 15q25 0 41.5 -10.5t25 -28.5t8.5 -39q0 -35 -22.5 -58.5t-53.5 -42.5z" />
    <glyph glyph-name="uni1EED" unicode="&#x1eed;" horiz-adv-x="558" 
d="M212 -16q-56 0 -92.5 34.5t-38.5 89.5v306h93v-273q2 -34 19.5 -55t55.5 -22q35 0 62.5 20.5t44.5 56t17 80.5v193h93v-414h-85l-8 102l5 -18q-12 -29 -36.5 -51.5t-57.5 -35.5t-72 -13zM412 414q42 0 64 21.5t28 71.5h70q-7 -61 -29.5 -93.5t-56 -44.5t-76.5 -12v57z
M254 503q19 15 31.5 28.5t12.5 32.5q0 15 -8 25t-24 10t-27 -8.5t-20 -22.5l-35 23q17 32 41.5 47t52.5 15q25 0 41.5 -10.5t25 -28.5t8.5 -39q0 -35 -22.5 -58.5t-53.5 -42.5z" />
    <glyph glyph-name="uni1EEE" unicode="&#x1eee;" horiz-adv-x="749" 
d="M191 256q0 -49 23.5 -87.5t62.5 -60.5t88 -22q51 0 91 22t63 60.5t23 87.5v467h95v-470q0 -79 -36.5 -138t-98 -91t-137.5 -32v0q-76 0 -137 32t-97 91t-36 138v470h96v-467zM618 678q42 0 59.5 19.5t22.5 71.5h70q-7 -63 -27 -95t-51.5 -42.5t-73.5 -10.5v57zM442 802
q-32 0 -52.5 14.5t-38.5 30.5q-12 11 -24 20.5t-27 9.5q-12 0 -21.5 -9.5t-14.5 -26t-5 -40.5l-50 1q-3 39 8.5 70t34 49t53.5 18q26 0 45 -14t35 -29q14 -14 27 -24.5t28 -10.5q20 0 28.5 21.5t8.5 57.5l50 -1q4 -41 -6.5 -72t-31.5 -48t-47 -17z" />
    <glyph glyph-name="uni1EEF" unicode="&#x1eef;" horiz-adv-x="558" 
d="M212 -16q-56 0 -92.5 34.5t-38.5 89.5v306h93v-273q2 -34 19.5 -55t55.5 -22q35 0 62.5 20.5t44.5 56t17 80.5v193h93v-414h-85l-8 102l5 -18q-12 -29 -36.5 -51.5t-57.5 -35.5t-72 -13zM412 414q42 0 64 21.5t28 71.5h70q-7 -61 -29.5 -93.5t-56 -44.5t-76.5 -12v57z
M351 472q-32 0 -52.5 14.5t-38.5 30.5q-12 11 -24 20.5t-27 9.5q-12 0 -21.5 -9.5t-14.5 -26.5t-5 -40h-50q-3 39 8.5 70.5t34 49.5t53.5 18q26 0 45 -14.5t35 -29.5q14 -13 27 -23.5t28 -10.5q20 0 28.5 21t8.5 57h50q4 -42 -6.5 -73t-31.5 -47.5t-47 -16.5z" />
    <glyph glyph-name="uni1EF0" unicode="&#x1ef0;" horiz-adv-x="749" 
d="M191 256q0 -49 23.5 -87.5t62.5 -60.5t88 -22q51 0 91 22t63 60.5t23 87.5v467h95v-470q0 -79 -36.5 -138t-98 -91t-137.5 -32v0q-76 0 -137 32t-97 91t-36 138v470h96v-467zM618 678q42 0 59.5 19.5t22.5 71.5h70q-7 -63 -27 -95t-51.5 -42.5t-73.5 -10.5v57zM309 -102
q0 22 17.5 37t38.5 15t37.5 -15t16.5 -37q0 -23 -16.5 -37.5t-37.5 -14.5t-38.5 15t-17.5 37z" />
    <glyph glyph-name="uni1EF1" unicode="&#x1ef1;" horiz-adv-x="558" 
d="M212 -16q-56 0 -92.5 34.5t-38.5 89.5v306h93v-273q2 -34 19.5 -55t55.5 -22q35 0 62.5 20.5t44.5 56t17 80.5v193h93v-414h-85l-8 102l5 -18q-12 -29 -36.5 -51.5t-57.5 -35.5t-72 -13zM412 414q42 0 64 21.5t28 71.5h70q-7 -61 -29.5 -93.5t-56 -44.5t-76.5 -12v57z
M224 -104q0 19 15 32t34 13q17 0 32 -13t15 -32q0 -20 -15 -32.5t-32 -12.5q-19 0 -34 13t-15 32z" />
    <glyph glyph-name="Ygrave" unicode="&#x1ef2;" horiz-adv-x="691" 
d="M296 241l-268 482h119l215 -399l-30 -2l213 401h118l-270 -482v-241h-97v241zM208 904h103l73 -134h-60z" />
    <glyph glyph-name="ygrave" unicode="&#x1ef3;" horiz-adv-x="494" 
d="M116 -199l273 613h86l-267 -613h-92zM218 -3l-199 417h105l167 -370zM108 619h103l73 -134h-60z" />
    <glyph glyph-name="uni1EF4" unicode="&#x1ef4;" horiz-adv-x="691" 
d="M296 241l-268 482h119l215 -399l-30 -2l213 401h118l-270 -482v-241h-97v241zM289 -102q0 22 17.5 37t38.5 15t37.5 -15t16.5 -37q0 -23 -16.5 -37.5t-37.5 -14.5t-38.5 15t-17.5 37z" />
    <glyph glyph-name="uni1EF5" unicode="&#x1ef5;" horiz-adv-x="494" 
d="M116 -199l273 613h86l-267 -613h-92zM218 -3l-199 417h105l167 -370zM346 -110q0 19 15 32t34 13q17 0 32 -13t15 -32q0 -20 -15 -32.5t-32 -12.5q-19 0 -34 13t-15 32z" />
    <glyph glyph-name="uni1EF6" unicode="&#x1ef6;" horiz-adv-x="691" 
d="M296 241l-268 482h119l215 -399l-30 -2l213 401h118l-270 -482v-241h-97v241zM352 799q19 15 31.5 28.5t12.5 32.5q0 15 -8 25t-24 10t-27 -8.5t-20 -22.5l-35 23q17 32 41.5 47t52.5 15q25 0 41.5 -10.5t25 -28.5t8.5 -39q0 -35 -22.5 -58.5t-53.5 -42.5z" />
    <glyph glyph-name="uni1EF7" unicode="&#x1ef7;" horiz-adv-x="494" 
d="M116 -199l273 613h86l-267 -613h-92zM218 -3l-199 417h105l167 -370zM233 490q19 15 31.5 28.5t12.5 32.5q0 15 -8 25t-24 10t-27 -8.5t-20 -22.5l-35 23q17 32 41.5 47t52.5 15q25 0 41.5 -10.5t25 -28.5t8.5 -39q0 -35 -22.5 -58.5t-53.5 -42.5z" />
    <glyph glyph-name="uni1EF8" unicode="&#x1ef8;" horiz-adv-x="691" 
d="M296 241l-268 482h119l215 -399l-30 -2l213 401h118l-270 -482v-241h-97v241zM435 799q-32 0 -52.5 14.5t-38.5 30.5q-12 11 -24 20.5t-27 9.5q-12 0 -21.5 -9.5t-14.5 -26t-5 -40.5l-50 1q-3 39 8.5 70t34 49t53.5 18q26 0 45 -14t35 -29q14 -14 27 -24.5t28 -10.5
q20 0 28.5 21.5t8.5 57.5l50 -1q4 -41 -6.5 -72t-31.5 -48t-47 -17z" />
    <glyph glyph-name="uni1EF9" unicode="&#x1ef9;" horiz-adv-x="494" 
d="M116 -199l273 613h86l-267 -613h-92zM218 -3l-199 417h105l167 -370zM330 459q-32 0 -52.5 14.5t-38.5 30.5q-12 11 -24 20.5t-27 9.5q-12 0 -21.5 -9.5t-14.5 -26.5t-5 -40h-50q-3 39 8.5 70.5t34 49.5t53.5 18q26 0 45 -14.5t35 -29.5q14 -13 27 -23.5t28 -10.5
q20 0 28.5 21t8.5 57h50q4 -42 -6.5 -73t-31.5 -47.5t-47 -16.5z" />
    <glyph glyph-name="endash" unicode="&#x2013;" horiz-adv-x="515" 
d="M101 252h305v-82h-305v82z" />
    <glyph glyph-name="emdash" unicode="&#x2014;" horiz-adv-x="709" 
d="M100 252h508v-82h-508v82z" />
    <glyph glyph-name="quoteleft" unicode="&#x2018;" horiz-adv-x="181" 
d="M102 732l48 -24q-22 -24 -34 -58t-6 -67l-74 -7q-6 34 1.5 63.5t25 53t39.5 39.5z" />
    <glyph glyph-name="quoteright" unicode="&#x2019;" horiz-adv-x="185" 
d="M82 564l-47 24q21 20 33.5 55t5.5 70l74 7q6 -28 -2 -58.5t-25 -56.5t-39 -41v0z" />
    <glyph glyph-name="quotesinglbase" unicode="&#x201a;" horiz-adv-x="185" 
d="M82 -85l-47 24q21 20 33.5 55t5.5 70l74 7q6 -28 -2 -58.5t-25 -56.5t-39 -41v0z" />
    <glyph glyph-name="quotedblleft" unicode="&#x201c;" horiz-adv-x="293" 
d="M231 732l48 -24q-22 -24 -34 -58t-6 -67l-74 -7q-6 34 1.5 63.5t25 53t39.5 39.5zM107 732l48 -24q-22 -24 -34 -58t-6 -67l-74 -7q-6 34 1.5 63.5t25 53t39.5 39.5z" />
    <glyph glyph-name="quotedblright" unicode="&#x201d;" horiz-adv-x="290" 
d="M82 564l-47 24q21 20 33.5 55t5.5 70l74 7q6 -28 -2 -58.5t-25 -56.5t-39 -41v0zM199 564l-47 24q21 20 33.5 55t5.5 70l74 7q6 -28 -2 -58.5t-25 -56.5t-39 -41v0z" />
    <glyph glyph-name="quotedblbase" unicode="&#x201e;" horiz-adv-x="302" 
d="M82 -84l-47 24q21 20 33.5 55t5.5 70l74 7q6 -28 -2 -58.5t-25 -56.5t-39 -41v0zM199 -84l-47 24q21 20 33.5 55t5.5 70l74 7q6 -28 -2 -58.5t-25 -56.5t-39 -41v0z" />
    <glyph glyph-name="dagger" unicode="&#x2020;" horiz-adv-x="300" 
d="M33 466h233v-82h-233v82zM108 611h84v-602h-84v602z" />
    <glyph glyph-name="daggerdbl" unicode="&#x2021;" horiz-adv-x="305" 
d="M22 300h260v-82h-260v82zM37 466h233v-82h-233v82zM112 611h84v-602h-84v602z" />
    <glyph glyph-name="bullet" unicode="&#x2022;" horiz-adv-x="484" 
d="M115 304q0 36 17 65.5t46 46.5t64 17q36 0 65.5 -17t46.5 -46.5t17 -65.5q0 -35 -17 -64.5t-46.5 -46.5t-65.5 -17q-35 0 -64 17t-46 46t-17 65v0z" />
    <glyph glyph-name="ellipsis" unicode="&#x2026;" horiz-adv-x="525" 
d="M34 53q0 22 16.5 37.5t35.5 15.5t35.5 -15.5t16.5 -37.5q0 -24 -16.5 -38.5t-35.5 -14.5t-35.5 14.5t-16.5 38.5v0zM212 53q0 22 16.5 37.5t36.5 15.5q18 0 34.5 -15.5t16.5 -37.5q0 -24 -16.5 -38.5t-34.5 -14.5q-20 0 -36.5 14.5t-16.5 38.5v0zM390 53q0 22 16.5 37.5
t36.5 15.5q19 0 35 -15.5t16 -37.5q0 -24 -16 -38.5t-35 -14.5q-20 0 -36.5 14.5t-16.5 38.5v0z" />
    <glyph glyph-name="perthousand" unicode="&#x2030;" horiz-adv-x="1105" 
d="M205 267q-46 0 -78 21.5t-48 60t-16 89.5q0 50 16 88.5t48 60t78 21.5q45 0 76.5 -21.5t48.5 -60t17 -88.5q0 -51 -17 -89.5t-48.5 -60t-76.5 -21.5zM145 437q0 -48 15.5 -76t44.5 -28t44 28t15 76q0 52 -15 78t-44 26t-44.5 -25.5t-15.5 -78.5zM580 -16q-46 0 -77.5 22
t-48 60t-16.5 89q0 50 16.5 88.5t48 60t77.5 21.5t77.5 -21.5t48.5 -60t17 -88.5q0 -51 -17 -89.5t-48.5 -60t-77.5 -21.5zM520 154q0 -48 15.5 -76t44.5 -28t44.5 28t15.5 76q0 52 -15.5 78t-44.5 26t-44.5 -25.5t-15.5 -78.5zM653 609l-417 -610l-92 1l415 609h94z
M907 -16q-45 0 -77 22t-48.5 60t-16.5 89q0 50 16.5 88.5t48.5 60t77 21.5q46 0 77.5 -21.5t48.5 -60t17 -88.5q0 -51 -17 -89.5t-48.5 -60t-77.5 -21.5zM847 154q0 -48 15.5 -76t44.5 -28t44.5 28t15.5 76q0 52 -15.5 78t-44.5 26t-44.5 -25.5t-15.5 -78.5z" />
    <glyph glyph-name="guilsinglleft" unicode="&#x2039;" horiz-adv-x="371" 
d="M53 242q5 5 22 19.5t40.5 34t49 40.5t49 41t40.5 34t22 19v-85q-6 -6 -22 -20.5t-34.5 -30.5t-33.5 -30.5t-22 -21.5q7 -7 22 -21.5t33.5 -31t34.5 -31t22 -21.5v-84z" />
    <glyph glyph-name="guilsinglright" unicode="&#x203a;" horiz-adv-x="365" 
d="M317 242q-5 5 -22 19.5t-40.5 34t-49 40.5t-49 41t-40.5 34t-22 19v-85q6 -6 21.5 -20.5t34 -30.5t34 -30.5t21.5 -21.5q-6 -7 -21.5 -21.5t-34 -31t-34 -31t-21.5 -21.5v-84z" />
    <glyph glyph-name="fraction" unicode="&#x2044;" horiz-adv-x="566" 
d="M506 685l-407 -685h-87l407 685h87z" />
    <glyph glyph-name="uni2074" unicode="&#x2074;" horiz-adv-x="386" 
d="M334 450v-54h-297l-1 25l197 256h57v-380h-81v282l21 2l-126 -164l-13 33h243z" />
    <glyph glyph-name="colonmonetary" unicode="&#x20a1;" horiz-adv-x="694" 
d="M532 787l-311 -842h-84l311 842h84zM689 788l-310 -842h-85l311 842h84zM635 54q-18 -12 -49 -27t-72.5 -25t-90.5 -10q-84 1 -151.5 30t-114.5 79t-72.5 115.5t-25.5 139.5q0 81 26.5 149.5t74.5 119t113.5 78.5t143.5 28q65 0 118 -17.5t91 -41.5l-39 -90
q-30 20 -72.5 38t-94.5 18q-53 0 -100 -21t-83 -59t-56.5 -88.5t-20.5 -108.5q0 -59 18.5 -109.5t53 -87.5t83.5 -58t110 -21q55 0 98 17t71 38z" />
    <glyph glyph-name="franc" unicode="&#x20a3;" horiz-adv-x="587" 
d="M104 723h429v-93h-332v-231h291v-92h-291v-307h-97v723zM36 189h246v-66h-246v66z" />
    <glyph glyph-name="lira" unicode="&#x20a4;" horiz-adv-x="636" 
d="M393 434v-87h-307v87h307zM393 287v-86h-307v86h307zM154 538q0 47 26.5 83.5t73.5 57t109 20.5q71 0 118.5 -27.5t71.5 -74.5l-70 -48q-5 7 -12.5 16t-19.5 18.5t-33 16t-53 6.5q-41 0 -66.5 -12t-36.5 -35t-11 -55v-327v0q0 4 -0.5 -5.5t-2.5 -25.5t-6 -31t-12 -22h-14
h211q36 0 52.5 10t16.5 34v42l85 1v-65q0 -25 -6 -46t-21 -36.5t-41 -24t-65 -8.5h-391v93h44q22 0 33.5 7.5t15.5 29.5t4 65v343z" />
    <glyph glyph-name="uni20A6" unicode="&#x20a6;" horiz-adv-x="837" 
d="M435 406h384v-66h-384v66zM417 340h-402v66h402v-66zM730 -23l-559 572l29 -12l2 -537h-98v745h5l553 -574l-24 10l-2 542h97v-746h-3z" />
    <glyph glyph-name="peseta" unicode="&#x20a7;" horiz-adv-x="621" 
d="M508 527h100v-66h-100v66zM129 461h-103v66h103v-66zM297 723q79 0 135 -26.5t86.5 -76.5t30.5 -122q0 -42 -13 -83.5t-41.5 -75t-74.5 -53.5t-112 -20h-107v-266h-97v723h193zM307 359q43 0 71.5 14t44 35.5t22.5 45.5t7 43q0 22 -7 45.5t-23.5 43t-43 32t-65.5 12.5
h-112v-271h106z" />
    <glyph glyph-name="uni20A9" unicode="&#x20a9;" horiz-adv-x="1008" 
d="M65 451h893v-66h-893v66zM41 719h112l196 -552l-17 7l143 370l45 -131l-191 -446zM388 719h97l212 -544l-20 4l187 540h103l-284 -751z" />
    <glyph glyph-name="dong" unicode="&#x20ab;" horiz-adv-x="620" 
d="M331 716h251v-65h-251v65zM90 66h466v-66h-466v66zM273 133q-56 0 -101 27.5t-71.5 78t-26.5 116.5q0 69 28 118t76 75t107 26q47 0 91 -22.5t67 -59.5l-6 -30v320h92v-639h-93v102l10 -26q-27 -38 -72 -62t-101 -24zM302 212q36 0 63 13.5t45.5 37.5t25.5 56v79
q-7 30 -26.5 52.5t-47 35.5t-60.5 13q-36 0 -66.5 -18t-48.5 -50t-18 -74q0 -41 18 -73.5t48.5 -52t66.5 -19.5z" />
    <glyph glyph-name="Euro" unicode="&#x20ac;" horiz-adv-x="748" 
d="M59 461h366v-77h-366v77zM60 322h365v-76h-365v76zM689 54q-17 -12 -48.5 -27t-73 -25t-90.5 -10q-84 1 -151.5 30t-114.5 79t-72.5 115.5t-25.5 139.5q0 81 26.5 149.5t74.5 119t113.5 78.5t143.5 28q65 0 118 -17.5t91 -41.5l-39 -90q-30 20 -72.5 38t-94.5 18
t-99.5 -21t-83.5 -59t-56.5 -88.5t-20.5 -108.5q0 -59 18.5 -109.5t53.5 -87.5t83.5 -58t109.5 -21q55 0 98 17t71 38z" />
    <glyph glyph-name="uni20AD" unicode="&#x20ad;" horiz-adv-x="689" 
d="M35 438h532v-93h-532v93zM215 432l-3 -36l12 18l296 309h125l-299 -310l316 -413h-122l-265 351l-61 -59l1 -292h-98v723h98v-291z" />
    <glyph glyph-name="uni20B1" unicode="&#x20b1;" horiz-adv-x="612" 
d="M459 588h146v-66h-146v66zM471 457h134v-66h-134v66zM148 391h-133v66h133v-66zM148 522h-133v66h133v-66zM297 723q79 0 135 -26.5t86.5 -76.5t30.5 -122q0 -42 -13 -83.5t-41.5 -75t-74.5 -53.5t-112 -20h-107v-266h-97v723h193zM307 359q43 0 71.5 14t44 35.5
t22.5 45.5t7 43q0 22 -7 45.5t-23.5 43t-43 32t-65.5 12.5h-112v-271h106z" />
    <glyph glyph-name="uni20B2" unicode="&#x20b2;" horiz-adv-x="751" 
d="M670 62q-15 -13 -42 -25.5t-59.5 -22.5t-67 -16t-64.5 -6q-87 0 -156.5 27t-119 75t-76 113t-26.5 141q0 90 29.5 161.5t81 121t118.5 75t142 25.5q63 0 117 -15t95 -38l-33 -89q-20 12 -49.5 22t-60.5 16.5t-58 6.5q-64 0 -116 -19.5t-89 -56t-57 -88t-20 -115.5
q0 -59 20 -108t57 -84.5t88.5 -55t113.5 -19.5q37 0 73 7.5t62 21.5v144h-144v93h241v-292zM360 815h85v-944h-85v944z" />
    <glyph glyph-name="uni20B5" unicode="&#x20b5;" horiz-adv-x="694" 
d="M635 54q-18 -12 -49 -27t-72.5 -25t-90.5 -10q-84 1 -151.5 30t-114.5 79t-72.5 115.5t-25.5 139.5q0 81 26.5 149.5t74.5 119t113.5 78.5t143.5 28q65 0 118 -17.5t91 -41.5l-39 -90q-30 20 -72.5 38t-94.5 18q-53 0 -100 -21t-83 -59t-56.5 -88.5t-20.5 -108.5
q0 -59 18.5 -109.5t53 -87.5t83.5 -58t110 -21q55 0 98 17t71 38zM361 816h85v-944h-85v944z" />
    <glyph glyph-name="uni20B9" unicode="&#x20b9;" horiz-adv-x="547" 
d="M104 266v93h85q43 0 71.5 13t44.5 33.5t23 44.5t7 45q0 22 -7.5 45.5t-24 43.5t-43 33t-64.5 13h-92v93h404v-93h-241l-88 67q55 0 101.5 -10.5t81 -34t54 -61t19.5 -92.5q0 -43 -13 -84t-41.5 -74.5t-75 -54t-114.5 -20.5h-87zM384 0l-192 301l116 3l189 -304h-113z
M106 454v81h406v-81h-406z" />
    <glyph glyph-name="uni20BA" unicode="&#x20ba;" horiz-adv-x="660" 
d="M595 320q3 -14 4.5 -30.5t1.5 -33.5q-1 -71 -28 -119.5t-73.5 -78.5t-107.5 -44t-130 -14h-96v723h96v-683l-8 54q54 0 98.5 8.5t77 27t50.5 50t18 78.5q0 10 -0.5 19.5t-2.5 17.5zM439 444l38 -59l-375 -209l-38 59zM397 571l37 -59l-374 -207l-37 59z" />
    <glyph glyph-name="uni20BC" unicode="&#x20bc;" horiz-adv-x="750" 
d="M334 831h84v-831h-84v831zM550 464q0 49 -23.5 87.5t-63 60.5t-87.5 22q-50 0 -90 -22t-63 -60.5t-23 -87.5v-467h-96v469q0 80 36.5 138.5t98 91t137.5 32.5v0q76 0 137 -32.5t97 -91t36 -138.5v-469h-96v467z" />
    <glyph glyph-name="uni20BD" unicode="&#x20bd;" horiz-adv-x="590" 
d="M15 187h285v-86h-285v86zM15 354h232v-86h-232v86zM297 723q79 0 135 -26.5t86.5 -76.5t30.5 -122q0 -42 -13 -83.5t-41.5 -75t-74.5 -53.5t-112 -20h-107v-266h-97v723h193zM307 359q43 0 71.5 14t44 35.5t22.5 45.5t7 43q0 22 -7 45.5t-23.5 43t-43 32t-65.5 12.5h-112
v-271h106z" />
    <glyph glyph-name="uni2116" unicode="&#x2116;" horiz-adv-x="1320" 
d="M860 234h392v-82h-392v82zM730 -23l-559 567l28 -7l2 -537h-97v745h5l553 -569l-23 5l-2 542h96v-746h-3zM819 511q0 62 29.5 112t82 79t118.5 29q68 0 119 -29t79 -79t28 -112t-28 -112t-79.5 -79t-119.5 -29q-66 0 -117.5 27t-81.5 77t-30 116zM913 510q0 -40 18 -72.5
t48 -51.5t68 -19q39 0 69 19t47.5 51.5t17.5 72.5q0 41 -17.5 73.5t-47.5 51.5t-69 19q-38 0 -68.5 -19.5t-48 -52.5t-17.5 -72z" />
    <glyph glyph-name="trademark" unicode="&#x2122;" horiz-adv-x="577" 
d="M460 641l24 -17l-93 -128l-95 128l24 15v-177h-57v270l132 -155h-9l134 155v-270h-60v179zM44 721h177v-54h-58v-205h-62v205h-57v54z" />
    <glyph glyph-name="uni2126" unicode="&#x2126;" horiz-adv-x="833" 
d="M492 81q38 17 66.5 48.5t44.5 76.5t16 98q0 42 -10 82t-32 71.5t-57 50.5t-85 19q-52 0 -88.5 -19.5t-58.5 -52t-32 -70.5t-10 -76q-1 -57 17.5 -102.5t50 -76.5t68.5 -49v-40q-28 8 -58.5 20.5t-59.5 32t-52 50t-37 74t-14 104.5q0 70 20 123t56.5 89.5t85.5 55
t108 18.5q71 0 123.5 -24t86.5 -65.5t49.5 -96.5t12.5 -116q-2 -59 -17 -101t-38.5 -71t-51 -47.5t-54.5 -30t-50 -18.5v43zM155 81h227v-81h-227v81zM492 81h216v-81h-216v81z" />
    <glyph glyph-name="uni2206" unicode="&#x2206;" horiz-adv-x="507" 
d="M236 738l168 -478h-59l-109 323l-108 -323h-60l168 478v0zM116 310h246v-50h-246v50z" />
    <glyph glyph-name="product" unicode="&#x220f;" horiz-adv-x="721" 
d="M203 759h287v-834h-83v753h-120v-753h-84v834z" />
    <glyph glyph-name="summation" unicode="&#x2211;" horiz-adv-x="550" 
d="M77 759h399l-27 -81h-261l95 -339l-95 -340h261l27 -81h-399l116 421z" />
    <glyph glyph-name="minus" unicode="&#x2212;" horiz-adv-x="642" 
d="M84 246h364v-82h-364v82z" />
    <glyph glyph-name="uni2215" unicode="&#x2215;" horiz-adv-x="384" 
d="M382 745l-140 -382t-141 -382h-85q71 191 141 382t141 382h84z" />
    <glyph glyph-name="uni2219" unicode="&#x2219;" horiz-adv-x="217" 
d="M109 237q-34 0 -57 23t-23 56t23 56t57 23q33 0 56 -23t23 -56t-23 -56t-56 -23z" />
    <glyph glyph-name="radical" unicode="&#x221a;" horiz-adv-x="560" 
d="M452 614h59l-275 -612l-137 301h-83l1 50h119l100 -221z" />
    <glyph glyph-name="infinity" unicode="&#x221e;" horiz-adv-x="465" 
d="M258 307q0 -26 -17.5 -46t-45 -31.5t-57.5 -11.5q-34 0 -56 14t-32.5 34.5t-10.5 40.5q0 19 10.5 39.5t32.5 34.5t55 14q31 0 58.5 -11.5t45 -31.5t17.5 -45v0zM207 307q0 25 17.5 45t45.5 31.5t58 11.5q34 0 55 -14t31.5 -34t10.5 -40t-10 -40.5t-31.5 -34.5t-56.5 -14
q-30 0 -57.5 12t-45 32t-17.5 45v0zM207 306q0 17 -21.5 28t-47.5 11q-25 0 -36.5 -11.5t-11.5 -27.5q0 -14 10.5 -26t37.5 -12q25 0 47 10.5t22 27.5v0zM258 306q0 -18 22.5 -28t46.5 -10q27 0 37.5 12t10.5 26q0 16 -11.5 27.5t-36.5 11.5t-47 -11t-22 -28v0z" />
    <glyph glyph-name="integral" unicode="&#x222b;" horiz-adv-x="378" 
d="M249 673q-20 0 -31.5 -7.5t-16.5 -29.5t-5 -66v-601q0 -47 -9.5 -72.5t-26.5 -35t-38.5 -11t-44.5 -1.5h-64v82h44q21 0 33 8t16.5 30.5t4.5 65.5v601v0q0 47 9 72t26 35t38.5 11t45.5 1h64v-82h-45z" />
    <glyph glyph-name="approxequal" unicode="&#x2248;" horiz-adv-x="466" 
d="M286 99q-37 0 -60.5 16.5t-43.5 33.5q-13 13 -26.5 23t-30.5 10q-14 0 -24.5 -10t-16 -29.5t-4.5 -44.5h-58q-3 44 9.5 79.5t38.5 56t61 20.5q29 0 50.5 -16t40.5 -33q15 -15 30 -26.5t31 -11.5q15 0 24 11t13 31t4 46l58 -1q5 -47 -7 -82t-35.5 -54t-53.5 -19zM287 285
q-37 0 -60.5 16.5t-43.5 33.5q-13 13 -26.5 23t-30.5 10q-14 0 -24.5 -10t-16 -29.5t-4.5 -44.5h-58q-3 44 9.5 79.5t38.5 56t61 20.5q29 0 50.5 -16t40.5 -33q15 -15 30 -26.5t31 -11.5q15 0 24 11t13 31t4 46l58 -1q5 -47 -7 -82t-35.5 -54t-53.5 -19z" />
    <glyph glyph-name="notequal" unicode="&#x2260;" horiz-adv-x="717" 
d="M587 498q-36 -42 -80 -93.5t-91 -107t-94.5 -111t-91 -107t-80.5 -93.5l-48 42q37 42 80.5 93.5t91 107t95 111.5t91.5 107.5t80 93.5zM101 392h512v-82h-512v82zM101 195h512v-81h-512v81z" />
    <glyph glyph-name="lessequal" unicode="&#x2264;" horiz-adv-x="555" 
d="M469 218l-443 255l443 255v-101l-263 -155l263 -153v0v-101zM65 143h390v-82h-390v82z" />
    <glyph glyph-name="greaterequal" unicode="&#x2265;" horiz-adv-x="555" 
d="M73 728l443 -255l-443 -255v101l276 150l-276 158v101zM72 143h403v-82h-403v82z" />
    <glyph glyph-name="lozenge" unicode="&#x25ca;" horiz-adv-x="462" 
d="M236 738l168 -368l-168 -368l-168 368zM236 608l-108 -238l108 -238l109 238z" />
    <glyph glyph-name="i.loclTRK" horiz-adv-x="254" 
d="M81 414h93v-414h-93v414zM74 564q0 22 17.5 37t38.5 15t37.5 -15t16.5 -37q0 -23 -16.5 -37.5t-37.5 -14.5t-38.5 15t-17.5 37z" />
    <glyph glyph-name="f_f_ij" horiz-adv-x="1159" 
d="M115 0v331h-71v83h71v175q0 90 40.5 138t119.5 48q21 0 46.5 -6t44.5 -20l-39 -67q-9 9 -20 12.5t-22 3.5q-37 0 -57 -25t-20 -85v-174h131v-83h-131v-331h-93zM433 0v331h-71v83h71v175q0 90 40.5 138t119.5 48q21 0 46.5 -6t44.5 -20l-39 -67q-9 9 -20 12.5t-22 3.5
q-37 0 -57 -25t-20 -85v-174h131v-83h-131v-331h-93zM736 414h93v-414h-93v414zM729 564q0 22 17.5 37t38.5 15t37.5 -15t16.5 -37q0 -23 -16.5 -37.5t-37.5 -14.5t-38.5 15t-17.5 37zM980 -199l-55 57q28 24 44 59.5t16 83.5v413h94v-417q0 -70 -23.5 -118.5t-75.5 -77.5z
M977 564q0 22 17.5 37t38.5 15t37.5 -15t16.5 -37q0 -23 -16.5 -37.5t-37.5 -14.5t-38.5 15t-17.5 37z" />
    <glyph glyph-name="f_ij" horiz-adv-x="841" 
d="M115 0v331h-71v83h71v175q0 90 40.5 138t119.5 48q21 0 46.5 -6t44.5 -20l-39 -67q-9 9 -20 12.5t-22 3.5q-37 0 -57 -25t-20 -85v-174h131v-83h-131v-331h-93zM418 414h93v-414h-93v414zM411 564q0 22 17.5 37t38.5 15t37.5 -15t16.5 -37q0 -23 -16.5 -37.5t-37.5 -14.5
t-38.5 15t-17.5 37zM662 -199l-55 57q28 24 44 59.5t16 83.5v413h94v-417q0 -70 -23.5 -118.5t-75.5 -77.5zM659 564q0 22 17.5 37t38.5 15t37.5 -15t16.5 -37q0 -23 -16.5 -37.5t-37.5 -14.5t-38.5 15t-17.5 37z" />
    <glyph glyph-name="zero.zero" horiz-adv-x="623" 
d="M312 -3q-61 0 -112 23t-87.5 66.5t-56.5 105.5t-20 139q0 84 19 146.5t55.5 104.5t87.5 62.5t114 20.5q61 0 111.5 -23t87 -66.5t57 -105t20.5 -139.5q0 -79 -20.5 -141t-57 -105t-87 -65.5t-111.5 -22.5zM311 90q58 0 97.5 30.5t59.5 85.5t20 127t-20 125.5t-59.5 83.5
t-97.5 30t-97 -30.5t-58.5 -84.5t-19.5 -126q0 -71 19.5 -125.5t58.5 -85t97 -30.5zM258 331q0 22 16.5 37.5t36.5 15.5q18 0 34.5 -15.5t16.5 -37.5q0 -24 -16.5 -38.5t-34.5 -14.5q-20 0 -36.5 14.5t-16.5 38.5v0z" />
    <glyph glyph-name="periodcentered.loclCAT.case" horiz-adv-x="170" 
d="M34 372q0 22 16.5 37.5t36.5 15.5q18 0 34.5 -15.5t16.5 -37.5q0 -24 -16.5 -38.5t-34.5 -14.5q-20 0 -36.5 14.5t-16.5 38.5v0z" />
    <glyph glyph-name="periodcentered.loclCAT" horiz-adv-x="170" 
d="M34 286q0 22 16.5 37.5t36.5 15.5q18 0 34.5 -15.5t16.5 -37.5q0 -24 -16.5 -38.5t-34.5 -14.5q-20 0 -36.5 14.5t-16.5 38.5v0z" />
    <glyph glyph-name="uni0308.case" 
d="M74 667q0 22 16 37.5t36 15.5q19 0 35.5 -15.5t16.5 -38.5t-16.5 -37.5t-35.5 -14.5q-20 0 -36 15t-16 38v0zM261 667q0 22 16.5 37.5t36.5 15.5q18 0 34.5 -15.5t16.5 -38.5t-16.5 -37.5t-34.5 -14.5q-20 0 -36.5 15t-16.5 38v0z" />
    <glyph glyph-name="uni0307.case" 
d="M40 641q0 22 17.5 37t38.5 15t37.5 -15t16.5 -37q0 -23 -16.5 -37.5t-37.5 -14.5t-38.5 15t-17.5 37z" />
    <glyph glyph-name="gravecomb.case" 
d="M14 704h103l73 -134h-60z" />
    <glyph glyph-name="acutecomb.case" 
d="M198 679l-127 -134h-59l83 134h103z" />
    <glyph glyph-name="uni030B.case" 
d="M230 619l-127 -134h-59l83 134h103zM380 618l-127 -134h-59l83 134h103z" />
    <glyph glyph-name="uni0302.case" 
d="M291 497l-93 98l27 6l-95 -104h-86l165 171h1l167 -171h-86z" />
    <glyph glyph-name="uni030C.case" 
d="M129 657l95 -99l-28 -6l95 105h86l-165 -172h-1l-168 172h86z" />
    <glyph glyph-name="uni0306.case" 
d="M201 481q-42 0 -73.5 20.5t-51 60t-26.5 95.5h63q5 -32 15.5 -57.5t29 -40t43.5 -14.5q27 0 44.5 14.5t27.5 40t14 57.5h64q-7 -57 -26.5 -96.5t-50.5 -59.5t-73 -20z" />
    <glyph glyph-name="uni030A.case" 
d="M77 560q0 40 26.5 64.5t67.5 24.5q39 0 66 -24.5t27 -64.5q0 -39 -27 -64t-67 -25t-66.5 25t-26.5 64zM128 559q0 -19 12 -31.5t31 -12.5q18 0 30 12.5t12 31.5q0 20 -12 32t-30 12q-19 0 -31 -12t-12 -32z" />
    <glyph glyph-name="tildecomb.case" 
d="M308 723q-32 0 -52.5 14.5t-38.5 30.5q-12 11 -24 20.5t-27 9.5q-12 0 -21.5 -9.5t-14.5 -26t-5 -40.5l-50 1q-3 39 8.5 70t34 49t53.5 18q26 0 45 -14t35 -29q14 -14 27 -24.5t28 -10.5q20 0 28.5 21.5t8.5 57.5l50 -1q4 -41 -6.5 -72t-31.5 -48t-47 -17z" />
    <glyph glyph-name="uni0304.case" 
d="M63 616h246v-66h-246v66z" />
    <glyph glyph-name="hookabovecomb.case" 
d="M151 584q19 15 31.5 28.5t12.5 32.5q0 15 -8 25t-24 10t-27 -8.5t-20 -22.5l-35 23q17 32 41.5 47t52.5 15q25 0 41.5 -10.5t25 -28.5t8.5 -39q0 -35 -22.5 -58.5t-53.5 -42.5z" />
    <glyph glyph-name="uni030F.case" 
d="M92 619h103l73 -134h-60zM234 619h103l73 -134h-60z" />
    <glyph glyph-name="uni0311.case" 
d="M233 665q43 0 74 -20.5t51 -60t26 -95.5h-63q-4 32 -15 57.5t-28.5 40t-44.5 14.5q-25 0 -43 -14.5t-28.5 -40t-14.5 -57.5h-64q7 57 26.5 96.5t51 59.5t72.5 20z" />
    <glyph glyph-name="uni031B.case" 
d="M50 527q42 0 59.5 19.5t22.5 71.5h70q-7 -63 -27 -95t-51.5 -42.5t-73.5 -10.5v57z" />
    <glyph glyph-name="dotbelowcomb.case" 
d="M52 -102q0 22 17.5 37t38.5 15t37.5 -15t16.5 -37q0 -23 -16.5 -37.5t-37.5 -14.5t-38.5 15t-17.5 37z" />
    <glyph glyph-name="uni0324.case" 
d="M74 -95q0 22 16 37.5t36 15.5q19 0 35.5 -15.5t16.5 -38.5t-16.5 -37.5t-35.5 -14.5q-20 0 -36 15t-16 38v0zM261 -95q0 22 16.5 37.5t36.5 15.5q18 0 34.5 -15.5t16.5 -38.5t-16.5 -37.5t-34.5 -14.5q-20 0 -36.5 15t-16.5 38v0z" />
    <glyph glyph-name="uni0326.case" 
d="M101 -202l-48 33q25 20 35 58t4 75h83q4 -27 -3 -59t-24.5 -60.5t-46.5 -46.5z" />
    </font>
</defs>
</svg>
