<?xml version="1.0" standalone="no"?>
<!DOCTYPE svg PUBLIC "-//W3C//DTD SVG 1.1//EN" "http://www.w3.org/Graphics/SVG/1.1/DTD/svg11.dtd" >
<svg xmlns="http://www.w3.org/2000/svg" xmlns:xlink="http://www.w3.org/1999/xlink" version="1.1">
<metadata>
Created by FontForge 20190801 at Thu Nov 28 21:24:39 2019
 By www-data
Copyright 2010 The Josefin Sans Project Authors (https://github.com/ThomasJockin/JosefinSansFont-master), with Reserved Font Name "Josefin Sans".
</metadata>
<defs>
<font id="JosefinSansMedium" horiz-adv-x="0" >
  <font-face 
    font-family="JosefinSansMedium"
    font-weight="500"
    font-stretch="normal"
    units-per-em="1000"
    panose-1="0 0 0 0 0 0 0 0 0 0"
    ascent="750"
    descent="-250"
    x-height="419"
    cap-height="726"
    bbox="-86 -239 1361 1195"
    underline-thickness="50"
    underline-position="-125"
    unicode-range="U+000D-FB02"
  />
<missing-glyph horiz-adv-x="300" 
 />
    <glyph glyph-name="f_f" unicode="ff" horiz-adv-x="694" 
d="M114 0v328h-71v91h71v170q0 90 43 139t125 49q22 0 49 -6.5t48 -20.5l-43 -75q-9 10 -20.5 14t-23.5 4q-35 0 -55 -24t-20 -82v-168h132v-91h-132v-328h-103zM423 0v328h-71v91h71v170q0 90 43 139t125 49q22 0 49 -6.5t48 -20.5l-43 -75q-9 10 -20.5 14t-23.5 4
q-35 0 -55 -24t-20 -82v-168h132v-91h-132v-328h-103z" />
    <glyph glyph-name="fi" unicode="fi" horiz-adv-x="591" 
d="M114 0v328h-71v91h71v170q0 90 43 139t125 49q22 0 49 -6.5t48 -20.5l-43 -75q-9 10 -20.5 14t-23.5 4q-35 0 -55 -24t-20 -82v-168h117v-91h-117v-328h-103zM409 419h103v-419h-103v419zM403 569q0 24 19.5 40t41.5 16t40 -16t18 -40t-18 -39.5t-40 -15.5t-41.5 15.5
t-19.5 39.5z" />
    <glyph glyph-name="fl" unicode="fl" horiz-adv-x="591" 
d="M114 0v328h-71v91h71v170q0 90 43 139t125 49q22 0 49 -6.5t48 -20.5l-43 -75q-9 10 -20.5 14t-23.5 4q-35 0 -55 -24t-20 -82v-168h117v-91h-117v-328h-103zM409 777h103v-777h-103v777z" />
    <glyph glyph-name="f_f_i" unicode="ffi" horiz-adv-x="904" 
d="M114 0v328h-71v91h71v170q0 90 43 139t125 49q22 0 49 -6.5t48 -20.5l-43 -75q-9 10 -20.5 14t-23.5 4q-35 0 -55 -24t-20 -82v-168h132v-91h-132v-328h-103zM423 0v328h-71v91h71v170q0 90 43 139t125 49q22 0 49 -6.5t48 -20.5l-43 -75q-9 10 -20.5 14t-23.5 4
q-35 0 -55 -24t-20 -82v-168h132v-91h-132v-328h-103zM723 419h103v-419h-103v419zM717 569q0 24 19 40t41 16q23 0 41 -16t18 -40t-18 -39.5t-41 -15.5q-22 0 -41 15.5t-19 39.5z" />
    <glyph glyph-name="f_f_l" unicode="ffl" horiz-adv-x="954" 
d="M114 0v328h-71v91h71v170q0 90 43 139t125 49q22 0 49 -6.5t48 -20.5l-43 -75q-9 10 -20.5 14t-23.5 4q-35 0 -55 -24t-20 -82v-168h132v-91h-132v-328h-103zM423 0v328h-71v91h71v170q0 90 43 139t125 49q22 0 49 -6.5t48 -20.5l-43 -75q-9 10 -20.5 14t-23.5 4
q-35 0 -55 -24t-20 -82v-168h132v-91h-132v-328h-103zM773 777h103v-777h-103v777z" />
    <glyph glyph-name=".notdef" horiz-adv-x="300" 
 />
    <glyph glyph-name=".null" 
 />
    <glyph glyph-name="nonmarkingreturn" horiz-adv-x="333" 
 />
    <glyph glyph-name="NULL" 
 />
    <glyph glyph-name="NULL" 
 />
    <glyph glyph-name="CR" unicode="&#xd;" horiz-adv-x="318" 
 />
    <glyph glyph-name="space" unicode=" " horiz-adv-x="318" 
 />
    <glyph glyph-name="exclam" unicode="!" horiz-adv-x="202" 
d="M53 761h92v-572h-92v572zM102 0q-28 0 -46.5 16t-18.5 41t18.5 41.5t46.5 16.5q27 0 44.5 -16.5t17.5 -41.5t-17 -41t-45 -16z" />
    <glyph glyph-name="quotedbl" unicode="&#x22;" horiz-adv-x="344" 
d="M155 730q-1 -63 -2 -125.5t-2 -126.5h-87v252h91zM290 730q-1 -63 -2 -125.5t-2 -126.5h-87v252h91z" />
    <glyph glyph-name="numbersign" unicode="#" horiz-adv-x="579" 
d="M265 652q-7 -48 -12.5 -95t-12.5 -95h94q6 48 12 95t12 95h93q-6 -48 -11.5 -95t-12.5 -95h99q-2 -22 -3.5 -44.5t-4.5 -45.5h-101q-2 -23 -5 -47t-6 -49h100q-3 -22 -6 -44.5t-5 -45.5h-100q-5 -47 -10.5 -93t-11.5 -93h-93q5 47 11 93t11 93h-93q-5 -47 -11 -93
t-11 -93h-94q6 47 11.5 93t10.5 93h-90q3 23 5.5 45.5t5.5 44.5h90q3 25 6 49t6 47h-90q3 23 5 45.5t4 44.5h91q6 48 11.5 95t11.5 95h94zM231 372q-3 -23 -6 -47t-6 -49h94q3 25 5.5 49t5.5 47h-93z" />
    <glyph glyph-name="dollar" unicode="$" horiz-adv-x="567" 
d="M254 -68v437l24 35v388h64v-404l-24 -46v-410h-64zM480 587q-38 20 -82 34t-85 14q-56 0 -89 -25.5t-33 -69.5q0 -31 22 -54t57 -40t74 -32q33 -12 65.5 -28.5t59 -40.5t42 -59.5t15.5 -86.5q0 -58 -28.5 -105t-82 -74.5t-129.5 -27.5q-46 0 -89.5 10.5t-82 28
t-69.5 38.5l48 83q24 -17 55 -32.5t64.5 -24.5t63.5 -9q33 0 65 11.5t53 36t21 64.5q0 34 -18.5 57.5t-49 40.5t-65.5 30q-34 13 -69 29t-65 38.5t-48.5 56t-18.5 82.5q0 58 27.5 101.5t76.5 68.5t113 28q73 0 127 -18t96 -43z" />
    <glyph glyph-name="percent" unicode="%" horiz-adv-x="786" 
d="M203 272q-48 0 -80.5 22.5t-49 62t-16.5 90.5t16.5 90.5t49 61.5t80.5 22t80 -22t49 -61.5t17 -90.5t-17 -90.5t-49 -62t-80 -22.5zM147 447q0 -47 14 -74.5t42 -27.5t41.5 27.5t13.5 74.5q0 50 -13.5 75.5t-41.5 25.5t-42 -24.5t-14 -76.5zM587 -18q-48 0 -80.5 22
t-49 61.5t-16.5 90.5q0 52 16.5 91t49 61.5t80.5 22.5t80.5 -22.5t49 -61.5t16.5 -91q0 -51 -16.5 -90.5t-49 -61.5t-80.5 -22zM531 156q0 -47 14 -74.5t42 -27.5t41.5 27.5t13.5 74.5q0 51 -13.5 76t-41.5 25t-42 -24.5t-14 -76.5zM668 622l-431 -624l-101 2l429 622h103z
" />
    <glyph glyph-name="ampersand" unicode="&#x26;" horiz-adv-x="728" 
d="M681 0h-30h-41.5h-37h-15.5l-342 454q-9 14 -21.5 35.5t-21.5 48t-9 55.5q0 42 20.5 79.5t61 62t98.5 24.5q62 0 110 -24.5t78 -58.5l-53 -71q-31 29 -60.5 46.5t-57.5 17.5q-42 0 -64.5 -25t-22.5 -60q0 -17 7.5 -35.5t15 -32t9.5 -16.5zM307 345q-27 0 -53 -10.5
t-46 -29t-31.5 -42.5t-11.5 -52q0 -38 19.5 -66t52.5 -44t72 -16q37 0 64.5 11.5t47 30t29.5 41.5l68 -59q-26 -50 -82.5 -84.5t-140.5 -34.5q-68 0 -122.5 28t-86.5 77t-32 111q0 47 21.5 87.5t57.5 70t80.5 47t91.5 18.5zM551 429h98l-119 -303l-77 48z" />
    <glyph glyph-name="quotesingle" unicode="'" horiz-adv-x="167" 
d="M132 730q-1 -63 -2 -125.5t-2 -126.5h-88v252h92z" />
    <glyph glyph-name="parenleft" unicode="(" horiz-adv-x="404" 
d="M96 295q0 101 24.5 189.5t62.5 157.5t80 114l82 -44q-39 -44 -71 -106t-51.5 -140t-19.5 -171t19.5 -171t52 -139.5t70.5 -106.5l-82 -44q-42 45 -80 114t-62.5 157.5t-24.5 189.5v0z" />
    <glyph glyph-name="parenright" unicode=")" horiz-adv-x="406" 
d="M317 295q0 -101 -24.5 -189.5t-62 -158t-80.5 -113.5l-82 44q39 44 71 106t51.5 140t19.5 171t-19.5 171t-51.5 139.5t-71 105.5l82 45q43 -45 80.5 -114.5t62 -157.5t24.5 -189v0z" />
    <glyph glyph-name="asterisk" unicode="*" horiz-adv-x="335" 
d="M137 521l-38 -22l-38 -22q-7 14 -15 28.5t-17 28.5q20 10 38.5 21t37.5 21q-18 11 -37 22.5t-38 22.5q7 13 14.5 26.5t14.5 26.5q20 -11 39 -22.5t39 -22.5v91h65q-1 -23 -1 -45.5t-1 -45.5q20 11 39.5 22t39.5 22q7 -13 14.5 -26.5t15.5 -26.5q-20 -11 -39 -22.5
t-40 -22.5v0q20 -11 39 -22l38 -22q-7 -14 -15 -28t-17 -28q-19 11 -38 22.5t-38 22.5q0 -21 -0.5 -42.5t-0.5 -43.5h-61v87z" />
    <glyph glyph-name="plus" unicode="+" horiz-adv-x="551" 
d="M223 417h94v-138h135v-90h-135v-137h-94v137h-135v90h135v138z" />
    <glyph glyph-name="comma" unicode="," horiz-adv-x="203" 
d="M170 88q-22 -53 -43.5 -105t-43.5 -105h-83q20 53 39 105t39 105h92z" />
    <glyph glyph-name="hyphen" unicode="-" horiz-adv-x="304" 
d="M54 263h186v-90h-186v90z" />
    <glyph glyph-name="period" unicode="." horiz-adv-x="169" 
d="M30 57q0 24 17.5 40.5t39.5 16.5q20 0 37.5 -16.5t17.5 -40.5q0 -26 -17.5 -41.5t-37.5 -15.5q-22 0 -39.5 15.5t-17.5 41.5v0z" />
    <glyph glyph-name="slash" unicode="/" horiz-adv-x="392" 
d="M392 747q-70 -192 -140.5 -383t-141.5 -383h-93q71 192 141.5 383t140.5 383h93z" />
    <glyph glyph-name="zero" unicode="0" horiz-adv-x="624" 
d="M312 -3q-60 0 -110.5 22.5t-87.5 65.5t-58 105.5t-21 141.5q0 86 20 149t56.5 104.5t87.5 61t113 19.5q61 0 111.5 -22t87.5 -65t57.5 -105.5t20.5 -141.5q0 -81 -20.5 -143.5t-58 -105t-87.5 -64.5t-111 -22zM311 100q57 0 94 29.5t55 83t18 122.5q0 67 -18 118.5
t-55 81t-94 28.5q-55 1 -92 -28.5t-55 -81.5t-18 -121q0 -67 18 -120t55 -82.5t92 -29.5z" />
    <glyph glyph-name="one" unicode="1" horiz-adv-x="332" 
d="M52 659h178v-659h-107v556h-71v103z" />
    <glyph glyph-name="two" unicode="2" horiz-adv-x="553" 
d="M54 0q62 63 120 122t104.5 115t73 108t26.5 101q0 30 -9.5 52.5t-26.5 37t-38 22t-45 7.5q-31 0 -53 -10t-35.5 -25.5t-20.5 -33.5t-7 -36q0 -33 10.5 -59t28.5 -45l-65 -60q-25 15 -42.5 43.5t-26.5 60.5t-9 57q0 55 27.5 102.5t81 77.5t129.5 30q64 0 111.5 -29
t74 -77.5t26.5 -105.5q0 -49 -19 -96t-50.5 -92.5t-70 -90t-76.5 -89.5l-48 16h283v-103h-454z" />
    <glyph glyph-name="three" unicode="3" horiz-adv-x="524" 
d="M441 659l-171 -284l-62 30q13 7 27.5 10t29.5 3q37 1 72 -8.5t63 -33t44.5 -61.5t16.5 -96q0 -70 -32 -121t-85 -78.5t-117 -27.5q-47 0 -96.5 19.5t-80.5 52.5l55 88q18 -22 51 -39.5t69 -17.5q34 0 62.5 15.5t46 45t17.5 70.5q0 54 -31.5 85.5t-87.5 31.5q-29 0 -48 -4
t-34 -9l-4 3l148 237l32 -13h-234v102h349z" />
    <glyph glyph-name="four" unicode="4" horiz-adv-x="539" 
d="M12 156v1l406 510h1v-429h84v-82h-84v-156h-107v156h-300zM318 428l-150 -195l-15 5h159v206z" />
    <glyph glyph-name="five" unicode="5" horiz-adv-x="522" 
d="M244 -8q-54 0 -104 20t-80 49l56 84q20 -23 53.5 -37t65.5 -14q35 0 61.5 15t42 42t15.5 62q0 38 -14 67.5t-42 46.5t-68 17q-34 0 -63.5 -9.5t-63.5 -28.5h-1v353h318v-102h-225v-156l-14 22q17 5 36 8t38 3q68 0 114.5 -30t70.5 -79t24 -108q0 -63 -28.5 -114
t-78.5 -81t-113 -30z" />
    <glyph glyph-name="six" unicode="6" horiz-adv-x="548" 
d="M276 -8q-67 0 -121.5 32t-86.5 92t-32 143q0 64 25 122t67.5 109.5t96 95.5t111.5 81l71 -78q-81 -38 -135 -88t-83 -102t-33 -98l-27 4q27 57 70.5 88.5t112.5 31.5q50 0 95.5 -27.5t73.5 -74.5t28 -109q0 -68 -33 -118t-86 -77t-114 -27zM272 88q36 0 64.5 15.5
t45.5 44t17 66.5q0 37 -17 64t-46 42t-64 15t-63.5 -14.5t-45.5 -39t-17 -54.5v-18q0 -32 16.5 -60t45.5 -44.5t64 -16.5z" />
    <glyph glyph-name="seven" unicode="7" horiz-adv-x="492" 
d="M467 659l-260 -659h-120l231 571l36 -14h-321v102h434z" />
    <glyph glyph-name="eight" unicode="8" horiz-adv-x="525" 
d="M25 209q0 51 19.5 88t48.5 62t58 38q-28 20 -46.5 47.5t-18.5 70.5q0 45 23 79t63 53.5t90 19.5t90 -19.5t63.5 -52.5t23.5 -75q0 -47 -19 -74.5t-48 -48.5q30 -14 59.5 -39t48.5 -62t19 -87q0 -57 -31.5 -106.5t-85 -80t-121.5 -30.5t-121 30.5t-84 80t-31 106.5v0z
M134 213q0 -35 17.5 -65t46 -48t63.5 -18q36 0 66 18t48 48t18 65q0 36 -17 65t-46 47t-64 19t-65 -16.5t-48.5 -47.5t-18.5 -67v0zM189 502q0 -28 23 -48.5t52 -20.5t51 20.5t22 48.5q0 33 -21.5 54.5t-51.5 21.5q-29 0 -52 -21.5t-23 -54.5v0z" />
    <glyph glyph-name="nine" unicode="9" horiz-adv-x="539" 
d="M233 214q-50 0 -95 27t-73.5 75t-28.5 108q0 73 33 125t86.5 80.5t113.5 28.5q68 0 122 -30t86 -83t32 -121q0 -79 -29 -143.5t-77 -117t-106 -96t-116 -81.5l-71 78q83 41 144 87.5t95.5 93.5t39.5 89l29 -1q-29 -57 -70.5 -88t-114.5 -31zM273 304q55 0 91 32.5
t36 82.5v20q-1 34 -18 61.5t-45 44.5t-64 17q-35 0 -64 -16t-45.5 -45.5t-16.5 -69.5q0 -38 17 -67t45.5 -44.5t63.5 -15.5z" />
    <glyph glyph-name="colon" unicode=":" horiz-adv-x="178" 
d="M30 331q0 25 17.5 41.5t38.5 16.5q20 0 38 -16.5t18 -40.5q0 -26 -18 -41.5t-38 -15.5q-21 0 -38.5 15t-17.5 41v0zM30 57q0 24 17.5 40.5t38.5 16.5q20 0 38 -16.5t18 -40.5q0 -26 -18 -41.5t-38 -15.5q-21 0 -38.5 15.5t-17.5 41.5v0z" />
    <glyph glyph-name="semicolon" unicode=";" horiz-adv-x="204" 
d="M62 310q0 24 18 41t39 17q20 0 37.5 -17t17.5 -41q0 -26 -17 -41.5t-38 -15.5t-39 16t-18 41v0zM156 88q-22 -53 -44 -105t-44 -105h-83q20 53 39.5 105t38.5 105h93z" />
    <glyph glyph-name="less" unicode="&#x3c;" horiz-adv-x="592" 
d="M498 385l-246 -144l246 -144v-111l-443 255l443 256v-112z" />
    <glyph glyph-name="equal" unicode="=" horiz-adv-x="718" 
d="M102 396h512v-90h-512v90zM102 199h512v-90h-512v90z" />
    <glyph glyph-name="greater" unicode="&#x3e;" horiz-adv-x="583" 
d="M90 98l247 143l-247 144v112l443 -256l-443 -255v0v112z" />
    <glyph glyph-name="question" unicode="?" horiz-adv-x="460" 
d="M162 187v61q0 50 13 80t33.5 51t41.5 40q31 26 53 53.5t22 72.5q0 31 -14.5 53.5t-37.5 35.5t-49 13q-32 0 -56.5 -14t-40.5 -37t-26 -50l-85 39q7 21 23 48t42.5 52t64.5 41.5t88 16.5q57 0 102 -21.5t71.5 -63.5t26.5 -104q0 -49 -14 -82t-35.5 -57t-46.5 -46
q-19 -18 -36.5 -36t-27.5 -43t-10 -65v-38h-102zM214 0q-28 0 -46 16t-18 41t18.5 41.5t45.5 16.5t45 -16.5t18 -41.5t-17.5 -41t-45.5 -16z" />
    <glyph glyph-name="at" unicode="@" horiz-adv-x="1034" 
d="M442 -220q-82 0 -154.5 23.5t-127.5 71.5t-86 120.5t-31 168.5q0 63 19.5 130.5t60.5 131t106.5 114.5t157 81.5t212.5 30.5q93 0 165.5 -27.5t123 -76t77 -113t26.5 -139.5q0 -61 -18.5 -116t-52 -97t-79 -66.5t-100.5 -24.5q-41 0 -70.5 19.5t-43 54.5t-5.5 81l18 -47
q-16 -26 -46 -51t-68.5 -42t-78.5 -17q-55 0 -98.5 23t-68 67t-23.5 104q0 70 31 127.5t85.5 91.5t125.5 34q44 0 73 -12t48 -31t30 -42l17 67h98l-38 -269q-2 -18 0.5 -33t12 -23t26.5 -8q23 0 46.5 15.5t42 44.5t29.5 67t11 83q0 76 -35.5 138t-104.5 99.5t-171 37.5
q-107 0 -183.5 -29t-127.5 -76.5t-81 -102t-43 -106t-13 -89.5q0 -80 24.5 -138t68 -95.5t102 -56t126.5 -18.5q59 0 115.5 18.5t105.5 49.5l42 -60q-39 -30 -86.5 -49.5t-97 -29t-94.5 -9.5zM487 74q31 0 57.5 12t47 34t32.5 52l12 87q-4 28 -20.5 48.5t-42 32.5t-58.5 12
q-41 0 -75 -21.5t-54 -56.5t-20 -77q0 -34 15 -62t42.5 -44.5t63.5 -16.5z" />
    <glyph glyph-name="A" unicode="A" horiz-adv-x="700" 
d="M28 0l319 755h6l319 -755h-122l-232 588l77 51l-262 -639h-105zM222 272h258l37 -92h-327z" />
    <glyph glyph-name="B" unicode="B" horiz-adv-x="624" 
d="M295 726q110 0 173.5 -45t63.5 -138q0 -60 -27.5 -103t-76 -66.5t-114.5 -26.5l-16 57q77 -2 137.5 -26.5t96 -68t35.5 -103.5q0 -55 -20.5 -94.5t-55 -64t-78 -36t-90.5 -11.5h-221v726h193zM314 412q56 0 82 32t26 76q0 54 -33.5 78.5t-88.5 24.5h-91v-211h105zM318 99
q39 0 70.5 11.5t50 35t18.5 59.5q0 40 -21.5 62.5t-55 32t-69.5 9.5h-102v-210h109z" />
    <glyph glyph-name="C" unicode="C" horiz-adv-x="695" 
d="M637 55q-16 -11 -47.5 -26.5t-74 -26.5t-93.5 -10q-85 1 -152.5 30t-114.5 79.5t-72.5 116t-25.5 139.5q0 82 26 150.5t74.5 119.5t114 79t143.5 28q67 0 121 -18t91 -42l-42 -100q-29 20 -71.5 38.5t-94.5 18.5q-51 0 -96.5 -20.5t-80 -57t-54.5 -85t-20 -105.5
q0 -58 18 -107t51.5 -85t80.5 -56t106 -20q56 0 98.5 17t69.5 39z" />
    <glyph glyph-name="D" unicode="D" horiz-adv-x="757" 
d="M102 0v726h202q108 0 184 -33t122.5 -87t68 -120t21.5 -133q0 -81 -29 -146t-79 -111.5t-115 -71t-138 -24.5h-237zM209 103h110q59 0 108.5 17t86 50t56.5 81t20 110q0 67 -22.5 116.5t-59.5 82t-82.5 48t-92.5 15.5h-124v-520z" />
    <glyph glyph-name="E" unicode="E" horiz-adv-x="655" 
d="M102 726h477v-103h-370v-207h329v-103h-329v-210h384v-103h-491v726z" />
    <glyph glyph-name="F" unicode="F" horiz-adv-x="591" 
d="M102 726h435v-103h-328v-218h287v-102h-287v-303h-107v726z" />
    <glyph glyph-name="G" unicode="G" horiz-adv-x="754" 
d="M675 64q-15 -13 -42 -26t-60.5 -23t-68.5 -16.5t-66 -6.5q-88 0 -158 27t-120 75t-76.5 112.5t-26.5 140.5q0 93 30 165t81.5 121.5t119 75t141.5 25.5q65 0 120.5 -15t95.5 -39l-35 -98q-20 11 -49.5 21.5t-60.5 16.5t-57 6q-64 0 -114.5 -18.5t-86.5 -53.5t-55.5 -85
t-19.5 -113q0 -57 20 -104.5t56 -82t86 -53t111 -18.5q35 0 69 7t58 20v132h-140v103h248v-296z" />
    <glyph glyph-name="H" unicode="H" horiz-adv-x="786" 
d="M684 726v-726h-107v313h-368v-313h-107v726h107v-311h368v311h107z" />
    <glyph glyph-name="I" unicode="I" horiz-adv-x="311" 
d="M102 726h107v-726h-107v726z" />
    <glyph glyph-name="J" unicode="J" horiz-adv-x="372" 
d="M270 136q0 -89 -34.5 -152.5t-94.5 -97t-138 -36.5v0v104q70 4 115 48t45 137v587h107v-590z" />
    <glyph glyph-name="K" unicode="K" horiz-adv-x="684" 
d="M210 440l-3 -36l15 21l284 301h138l-300 -315l314 -411h-135l-257 344l-56 -55v-289h-108v726h108v-286z" />
    <glyph glyph-name="L" unicode="L" horiz-adv-x="626" 
d="M102 726h107v-623h363v-103h-470v726z" />
    <glyph glyph-name="M" unicode="M" horiz-adv-x="931" 
d="M102 0v750h1l386 -547l-46 10l384 537h2v-750h-106v509l7 -55l-268 -379h-2l-273 379l18 50v-504h-103z" />
    <glyph glyph-name="N" unicode="N" horiz-adv-x="841" 
d="M735 -25l-559 555l31 -10l3 -520h-108v749h5l552 -556l-25 7l-2 526h106v-751h-3z" />
    <glyph glyph-name="O" unicode="O" horiz-adv-x="856" 
d="M57 362q0 75 28.5 142t79.5 119t118 81.5t144 29.5q76 0 143 -29.5t119 -81.5t81 -119t29 -142q0 -77 -29 -144t-80.5 -118t-119 -79.5t-143.5 -28.5q-77 0 -144 28t-118 78.5t-79.5 118t-28.5 145.5zM167 362q0 -56 20.5 -104.5t56.5 -85t83.5 -57t102.5 -20.5
q54 0 101 20.5t82.5 57t55.5 85t20 104.5t-20.5 104.5t-56 85.5t-83 58t-101.5 21q-56 0 -103 -21t-83 -58t-55.5 -86t-19.5 -104z" />
    <glyph glyph-name="P" unicode="P" horiz-adv-x="603" 
d="M302 726q81 0 138.5 -27.5t88 -78.5t30.5 -124q0 -43 -13 -85t-41.5 -76.5t-75.5 -55t-114 -20.5h-106v-259h-107v726h200zM315 362q40 0 67 13.5t42.5 34.5t22 43.5t6.5 40.5q0 20 -6.5 42.5t-21.5 42t-41 32t-65 12.5h-110v-261h106z" />
    <glyph glyph-name="Q" unicode="Q" horiz-adv-x="889" 
d="M587 104h244v-104h-385zM57 362q0 75 28.5 142t79.5 119t118 81.5t144 29.5q76 0 143 -29.5t119 -81.5t81 -119t29 -142q0 -77 -29 -144t-80.5 -118t-119 -79.5t-143.5 -28.5q-77 0 -144 28t-118 78.5t-79.5 118t-28.5 145.5zM167 361q0 -54 20.5 -102.5t56.5 -85
t83.5 -57.5t102.5 -21q54 0 101 21t82.5 57t55.5 84.5t20 104.5q0 55 -20.5 103t-56 84.5t-83 57.5t-101.5 21q-56 0 -103 -21t-83 -58t-55.5 -85t-19.5 -103z" />
    <glyph glyph-name="R" unicode="R" horiz-adv-x="665" 
d="M301 726q57 0 105.5 -15.5t83 -44.5t54 -71.5t19.5 -98.5q0 -43 -13 -85t-42 -76t-76 -54.5t-117 -20.5h-106v-260h-107v726h199zM313 362q41 0 68.5 13t43 32.5t22 42t6.5 43.5q0 20 -6.5 42t-22 42t-41.5 33t-64 13h-110v-261h104zM436 300l188 -300h-124l-191 297z
" />
    <glyph glyph-name="S" unicode="S" horiz-adv-x="582" 
d="M480 587q-38 20 -82 34t-85 14q-56 0 -89 -25.5t-33 -69.5q0 -31 22 -54t57 -40t74 -32q33 -12 65.5 -28.5t59 -40.5t42 -59.5t15.5 -86.5q0 -58 -28.5 -105t-82 -74.5t-129.5 -27.5q-46 0 -89.5 10.5t-82 28t-69.5 38.5l48 83q24 -17 55 -32.5t64.5 -24.5t63.5 -9
q33 0 65 11.5t53 36t21 64.5q0 34 -18.5 57.5t-49 40.5t-65.5 30q-34 13 -69 29t-65 38.5t-48.5 56t-18.5 82.5q0 58 27.5 101.5t76.5 68.5t113 28q73 0 127 -18t96 -43z" />
    <glyph glyph-name="T" unicode="T" horiz-adv-x="582" 
d="M49 726h484v-103h-191v-623h-107v623h-186v103z" />
    <glyph glyph-name="U" unicode="U" horiz-adv-x="736" 
d="M198 259q0 -46 23 -83t61 -59t85 -22q50 0 89 22t61.5 59t22.5 83v467h105v-470q0 -79 -37 -138.5t-100 -92.5t-141 -33v0q-76 0 -139 33t-99.5 92.5t-36.5 138.5v470h106v-467z" />
    <glyph glyph-name="V" unicode="V" horiz-adv-x="722" 
d="M166 726l234 -584l-61 11l219 573h126l-323 -760l-322 760h127z" />
    <glyph glyph-name="W" unicode="W" horiz-adv-x="1011" 
d="M39 722h124l188 -534l-18 7l142 365l49 -145l-196 -449zM391 722h106l206 -525l-21 4l176 521h114l-284 -754z" />
    <glyph glyph-name="X" unicode="X" horiz-adv-x="683" 
d="M42 726h136l472 -726h-137zM32 0l253 397l52 -105l-173 -292h-132zM341 436l171 290h129l-243 -381z" />
    <glyph glyph-name="Y" unicode="Y" horiz-adv-x="698" 
d="M294 239l-269 487h132l209 -396l-32 -2l207 398h131l-271 -487v-239h-107v239z" />
    <glyph glyph-name="Z" unicode="Z" horiz-adv-x="714" 
d="M49 0q10 13 31 44.5l51 76.5t64.5 98t71 108.5t71.5 108t64.5 97t51 76t30.5 43.5l13 -29h-319q-20 0 -39.5 7.5t-32.5 22t-13 33.5v76h99v-13q0 -19 7 -21t24 -2h429l-428 -636l-6 13h443v-103h-612z" />
    <glyph glyph-name="bracketleft" unicode="[" horiz-adv-x="365" 
d="M102 757h213v-96h-105v-717h105v-95h-213v908z" />
    <glyph glyph-name="backslash" unicode="\" horiz-adv-x="398" 
d="M102 747q71 -192 141.5 -383t140.5 -383h-104q-71 192 -141 383t-141 383h104z" />
    <glyph glyph-name="bracketright" unicode="]" horiz-adv-x="365" 
d="M263 -151h-214v96h107v717h-107v95h214v-908z" />
    <glyph glyph-name="asciicircum" unicode="^" horiz-adv-x="476" 
d="M292 486q-5 8 -16.5 23t-23.5 31t-17 23q-5 -7 -16.5 -23t-23.5 -31t-17 -23h-64q30 46 60.5 91.5t60.5 91.5v0q30 -46 60.5 -91.5t61.5 -91.5h-65z" />
    <glyph glyph-name="underscore" unicode="_" horiz-adv-x="608" 
d="M102 89h405v-89h-405v89z" />
    <glyph glyph-name="grave" unicode="`" horiz-adv-x="283" 
d="M17 620h114l70 -134h-64z" />
    <glyph glyph-name="a" unicode="a" horiz-adv-x="592" 
d="M254 -10q-59 0 -107 24.5t-76 73.5t-28 121q0 71 29.5 122t78 78.5t105.5 27.5q60 0 98.5 -25.5t60.5 -59.5l-7 -16l10 83h95v-419h-103v105l11 -25q-4 -8 -17 -22.5t-34.5 -30.5t-50 -26.5t-65.5 -10.5zM282 74q33 0 59 12t44 34t25 52v87q-8 28 -27 48.5t-45.5 32.5
t-58.5 12q-36 0 -66 -17.5t-48 -48.5t-18 -72q0 -39 18.5 -71t49.5 -50.5t67 -18.5z" />
    <glyph glyph-name="b" unicode="b" horiz-adv-x="599" 
d="M339 -10q-57 0 -99.5 23.5t-68.5 59.5l11 29v-102h-103v777h102v-449l-2 37q24 32 70 52t103 20q56 0 102.5 -27t74 -76.5t27.5 -117.5q0 -70 -30 -121t-79.5 -78t-107.5 -27zM317 77q38 0 68.5 18t48.5 50t18 72q0 39 -18 70t-48.5 49.5t-68.5 18.5q-33 0 -61 -12
t-47 -33t-27 -49v-89q8 -28 27 -49.5t46.5 -33.5t61.5 -12z" />
    <glyph glyph-name="c" unicode="c" horiz-adv-x="461" 
d="M422 39q-28 -23 -67.5 -36t-79.5 -13q-69 0 -121.5 27t-81.5 76t-29 117q0 67 31 116.5t82 76t108 26.5q52 0 92 -14t69 -39l-51 -67q-17 14 -42.5 25t-58.5 11q-35 0 -64 -17.5t-46 -48t-17 -69.5q0 -37 17.5 -68.5t48.5 -49.5t71 -18q26 0 48 7.5t39 21.5z" />
    <glyph glyph-name="d" unicode="d" horiz-adv-x="599" 
d="M250 -10q-59 0 -106 27.5t-74 78.5t-27 119q0 70 29 119.5t78.5 76t111.5 26.5q48 0 91.5 -19.5t67.5 -54.5l-3 -35v449h102v-777h-103v99l11 -27q-31 -35 -76 -58.5t-102 -23.5zM282 77q35 0 62 12t46 34.5t27 52.5v84q-7 28 -26.5 49.5t-47.5 33.5t-61 12
q-37 0 -67.5 -17.5t-49 -48.5t-18.5 -72q0 -39 18.5 -71t49.5 -50.5t67 -18.5z" />
    <glyph glyph-name="e" unicode="e" horiz-adv-x="527" 
d="M276 -10q-73 0 -125 28.5t-80 79t-28 115.5q0 62 31.5 112.5t85 80.5t118.5 30q84 0 139.5 -49t74.5 -137l-341 -118l-24 60l273 98l-21 -13q-12 31 -38 54.5t-71 23.5q-36 0 -64.5 -17.5t-45 -48t-16.5 -71.5q0 -42 17.5 -73.5t48 -49.5t68.5 -18q27 0 51.5 10t46.5 25
l47 -76q-33 -21 -71.5 -33.5t-75.5 -12.5z" />
    <glyph glyph-name="f" unicode="f" horiz-adv-x="391" 
d="M114 0v328h-71v91h71v170q0 90 43 139t125 49q22 0 49 -6.5t48 -20.5l-43 -75q-9 10 -20.5 14t-23.5 4q-35 0 -55 -24t-20 -82v-168h132v-91h-132v-328h-103z" />
    <glyph glyph-name="g" unicode="g" horiz-adv-x="605" 
d="M284 -208q-49 0 -85 11t-64.5 30.5t-54.5 41.5l61 71q31 -29 64 -46.5t77 -17.5t75.5 14.5t48.5 40.5t17 62l1 109l7 -20q-17 -41 -63 -69.5t-113 -28.5q-57 0 -105.5 29t-77.5 79t-29 113q0 66 30.5 116.5t80.5 80t107 29.5q56 0 100 -21.5t66 -53.5l-6 -17l11 74h95
v-421q0 -58 -30.5 -104.5t-84.5 -74t-128 -27.5zM147 214q0 -39 18 -71t49.5 -50.5t70.5 -18.5q35 0 63 12.5t47.5 34t28.5 50.5v87q-9 29 -29 49.5t-48 32.5t-62 12q-39 0 -70.5 -17.5t-49.5 -48.5t-18 -72z" />
    <glyph glyph-name="h" unicode="h" horiz-adv-x="561" 
d="M79 0v777h100v-453l-1 17q21 41 64 68t103 27q59 0 97.5 -35t39.5 -91v-310h-103v274q-1 32 -19 52.5t-56 21.5q-34 0 -62 -20.5t-44 -56t-16 -80.5v-191h-103z" />
    <glyph glyph-name="i" unicode="i" horiz-adv-x="260" 
d="M79 419h103v-419h-103v419zM73 569q0 24 19 40t41 16q23 0 41 -16t18 -40t-18 -39.5t-41 -15.5q-22 0 -41 15.5t-19 39.5z" />
    <glyph glyph-name="j" unicode="j" horiz-adv-x="267" 
d="M89 -202l-60 64q28 24 44 58.5t16 81.5v417h104v-421q0 -72 -24.5 -121t-79.5 -79zM82 569q0 24 19 40t41 16q23 0 41 -16t18 -40t-18 -39.5t-41 -15.5q-22 0 -41 15.5t-19 39.5z" />
    <glyph glyph-name="k" unicode="k" horiz-adv-x="508" 
d="M79 0v777h103v-777h-103zM284 280l192 -280h-120l-140 221zM150 129l-10 99l254 200l63 -55z" />
    <glyph glyph-name="l" unicode="l" horiz-adv-x="260" 
d="M79 777h103v-777h-103v777z" />
    <glyph glyph-name="m" unicode="m" horiz-adv-x="833" 
d="M171 419l9 -90l-4 7q24 47 66 73.5t97 26.5q34 0 61.5 -11t45.5 -31t23 -50l-5 -3q25 44 66.5 69.5t88.5 25.5q61 0 97.5 -35t37.5 -90v-311h-102v272q-1 31 -14.5 52t-47.5 23q-36 0 -63.5 -22t-42.5 -57t-16 -75v-193h-103v272q-1 31 -15 52t-49 23q-36 0 -63 -22
t-41.5 -57.5t-14.5 -74.5v-193h-103v419h92z" />
    <glyph glyph-name="n" unicode="n" horiz-adv-x="561" 
d="M171 419l9 -96l-4 13q21 45 65 72.5t104 27.5q59 0 97.5 -35t39.5 -91v-310h-103v274q-1 32 -19 52.5t-56 21.5q-34 0 -62 -20.5t-44 -55.5t-16 -81v-191h-103v419h92z" />
    <glyph glyph-name="o" unicode="o" horiz-adv-x="550" 
d="M43 214q0 63 30 113.5t83 79.5t121 29q69 0 121 -29t80.5 -79.5t28.5 -113.5t-28.5 -114t-80.5 -80.5t-122 -29.5q-67 0 -119.5 27t-83 77.5t-30.5 119.5zM147 213q0 -39 17 -70.5t46 -50t65 -18.5q37 0 66 18.5t45.5 50t16.5 70.5t-16.5 70t-45.5 50t-66 19t-66 -19
t-45.5 -50.5t-16.5 -69.5z" />
    <glyph glyph-name="p" unicode="p" horiz-adv-x="599" 
d="M330 -10q-46 0 -88 20.5t-67 55.5l6 31v-298h-102v627h89l14 -102l-11 29q31 36 76.5 60t101.5 24q59 0 106 -28t74 -79t27 -120q0 -68 -29.5 -117.5t-80.5 -76t-116 -26.5zM310 71q38 0 70.5 18t52 49.5t19.5 70.5q0 41 -18.5 72.5t-49 49.5t-67.5 18q-35 0 -62 -12.5
t-46 -34.5t-27 -53v-77q6 -29 24 -52t45 -36t59 -13z" />
    <glyph glyph-name="q" unicode="q" horiz-adv-x="599" 
d="M247 -10q-55 0 -101.5 26.5t-74.5 76t-28 117.5q0 69 30.5 120t80 79t109.5 28q56 0 97.5 -23.5t67.5 -60.5l-11 -29v102h103v-627h-102v303l4 -40q-25 -32 -71 -52t-104 -20zM282 71q34 0 62.5 13t47.5 36t25 52v77q-8 31 -27 53t-46 34.5t-62 12.5q-36 0 -67 -18
t-49.5 -50t-18.5 -72q0 -39 18.5 -70.5t49.5 -49.5t67 -18z" />
    <glyph glyph-name="r" unicode="r" horiz-adv-x="383" 
d="M171 419l10 -120l-5 16q17 38 48 65t64.5 41.5t56.5 14.5l-5 -102q-48 3 -83.5 -18t-55.5 -56t-20 -75v-185h-102v419h92z" />
    <glyph glyph-name="s" unicode="s" horiz-adv-x="415" 
d="M201 -9q-46 0 -89 16.5t-71 48.5l44 58q27 -25 54.5 -37.5t52.5 -12.5q20 0 36 4.5t26 15.5t10 29q0 21 -14 33t-36 20t-47 15q-53 17 -80 48.5t-27 74.5q0 33 16.5 62.5t50.5 48.5t84 19q46 0 81 -10.5t65 -35.5l-40 -62q-18 18 -42.5 27.5t-44.5 10.5q-18 0 -33 -5.5
t-24 -16t-9 -24.5q-1 -20 13.5 -32.5t37.5 -20t45 -15.5q31 -9 55 -24.5t38 -37.5t14 -56q0 -37 -18 -69.5t-55 -52t-93 -19.5z" />
    <glyph glyph-name="t" unicode="t" horiz-adv-x="366" 
d="M119 603h103v-185h112v-81h-112v-337h-103v337h-74v81h74v185z" />
    <glyph glyph-name="u" unicode="u" horiz-adv-x="554" 
d="M213 -17q-58 0 -95 35t-39 90v311h103v-274q2 -32 18.5 -52.5t53.5 -21.5q34 0 60.5 20.5t42 56t15.5 81.5v190h103v-419h-93l-8 97l4 -16q-13 -28 -37 -50.5t-57 -35t-71 -12.5z" />
    <glyph glyph-name="v" unicode="v" horiz-adv-x="502" 
d="M254 -11l-237 430h122l154 -324l-63 3l140 321h115l-227 -430h-4z" />
    <glyph glyph-name="w" unicode="w" horiz-adv-x="676" 
d="M354 419l117 -269l-20 -1l107 270h101l-192 -444l-134 285l-123 -285l-193 444h101l124 -282l-36 6l90 208l-31 68h89z" />
    <glyph glyph-name="x" unicode="x" horiz-adv-x="478" 
d="M244 268l96 151h103l-162 -226zM460 0h-123l-320 419h127zM232 151l-106 -151h-104l162 220z" />
    <glyph glyph-name="y" unicode="y" horiz-adv-x="502" 
d="M114 -201l277 620h94l-270 -620h-101zM220 -3l-203 422h116l166 -370z" />
    <glyph glyph-name="z" unicode="z" horiz-adv-x="475" 
d="M124 335q-32 0 -55 20.5t-23 59.5v44h77v-14q0 -17 8 -21.5t26 -4.5h268l-247 -356l-20 21h263v-84h-395l253 364l16 -29h-171z" />
    <glyph glyph-name="braceleft" unicode="{" horiz-adv-x="363" 
d="M273 666q-20 0 -31.5 -7.5t-16 -29.5t-4.5 -66v-114q0 -45 -11 -74t-26 -46t-29 -26q13 -8 28 -24.5t26.5 -43t11.5 -65.5v-128q0 -44 4.5 -66t16 -29.5t31.5 -7.5h43v-90h-67q-25 0 -49.5 1t-43.5 11.5t-30.5 38t-11.5 79.5v159q0 29 -8 57t-26 46.5t-47 18.5v0v89
q29 1 47 19.5t26 46t8 57.5v164q0 48 11.5 73t30.5 35t43.5 11.5t49.5 1.5h67v-91h-43z" />
    <glyph glyph-name="bar" unicode="|" horiz-adv-x="280" 
d="M91 710h93v-945h-93v945z" />
    <glyph glyph-name="braceright" unicode="}" horiz-adv-x="377" 
d="M104 -61q21 0 32.5 7.5t16 30t4.5 65.5v125q0 40 11.5 67t27 43.5t27.5 24.5q-12 9 -28 25t-27 42.5t-11 65.5v129q0 44 -4.5 65.5t-16 29t-32.5 7.5h-43v91h67q25 0 48.5 -1.5t43.5 -11t31.5 -34.5t11.5 -73v-159q0 -21 4 -44t13 -43t24.5 -33t39.5 -13v0v-89
q-24 -1 -39.5 -14t-24.5 -32.5t-13 -42.5t-4 -44v-155q0 -47 -11 -72t-30.5 -34.5t-44 -11t-49.5 -1.5h-67v90h43z" />
    <glyph glyph-name="asciitilde" unicode="~" horiz-adv-x="431" 
d="M301 433q-38 0 -62 16.5t-45 34.5q-13 12 -26.5 22t-29.5 10q-14 0 -24.5 -10.5t-15.5 -30t-4 -43.5l-64 1q-3 44 10 81t39.5 59t64.5 22q30 0 52 -16t41 -34q16 -15 30.5 -26t30.5 -11q15 0 23.5 11t12 31t3.5 45l63 -1q6 -48 -6.5 -84.5t-37 -56.5t-55.5 -20z" />
    <glyph glyph-name="uni00A0" unicode="&#xa0;" horiz-adv-x="318" 
 />
    <glyph glyph-name="exclamdown" unicode="&#xa1;" horiz-adv-x="203" 
d="M53 -213h92v571h-92v-571zM102 547q-28 0 -46.5 -15.5t-18.5 -40.5t18.5 -41.5t46.5 -16.5q27 0 44.5 16.5t17.5 41.5t-17 40.5t-45 15.5z" />
    <glyph glyph-name="cent" unicode="&#xa2;" horiz-adv-x="461" 
d="M237 486h64v-554h-64v554zM422 39q-28 -23 -67.5 -36t-79.5 -13q-69 0 -121.5 27t-81.5 76t-29 117q0 67 31 116.5t82 76t108 26.5q52 0 92 -14t69 -39l-51 -67q-17 14 -42.5 25t-58.5 11q-35 0 -64 -17.5t-46 -48t-17 -69.5q0 -37 17.5 -68.5t48.5 -49.5t71 -18
q26 0 48 7.5t39 21.5z" />
    <glyph glyph-name="sterling" unicode="&#xa3;" horiz-adv-x="640" 
d="M404 391v-103h-312v103h312zM158 542q0 48 27 85.5t75 58.5t113 21q71 0 120 -28t74 -76l-77 -53q-10 14 -23.5 26t-35 20t-57.5 8q-39 0 -63.5 -11.5t-35.5 -34t-11 -54.5v-297v-22q0 -15 -2 -32t-7 -32.5t-17 -25.5l-15 8h212q34 0 49 10t15 33v40l93 1v-69
q0 -25 -6.5 -46.5t-22.5 -37.5t-41.5 -25t-64.5 -9h-397v103h45q21 0 32.5 6.5t16 27t4.5 62.5v343z" />
    <glyph glyph-name="currency" unicode="&#xa4;" horiz-adv-x="504" 
d="M379 443q26 -38 26 -82q0 -23 -7.5 -44.5t-19.5 -39.5l29 -29l-45 -44q-8 7 -15 14.5t-15 15.5q-36 -24 -82 -24q-22 0 -42.5 6t-37.5 17v0l-30 -30l-44 44l28 29q-11 18 -18 40t-7 45v0q0 23 6.5 43t17.5 38l-13.5 13.5t-13.5 14.5l44 44l28 -28q19 11 39.5 18.5
t43.5 7.5t44 -7t39 -19v0l28 28l44 -45zM162 360q0 -24 12 -44.5t32.5 -32.5t45.5 -12q24 0 44.5 12t32.5 32.5t12 45.5t-12 45t-32.5 32t-44.5 12q-25 0 -45.5 -11.5t-32.5 -32t-12 -46.5v0z" />
    <glyph glyph-name="yen" unicode="&#xa5;" horiz-adv-x="698" 
d="M167 304h372v-84h-372v84zM168 159h371v-85h-371v85zM294 304l-269 422h132l209 -330l-32 -3l207 333h131l-271 -422v-304h-107v304z" />
    <glyph glyph-name="brokenbar" unicode="&#xa6;" horiz-adv-x="218" 
d="M66 710h93v-355h-93v355zM66 119h93v-355h-93v355z" />
    <glyph glyph-name="section" unicode="&#xa7;" horiz-adv-x="573" 
d="M373 137l-39 39q46 -3 83.5 -21t60 -50.5t22.5 -80.5q0 -54 -29 -99t-79 -72t-115 -27q-43 0 -84.5 9t-77.5 25.5t-65 40.5l53 88q29 -22 57 -37t55.5 -23t55.5 -8q32 0 58.5 10.5t42.5 30.5t16 48t-18.5 45.5t-48 28.5t-64.5 19q-32 9 -65.5 21.5t-61.5 32t-45.5 48
t-17.5 68.5q0 53 26.5 87.5t67.5 50.5t84 14l-9 -38q-52 17 -84.5 41.5t-47.5 56t-15 68.5q0 32 12.5 64t38.5 58t65.5 41.5t94.5 15.5q57 0 107.5 -18t88.5 -48l-46 -78q-37 27 -71 39t-68 13q-37 0 -61.5 -10t-36.5 -27t-12 -36q0 -27 18.5 -44.5t49.5 -29t68 -21.5
q32 -8 65 -20t60.5 -31t44 -47.5t16.5 -71.5q0 -58 -38.5 -103.5t-111.5 -61.5zM419 283q1 26 -18.5 45t-48.5 31t-59 17q-54 2 -87 -21t-35 -57q0 -29 17.5 -49.5t47.5 -33.5t65 -22q27 2 53.5 13t45 30.5t19.5 46.5z" />
    <glyph glyph-name="dieresis" unicode="&#xa8;" horiz-adv-x="421" 
d="M60 530q0 24 17 40.5t39 16.5q20 0 38 -16.5t18 -40.5q0 -25 -18 -41t-38 -16q-21 0 -38.5 16t-17.5 41v0zM249 530q0 24 18 40.5t39 16.5q20 0 37.5 -16.5t17.5 -40.5q0 -25 -17.5 -41t-37.5 -16q-21 0 -39 16t-18 41v0z" />
    <glyph glyph-name="copyright" unicode="&#xa9;" horiz-adv-x="854" 
d="M576 198q-23 -22 -60.5 -41t-86.5 -18q-52 1 -94 27.5t-66.5 70t-24.5 94.5q0 56 24.5 100t68 69.5t100.5 25.5q20 0 42.5 -3.5t44 -12t35.5 -21.5l-41 -78q-16 15 -34.5 20t-38.5 5q-27 0 -48.5 -14.5t-33.5 -37.5t-12 -51q0 -27 11.5 -50t32.5 -37t51 -14q22 0 43.5 9
t38.5 27zM427 -15q-73 0 -136 26t-111.5 72.5t-76 109t-27.5 137.5t27.5 138t76 109.5t111.5 72.5t136 26q72 0 135.5 -26t112 -72.5t75.5 -109.5t27 -138q0 -74 -26.5 -137t-74.5 -109.5t-111.5 -72.5t-137.5 -26zM426 68q74 0 133 34t93.5 93t34.5 134q0 77 -34.5 136
t-93.5 93t-133 34q-72 0 -131.5 -34t-94.5 -93t-35 -136q0 -75 33.5 -134.5t92.5 -93t135 -33.5z" />
    <glyph glyph-name="ordfeminine" unicode="&#xaa;" horiz-adv-x="397" 
d="M162 423q-37 0 -66.5 17t-47 50.5t-17.5 82.5q0 48 18 82t47.5 52.5t63.5 18.5q39 0 64.5 -14.5t38.5 -37.5l-4 -15l6 57h74v-287h-79v67l7 -15q-3 -8 -17.5 -22t-36 -25t-51.5 -11zM187 487q19 0 34 8t25 22.5t14 33.5v51q-7 27 -27 44t-48 17q-31 0 -53 -24t-22 -63
q0 -25 10.5 -45t28 -32t38.5 -12z" />
    <glyph glyph-name="guillemotleft" unicode="&#xab;" horiz-adv-x="607" 
d="M45 242q4 4 21.5 18.5t42 35t51.5 42.5t51.5 42.5t42 35t21.5 18.5v-93q-6 -6 -21 -19.5t-33.5 -29.5t-33.5 -30t-20 -20q5 -5 20 -19t33.5 -30.5t33.5 -30.5t21 -19v-93zM272 242q4 4 21 18.5t42 35t52 42.5t51.5 42.5t41.5 35t21 18.5v-93q-5 -6 -20 -19.5t-33.5 -29.5
t-33.5 -30t-21 -20q6 -5 21 -19t33.5 -30.5t33.5 -30.5t20 -19v-93z" />
    <glyph glyph-name="logicalnot" unicode="&#xac;" horiz-adv-x="494" 
d="M65 303h365v-195h-107v92h-258v103z" />
    <glyph glyph-name="uni00AD" unicode="&#xad;" horiz-adv-x="600" 
d="M54 263h186v-90h-186v90z" />
    <glyph glyph-name="registered" unicode="&#xae;" horiz-adv-x="502" 
d="M251 288q-60 0 -111 28.5t-81 78t-30 111.5q0 63 30 112t81 77t111 28q61 0 111.5 -28t80.5 -77t30 -112t-30 -112t-80.5 -77.5t-111.5 -28.5zM251 345q45 0 81.5 21t57.5 57.5t21 82.5t-21 82.5t-57.5 57.5t-81.5 21t-81.5 -21t-57.5 -57.5t-21 -82.5t21 -82.5
t57.5 -57.5t81.5 -21zM172 618h88q39 0 59 -18.5t20 -52.5q0 -28 -18 -51t-56 -23h-36v-74h-57v219zM249 517q17 0 23.5 8t6.5 20t-7 20.5t-22 8.5h-20v-57h19zM300 487l40 -88h-65l-33 86z" />
    <glyph glyph-name="macron" unicode="&#xaf;" horiz-adv-x="368" 
d="M60 541h248v-72h-248v72z" />
    <glyph glyph-name="degree" unicode="&#xb0;" horiz-adv-x="285" 
d="M34 568q0 29 14 53t38 37.5t54 13.5q29 0 52.5 -14t37.5 -37.5t14 -52.5t-14 -53t-37.5 -38t-52.5 -14t-53.5 14t-38.5 38t-14 53v0zM140 520q20 0 34 13.5t14 33.5t-14 34t-34 14t-33.5 -14t-13.5 -34t13.5 -33.5t33.5 -13.5v0z" />
    <glyph glyph-name="plusminus" unicode="&#xb1;" horiz-adv-x="532" 
d="M223 579h94v-138h135v-90h-135v-137h-94v137h-135v90h135v138zM88 173h364v-90h-364v90z" />
    <glyph glyph-name="uni00B2" unicode="&#xb2;" horiz-adv-x="404" 
d="M63 633q18 26 56.5 43.5t80.5 17.5q62 -1 101 -35t39 -95q0 -40 -21.5 -76.5t-54.5 -67.5t-67.5 -57.5t-60.5 -48.5l15 69h203v-86h-281v58q24 16 51.5 36.5t52 44t40 49.5t15.5 52q0 38 -15.5 54.5t-44.5 16.5q-23 0 -45 -12.5t-33 -29.5z" />
    <glyph glyph-name="uni00B3" unicode="&#xb3;" horiz-adv-x="387" 
d="M165 294q-42 0 -70 16t-43 32l29 60q10 -11 28 -26t44 -14q28 0 46.5 17.5t18.5 50.5q0 36 -20 51.5t-47 15.5q-17 0 -28.5 -3t-19.5 -6l-5 9l86 131l23 -16h-141v74h229l-105 -184l-67 18q13 11 30 18.5t40 7.5q27 0 54 -12.5t45.5 -37.5t18.5 -63t-18 -70t-51 -50.5
t-77 -18.5z" />
    <glyph glyph-name="acute" unicode="&#xb4;" horiz-adv-x="284" 
d="M240 620l-131 -134h-65l82 134h114z" />
    <glyph glyph-name="uni00B5" unicode="&#xb5;" horiz-adv-x="554" 
d="M213 -17q-55 0 -90 33t-40 84l99 -11v-290h-103v311v309h103v-274q2 -32 18.5 -52.5t53.5 -21.5q34 0 60.5 20.5t42 56t15.5 81.5v190h103v-419h-93l-10 102l5 -21q-13 -28 -37 -50.5t-56.5 -35t-70.5 -12.5z" />
    <glyph glyph-name="paragraph" unicode="&#xb6;" horiz-adv-x="562" 
d="M204 429q-46 0 -83.5 22t-59.5 60t-22 83q0 47 22 84.5t59.5 60t83.5 22.5h257v-761h-91v671h-74v-671h-92v429z" />
    <glyph glyph-name="periodcentered" unicode="&#xb7;" horiz-adv-x="171" 
d="M30 287q0 24 17.5 40.5t39.5 16.5q20 0 37.5 -16.5t17.5 -40.5q0 -26 -17.5 -41.5t-37.5 -15.5q-22 0 -39.5 15.5t-17.5 41.5v0z" />
    <glyph glyph-name="cedilla" unicode="&#xb8;" horiz-adv-x="396" 
d="M108 -150q11 -12 27.5 -19.5t37.5 -7.5q25 0 45.5 11.5t20.5 32.5q0 16 -13.5 29.5t-49.5 13.5q-16 0 -33 -4t-31 -9l-17 50l69 62l79 -3l-73 -84l-22 25q11 4 25.5 6.5t28.5 2.5q54 2 88.5 -20.5t34.5 -66.5q0 -35 -20 -57t-52 -33t-69 -11q-39 0 -65.5 11.5t-42.5 27.5
z" />
    <glyph glyph-name="uni00B9" unicode="&#xb9;" horiz-adv-x="273" 
d="M41 661h157v-381h-96v289h-61v92z" />
    <glyph glyph-name="ordmasculine" unicode="&#xba;" horiz-adv-x="376" 
d="M31 573q0 43 20.5 77.5t56 54.5t81.5 20t81.5 -20t55 -54.5t19.5 -77.5t-19.5 -78t-55 -54.5t-82.5 -19.5q-45 0 -81 18.5t-56 53t-20 80.5zM111 572q0 -23 10.5 -42t27.5 -29.5t39 -10.5t39.5 10.5t27.5 29.5t10 42q0 24 -10 42.5t-27.5 30t-39.5 11.5t-39.5 -11.5
t-27.5 -30.5t-10 -42z" />
    <glyph glyph-name="guillemotright" unicode="&#xbb;" horiz-adv-x="607" 
d="M547 242q-4 4 -21 18.5t-42 35t-52 42.5t-51.5 42.5t-41.5 35t-21 18.5v-93q5 -6 20 -19.5t33.5 -29.5t33.5 -30t21 -20q-6 -5 -21 -19t-33.5 -30.5t-33.5 -30.5t-20 -19v-93zM320 242q-4 4 -21 18.5t-41.5 35t-51.5 42.5t-52 42.5t-42 35t-21 18.5v-93q5 -6 20 -19.5
t34 -29.5t34 -30t20 -20q-5 -5 -20 -19t-34 -30.5t-34 -30.5t-20 -19v-93z" />
    <glyph glyph-name="onequarter" unicode="&#xbc;" horiz-adv-x="821" 
d="M649 687l-407 -687h-97l407 687h97zM44 661h157v-381h-96v289h-61v92zM789 157v-59h-307l-2 27l201 264h63v-389h-88v282l22 3l-123 -164l-14 36h248z" />
    <glyph glyph-name="onehalf" unicode="&#xbd;" horiz-adv-x="886" 
d="M44 663h157v-381h-96v289h-61v92zM531 328q18 26 56.5 43.5t80.5 17.5q62 -1 101 -35t39 -95q0 -40 -21.5 -76.5t-54.5 -67.5t-67.5 -57.5t-60.5 -48.5l15 69h203v-86h-281v58q24 16 51.5 36.5t52 44t40 49.5t15.5 52q0 38 -15.5 54.5t-44.5 16.5q-23 0 -45 -12.5
t-33 -29.5zM639 688l-407 -688h-97l407 688h97z" />
    <glyph glyph-name="threequarters" unicode="&#xbe;" horiz-adv-x="840" 
d="M163 294q-42 0 -70 16t-43 32l29 60q10 -11 28 -26t44 -14q28 0 46.5 17.5t18.5 50.5q0 36 -20 51.5t-47 15.5q-17 0 -28.5 -3t-19.5 -6l-5 9l86 131l23 -16h-141v74h229l-105 -184l-67 18q13 11 30 18.5t40 7.5q27 0 54 -12.5t45.5 -37.5t18.5 -63t-18 -70t-51 -50.5
t-77 -18.5zM673 688l-407 -688h-97l407 688h97zM787 157v-58h-307l-2 26l201 264h64v-389h-89v282l22 3l-123 -164l-14 36h248z" />
    <glyph glyph-name="questiondown" unicode="&#xbf;" horiz-adv-x="440" 
d="M301 352v-61q0 -49 -13 -79.5t-33.5 -51t-42.5 -40.5q-31 -26 -53 -53.5t-22 -72.5q0 -30 15 -53t38 -36t49 -13q32 0 56 14t40.5 37.5t25.5 49.5l85 -39q-7 -21 -23 -48t-42.5 -52t-64.5 -41.5t-88 -16.5q-56 1 -101.5 22t-72 63t-26.5 104q0 50 14 82.5t36 57t46 45.5
q20 19 37 36.5t27 42.5t10 65v38h103zM248 539q28 0 46.5 -16t18.5 -41t-18.5 -41.5t-46.5 -16.5q-27 0 -44.5 16.5t-17.5 41.5t17 41t45 16z" />
    <glyph glyph-name="Agrave" unicode="&#xc0;" horiz-adv-x="700" 
d="M28 0l319 755h6l319 -755h-122l-232 588l77 51l-262 -639h-105zM222 272h258l37 -92h-327zM192 925h114l70 -134h-64z" />
    <glyph glyph-name="Aacute" unicode="&#xc1;" horiz-adv-x="700" 
d="M28 0l319 755h6l319 -755h-122l-232 588l77 51l-262 -639h-105zM222 272h258l37 -92h-327zM510 919l-131 -134h-65l82 134h114z" />
    <glyph glyph-name="Acircumflex" unicode="&#xc2;" horiz-adv-x="700" 
d="M28 0l319 755h6l319 -755h-122l-232 588l77 51l-262 -639h-105zM222 272h258l37 -92h-327zM421 801l-91 93l29 7l-91 -100h-95l169 174h1l172 -174h-94z" />
    <glyph glyph-name="Atilde" unicode="&#xc3;" horiz-adv-x="700" 
d="M28 0l319 755h6l319 -755h-122l-232 588l77 51l-262 -639h-105zM222 272h258l37 -92h-327zM426 820q-32 0 -53 14.5t-39 30.5q-12 11 -23.5 19.5t-26.5 8.5q-12 0 -21.5 -9t-13.5 -25.5t-4 -38.5h-54q-3 39 8.5 71t34.5 51t56 19q26 0 45 -14t35 -29q14 -13 26.5 -23.5
t27.5 -10.5q20 0 27.5 21.5t7.5 55.5l54 -1q4 -41 -6.5 -73t-32 -49.5t-48.5 -17.5z" />
    <glyph glyph-name="Adieresis" unicode="&#xc4;" horiz-adv-x="700" 
d="M28 0l319 755h6l319 -755h-122l-232 588l77 51l-262 -639h-105zM222 272h258l37 -92h-327zM194 847q0 24 17 40.5t39 16.5q20 0 38 -16.5t18 -40.5q0 -25 -18 -41t-38 -16q-21 0 -38.5 16t-17.5 41v0zM383 847q0 24 18 40.5t39 16.5q20 0 37.5 -16.5t17.5 -40.5
q0 -25 -17.5 -41t-37.5 -16q-21 0 -39 16t-18 41v0z" />
    <glyph glyph-name="Aring" unicode="&#xc5;" horiz-adv-x="700" 
d="M28 0l319 755h6l319 -755h-122l-232 588l77 51l-262 -639h-105zM222 272h258l37 -92h-327zM255 880q0 42 27.5 67.5t69.5 25.5t69.5 -25.5t27.5 -66.5t-28 -67t-69 -26q-42 0 -69.5 25.5t-27.5 66.5zM310 879q0 -19 12 -31t30 -12q19 0 30.5 12t11.5 31q0 21 -11.5 32.5
t-29.5 11.5q-19 0 -31 -11.5t-12 -32.5z" />
    <glyph glyph-name="AE" unicode="&#xc6;" horiz-adv-x="954" 
d="M479 726h398v-104h-292v-208h252v-103h-252v-208h306v-103h-412v726zM493 605q-2 -10 -5.5 -22.5t-4.5 -14.5l-349 -568h-123l468 726zM239 260h254v-85h-286z" />
    <glyph glyph-name="Ccedilla" unicode="&#xc7;" horiz-adv-x="695" 
d="M637 55q-16 -11 -47.5 -26.5t-74 -26.5t-93.5 -10q-85 1 -152.5 30t-114.5 79.5t-72.5 116t-25.5 139.5q0 82 26 150.5t74.5 119.5t114 79t143.5 28q67 0 121 -18t91 -42l-42 -100q-29 20 -71.5 38.5t-94.5 18.5q-51 0 -96.5 -20.5t-80 -57t-54.5 -85t-20 -105.5
q0 -58 18 -107t51.5 -85t80.5 -56t106 -20q56 0 98.5 17t69.5 39zM323 -150q11 -12 27.5 -19.5t37.5 -7.5q25 0 45.5 11.5t20.5 32.5q0 16 -13.5 29.5t-49.5 13.5q-16 0 -33 -4t-31 -9l-17 50l69 62l79 -3l-73 -84l-22 25q11 4 25.5 6.5t28.5 2.5q54 2 88.5 -20.5
t34.5 -66.5q0 -35 -20 -57t-52 -33t-69 -11q-39 0 -65.5 11.5t-42.5 27.5z" />
    <glyph glyph-name="Egrave" unicode="&#xc8;" horiz-adv-x="655" 
d="M102 726h477v-103h-370v-207h329v-103h-329v-210h384v-103h-491v726zM179 911h114l70 -134h-64z" />
    <glyph glyph-name="Eacute" unicode="&#xc9;" horiz-adv-x="655" 
d="M102 726h477v-103h-370v-207h329v-103h-329v-210h384v-103h-491v726zM497 905l-131 -134h-65l82 134h114z" />
    <glyph glyph-name="Ecircumflex" unicode="&#xca;" horiz-adv-x="655" 
d="M102 726h477v-103h-370v-207h329v-103h-329v-210h384v-103h-491v726zM408 787l-91 93l29 7l-91 -100h-95l169 174h1l172 -174h-94z" />
    <glyph glyph-name="Edieresis" unicode="&#xcb;" horiz-adv-x="655" 
d="M102 726h477v-103h-370v-207h329v-103h-329v-210h384v-103h-491v726zM181 833q0 24 17 40.5t39 16.5q20 0 38 -16.5t18 -40.5q0 -25 -18 -41t-38 -16q-21 0 -38.5 16t-17.5 41v0zM370 833q0 24 18 40.5t39 16.5q20 0 37.5 -16.5t17.5 -40.5q0 -25 -17.5 -41t-37.5 -16
q-21 0 -39 16t-18 41v0z" />
    <glyph glyph-name="Igrave" unicode="&#xcc;" horiz-adv-x="311" 
d="M102 726h107v-726h-107v726zM-2 911h114l70 -134h-64z" />
    <glyph glyph-name="Iacute" unicode="&#xcd;" horiz-adv-x="311" 
d="M102 726h107v-726h-107v726zM316 905l-131 -134h-65l82 134h114z" />
    <glyph glyph-name="Icircumflex" unicode="&#xce;" horiz-adv-x="311" 
d="M102 726h107v-726h-107v726zM227 787l-91 93l29 7l-91 -100h-95l169 174h1l172 -174h-94z" />
    <glyph glyph-name="Idieresis" unicode="&#xcf;" horiz-adv-x="311" 
d="M102 726h107v-726h-107v726zM0 833q0 24 17 40.5t39 16.5q20 0 38 -16.5t18 -40.5q0 -25 -18 -41t-38 -16q-21 0 -38.5 16t-17.5 41v0zM189 833q0 24 18 40.5t39 16.5q20 0 37.5 -16.5t17.5 -40.5q0 -25 -17.5 -41t-37.5 -16q-21 0 -39 16t-18 41v0z" />
    <glyph glyph-name="Eth" unicode="&#xd0;" horiz-adv-x="757" 
d="M102 0v726h202q108 0 184 -33t122.5 -87t68 -120t21.5 -133q0 -81 -29 -146t-79 -111.5t-115 -71t-138 -24.5h-237zM209 103h110q59 0 108.5 17t86 50t56.5 81t20 110q0 67 -22.5 116.5t-59.5 82t-82.5 48t-92.5 15.5h-124v-520zM18 408h285v-96h-285v96z" />
    <glyph glyph-name="Ntilde" unicode="&#xd1;" horiz-adv-x="841" 
d="M735 -25l-559 555l31 -10l3 -520h-108v749h5l552 -556l-25 7l-2 526h106v-751h-3zM483 792q-32 0 -53 14.5t-39 30.5q-12 11 -23.5 19.5t-26.5 8.5q-12 0 -21.5 -9t-13.5 -25.5t-4 -38.5h-54q-3 39 8.5 71t34.5 51t56 19q26 0 45 -14t35 -29q14 -13 26.5 -23.5
t27.5 -10.5q20 0 27.5 21.5t7.5 55.5l54 -1q4 -41 -6.5 -73t-32 -49.5t-48.5 -17.5z" />
    <glyph glyph-name="Ograve" unicode="&#xd2;" horiz-adv-x="856" 
d="M57 362q0 75 28.5 142t79.5 119t118 81.5t144 29.5q76 0 143 -29.5t119 -81.5t81 -119t29 -142q0 -77 -29 -144t-80.5 -118t-119 -79.5t-143.5 -28.5q-77 0 -144 28t-118 78.5t-79.5 118t-28.5 145.5zM167 362q0 -56 20.5 -104.5t56.5 -85t83.5 -57t102.5 -20.5
q54 0 101 20.5t82.5 57t55.5 85t20 104.5t-20.5 104.5t-56 85.5t-83 58t-101.5 21q-56 0 -103 -21t-83 -58t-55.5 -86t-19.5 -104zM270 903h114l70 -134h-64z" />
    <glyph glyph-name="Oacute" unicode="&#xd3;" horiz-adv-x="856" 
d="M57 362q0 75 28.5 142t79.5 119t118 81.5t144 29.5q76 0 143 -29.5t119 -81.5t81 -119t29 -142q0 -77 -29 -144t-80.5 -118t-119 -79.5t-143.5 -28.5q-77 0 -144 28t-118 78.5t-79.5 118t-28.5 145.5zM167 362q0 -56 20.5 -104.5t56.5 -85t83.5 -57t102.5 -20.5
q54 0 101 20.5t82.5 57t55.5 85t20 104.5t-20.5 104.5t-56 85.5t-83 58t-101.5 21q-56 0 -103 -21t-83 -58t-55.5 -86t-19.5 -104zM588 897l-131 -134h-65l82 134h114z" />
    <glyph glyph-name="Ocircumflex" unicode="&#xd4;" horiz-adv-x="856" 
d="M57 362q0 75 28.5 142t79.5 119t118 81.5t144 29.5q76 0 143 -29.5t119 -81.5t81 -119t29 -142q0 -77 -29 -144t-80.5 -118t-119 -79.5t-143.5 -28.5q-77 0 -144 28t-118 78.5t-79.5 118t-28.5 145.5zM167 362q0 -56 20.5 -104.5t56.5 -85t83.5 -57t102.5 -20.5
q54 0 101 20.5t82.5 57t55.5 85t20 104.5t-20.5 104.5t-56 85.5t-83 58t-101.5 21q-56 0 -103 -21t-83 -58t-55.5 -86t-19.5 -104zM499 780l-91 93l29 7l-91 -100h-95l169 174h1l172 -174h-94z" />
    <glyph glyph-name="Otilde" unicode="&#xd5;" horiz-adv-x="856" 
d="M57 362q0 75 28.5 142t79.5 119t118 81.5t144 29.5q76 0 143 -29.5t119 -81.5t81 -119t29 -142q0 -77 -29 -144t-80.5 -118t-119 -79.5t-143.5 -28.5q-77 0 -144 28t-118 78.5t-79.5 118t-28.5 145.5zM167 362q0 -56 20.5 -104.5t56.5 -85t83.5 -57t102.5 -20.5
q54 0 101 20.5t82.5 57t55.5 85t20 104.5t-20.5 104.5t-56 85.5t-83 58t-101.5 21q-56 0 -103 -21t-83 -58t-55.5 -86t-19.5 -104zM504 799q-32 0 -53 14.5t-39 30.5q-12 11 -23.5 19.5t-26.5 8.5q-12 0 -21.5 -9t-13.5 -25.5t-4 -38.5h-54q-3 39 8.5 71t34.5 51t56 19
q26 0 45 -14t35 -29q14 -13 26.5 -23.5t27.5 -10.5q20 0 27.5 21.5t7.5 55.5l54 -1q4 -41 -6.5 -73t-32 -49.5t-48.5 -17.5z" />
    <glyph glyph-name="Odieresis" unicode="&#xd6;" horiz-adv-x="856" 
d="M57 362q0 75 28.5 142t79.5 119t118 81.5t144 29.5q76 0 143 -29.5t119 -81.5t81 -119t29 -142q0 -77 -29 -144t-80.5 -118t-119 -79.5t-143.5 -28.5q-77 0 -144 28t-118 78.5t-79.5 118t-28.5 145.5zM167 362q0 -56 20.5 -104.5t56.5 -85t83.5 -57t102.5 -20.5
q54 0 101 20.5t82.5 57t55.5 85t20 104.5t-20.5 104.5t-56 85.5t-83 58t-101.5 21q-56 0 -103 -21t-83 -58t-55.5 -86t-19.5 -104zM272 826q0 24 17 40.5t39 16.5q20 0 38 -16.5t18 -40.5q0 -25 -18 -41t-38 -16q-21 0 -38.5 16t-17.5 41v0zM461 826q0 24 18 40.5t39 16.5
q20 0 37.5 -16.5t17.5 -40.5q0 -25 -17.5 -41t-37.5 -16q-21 0 -39 16t-18 41v0z" />
    <glyph glyph-name="multiply" unicode="&#xd7;" horiz-adv-x="520" 
d="M280 251q23 24 45.5 46t46.5 46q18 -19 37.5 -39.5t38.5 -39.5q-22 -22 -44.5 -45t-44.5 -46q23 -22 45.5 -45.5t46.5 -47.5l-82 -80q-22 23 -45.5 46t-47.5 46q-22 -23 -45 -45.5t-45 -44.5q-20 19 -40 38.5t-38 38.5l45.5 45.5t45.5 46.5l-94 94l80 81z" />
    <glyph glyph-name="Oslash" unicode="&#xd8;" horiz-adv-x="858" 
d="M757 685l-600 -701l-67 61l601 701zM57 362q0 75 28.5 142t79.5 119t118 81.5t144 29.5q76 0 143 -29.5t119 -81.5t81 -119t29 -142q0 -77 -29 -144t-80.5 -118t-119 -79.5t-143.5 -28.5q-77 0 -144 28t-118 78.5t-79.5 118t-28.5 145.5zM167 362q0 -56 20.5 -104.5
t56.5 -85t83.5 -57t102.5 -20.5q54 0 101 20.5t82.5 57t55.5 85t20 104.5t-20.5 104.5t-56 85.5t-83 58t-101.5 21q-56 0 -103 -21t-83 -58t-55.5 -86t-19.5 -104z" />
    <glyph glyph-name="Ugrave" unicode="&#xd9;" horiz-adv-x="736" 
d="M198 259q0 -46 23 -83t61 -59t85 -22q50 0 89 22t61.5 59t22.5 83v467h105v-470q0 -79 -37 -138.5t-100 -92.5t-141 -33v0q-76 0 -139 33t-99.5 92.5t-36.5 138.5v470h106v-467zM210 911h114l70 -134h-64z" />
    <glyph glyph-name="Uacute" unicode="&#xda;" horiz-adv-x="736" 
d="M198 259q0 -46 23 -83t61 -59t85 -22q50 0 89 22t61.5 59t22.5 83v467h105v-470q0 -79 -37 -138.5t-100 -92.5t-141 -33v0q-76 0 -139 33t-99.5 92.5t-36.5 138.5v470h106v-467zM529 905l-131 -134h-65l82 134h114z" />
    <glyph glyph-name="Ucircumflex" unicode="&#xdb;" horiz-adv-x="736" 
d="M198 259q0 -46 23 -83t61 -59t85 -22q50 0 89 22t61.5 59t22.5 83v467h105v-470q0 -79 -37 -138.5t-100 -92.5t-141 -33v0q-76 0 -139 33t-99.5 92.5t-36.5 138.5v470h106v-467zM440 787l-91 93l29 7l-91 -100h-95l169 174h1l172 -174h-94z" />
    <glyph glyph-name="Udieresis" unicode="&#xdc;" horiz-adv-x="736" 
d="M198 259q0 -46 23 -83t61 -59t85 -22q50 0 89 22t61.5 59t22.5 83v467h105v-470q0 -79 -37 -138.5t-100 -92.5t-141 -33v0q-76 0 -139 33t-99.5 92.5t-36.5 138.5v470h106v-467zM213 833q0 24 17 40.5t39 16.5q20 0 38 -16.5t18 -40.5q0 -25 -18 -41t-38 -16
q-21 0 -38.5 16t-17.5 41v0zM402 833q0 24 18 40.5t39 16.5q20 0 37.5 -16.5t17.5 -40.5q0 -25 -17.5 -41t-37.5 -16q-21 0 -39 16t-18 41v0z" />
    <glyph glyph-name="Yacute" unicode="&#xdd;" horiz-adv-x="698" 
d="M294 239l-269 487h132l209 -396l-32 -2l207 398h131l-271 -487v-239h-107v239zM523 903l-131 -134h-65l82 134h114z" />
    <glyph glyph-name="Thorn" unicode="&#xde;" horiz-adv-x="603" 
d="M322 592q56 0 100.5 -15t75 -44t46 -71.5t15.5 -98.5q0 -43 -12 -85t-39 -76.5t-72.5 -55t-113.5 -20.5h-110v-126h-110v721h110v-129h110zM312 229q37 0 63 11.5t42.5 31t24 43t7.5 46.5q0 32 -14 61.5t-44 48t-78 18.5h-101v-260h100z" />
    <glyph glyph-name="germandbls" unicode="&#xdf;" horiz-adv-x="606" 
d="M108 456q0 66 28 113t75.5 72.5t105.5 24.5q64 0 107 -19.5t65 -51.5t22 -70q0 -42 -18 -77t-54 -53q35 -13 62 -38.5t42 -64.5t15 -95q0 -67 -25.5 -113t-69.5 -70t-103 -24q-42 0 -71 12.5t-43 24.5l40 62q16 -12 31.5 -16.5t32.5 -4.5q35 0 58 18t35 48.5t12 67.5
q0 44 -14.5 75.5t-40.5 48.5t-62 16h-6v90q33 0 54.5 19t21.5 51q0 23 -10.5 41.5t-30 28.5t-49.5 10q-58 0 -82.5 -42t-24.5 -118v-422h-103v340h-65v84h65v32z" />
    <glyph glyph-name="agrave" unicode="&#xe0;" horiz-adv-x="592" 
d="M254 -10q-59 0 -107 24.5t-76 73.5t-28 121q0 71 29.5 122t78 78.5t105.5 27.5q60 0 98.5 -25.5t60.5 -59.5l-7 -16l10 83h95v-419h-103v105l11 -25q-4 -8 -17 -22.5t-34.5 -30.5t-50 -26.5t-65.5 -10.5zM282 74q33 0 59 12t44 34t25 52v87q-8 28 -27 48.5t-45.5 32.5
t-58.5 12q-36 0 -66 -17.5t-48 -48.5t-18 -72q0 -39 18.5 -71t49.5 -50.5t67 -18.5zM158 634h114l70 -134h-64z" />
    <glyph glyph-name="aacute" unicode="&#xe1;" horiz-adv-x="592" 
d="M254 -10q-59 0 -107 24.5t-76 73.5t-28 121q0 71 29.5 122t78 78.5t105.5 27.5q60 0 98.5 -25.5t60.5 -59.5l-7 -16l10 83h95v-419h-103v105l11 -25q-4 -8 -17 -22.5t-34.5 -30.5t-50 -26.5t-65.5 -10.5zM282 74q33 0 59 12t44 34t25 52v87q-8 28 -27 48.5t-45.5 32.5
t-58.5 12q-36 0 -66 -17.5t-48 -48.5t-18 -72q0 -39 18.5 -71t49.5 -50.5t67 -18.5zM430 628l-131 -134h-65l82 134h114z" />
    <glyph glyph-name="acircumflex" unicode="&#xe2;" horiz-adv-x="592" 
d="M254 -10q-59 0 -107 24.5t-76 73.5t-28 121q0 71 29.5 122t78 78.5t105.5 27.5q60 0 98.5 -25.5t60.5 -59.5l-7 -16l10 83h95v-419h-103v105l11 -25q-4 -8 -17 -22.5t-34.5 -30.5t-50 -26.5t-65.5 -10.5zM282 74q33 0 59 12t44 34t25 52v87q-8 28 -27 48.5t-45.5 32.5
t-58.5 12q-36 0 -66 -17.5t-48 -48.5t-18 -72q0 -39 18.5 -71t49.5 -50.5t67 -18.5zM387 501l-91 93l29 7l-91 -100h-95l169 174h1l172 -174h-94z" />
    <glyph glyph-name="atilde" unicode="&#xe3;" horiz-adv-x="592" 
d="M254 -10q-59 0 -107 24.5t-76 73.5t-28 121q0 71 29.5 122t78 78.5t105.5 27.5q60 0 98.5 -25.5t60.5 -59.5l-7 -16l10 83h95v-419h-103v105l11 -25q-4 -8 -17 -22.5t-34.5 -30.5t-50 -26.5t-65.5 -10.5zM282 74q33 0 59 12t44 34t25 52v87q-8 28 -27 48.5t-45.5 32.5
t-58.5 12q-36 0 -66 -17.5t-48 -48.5t-18 -72q0 -39 18.5 -71t49.5 -50.5t67 -18.5zM387 474q-32 0 -53 14.5t-39 30.5q-12 11 -23.5 19.5t-26.5 8.5q-12 0 -21.5 -9t-13.5 -25.5t-4 -38.5h-54q-3 39 8.5 71t34.5 51t56 19q26 0 45 -14t35 -29q14 -13 26.5 -23.5t27.5 -10.5
q20 0 27.5 21.5t7.5 55.5l54 -1q4 -41 -6.5 -73t-32 -49.5t-48.5 -17.5z" />
    <glyph glyph-name="adieresis" unicode="&#xe4;" horiz-adv-x="592" 
d="M254 -10q-59 0 -107 24.5t-76 73.5t-28 121q0 71 29.5 122t78 78.5t105.5 27.5q60 0 98.5 -25.5t60.5 -59.5l-7 -16l10 83h95v-419h-103v105l11 -25q-4 -8 -17 -22.5t-34.5 -30.5t-50 -26.5t-65.5 -10.5zM282 74q33 0 59 12t44 34t25 52v87q-8 28 -27 48.5t-45.5 32.5
t-58.5 12q-36 0 -66 -17.5t-48 -48.5t-18 -72q0 -39 18.5 -71t49.5 -50.5t67 -18.5zM158 544q0 24 17 40.5t39 16.5q20 0 38 -16.5t18 -40.5q0 -25 -18 -41t-38 -16q-21 0 -38.5 16t-17.5 41v0zM347 544q0 24 18 40.5t39 16.5q20 0 37.5 -16.5t17.5 -40.5q0 -25 -17.5 -41
t-37.5 -16q-21 0 -39 16t-18 41v0z" />
    <glyph glyph-name="aring" unicode="&#xe5;" horiz-adv-x="592" 
d="M254 -10q-59 0 -107 24.5t-76 73.5t-28 121q0 71 29.5 122t78 78.5t105.5 27.5q60 0 98.5 -25.5t60.5 -59.5l-7 -16l10 83h95v-419h-103v105l11 -25q-4 -8 -17 -22.5t-34.5 -30.5t-50 -26.5t-65.5 -10.5zM282 74q33 0 59 12t44 34t25 52v87q-8 28 -27 48.5t-45.5 32.5
t-58.5 12q-36 0 -66 -17.5t-48 -48.5t-18 -72q0 -39 18.5 -71t49.5 -50.5t67 -18.5zM203 560q0 42 27.5 67.5t69.5 25.5t69.5 -25.5t27.5 -66.5t-28 -67t-69 -26q-42 0 -69.5 25.5t-27.5 66.5zM258 559q0 -19 12 -31t30 -12q19 0 30.5 12t11.5 31q0 21 -11.5 32.5
t-29.5 11.5q-19 0 -31 -11.5t-12 -32.5z" />
    <glyph glyph-name="ae" unicode="&#xe6;" horiz-adv-x="821" 
d="M208 -11q-57 0 -93.5 17t-54 47t-17.5 66q0 41 24.5 70t64.5 44.5t84 15.5q47 0 91 -15t68 -38l-17 -59q-30 23 -55.5 33.5t-62.5 10.5q-23 0 -42 -6t-30.5 -19t-11.5 -34q0 -27 20.5 -44t59.5 -17q19 0 39.5 6.5t39.5 18t30 25.5v58h43l1 -103q-21 -27 -50.5 -44
t-63.5 -25t-67 -8zM338 203v60q0 36 -16 55t-37.5 26t-38.5 7q-40 0 -71 -19t-53 -46l-52 66q32 33 79 58.5t111 25.5q52 0 91.5 -16.5t62.5 -48.5t23 -80v-29zM571 -10q-73 0 -125 28.5t-80 79t-28 115.5q0 62 31.5 112.5t85 80.5t118.5 30q84 0 139.5 -49t74.5 -137
l-341 -118l-24 60l273 98l-22 -13q-11 31 -37 54.5t-71 23.5q-37 0 -65.5 -17.5t-44.5 -48t-16 -71.5q0 -42 17.5 -73.5t47.5 -49.5t69 -18q26 0 51 10t47 25l46 -76q-32 -21 -71 -33.5t-75 -12.5z" />
    <glyph glyph-name="ccedilla" unicode="&#xe7;" horiz-adv-x="461" 
d="M422 39q-28 -23 -67.5 -36t-79.5 -13q-69 0 -121.5 27t-81.5 76t-29 117q0 67 31 116.5t82 76t108 26.5q52 0 92 -14t69 -39l-51 -67q-17 14 -42.5 25t-58.5 11q-35 0 -64 -17.5t-46 -48t-17 -69.5q0 -37 17.5 -68.5t48.5 -49.5t71 -18q26 0 48 7.5t39 21.5zM150 -148
q11 -12 27.5 -19.5t37.5 -7.5q25 0 45.5 11.5t20.5 32.5q0 16 -13.5 29.5t-49.5 13.5q-16 0 -33 -4t-31 -9l-17 50l69 62l79 -3l-73 -84l-22 25q11 4 25.5 6.5t28.5 2.5q54 2 88.5 -20.5t34.5 -66.5q0 -35 -20 -57t-52 -33t-69 -11q-39 0 -65.5 11.5t-42.5 27.5z" />
    <glyph glyph-name="egrave" unicode="&#xe8;" horiz-adv-x="527" 
d="M276 -10q-73 0 -125 28.5t-80 79t-28 115.5q0 62 31.5 112.5t85 80.5t118.5 30q84 0 139.5 -49t74.5 -137l-341 -118l-24 60l273 98l-21 -13q-12 31 -38 54.5t-71 23.5q-36 0 -64.5 -17.5t-45 -48t-16.5 -71.5q0 -42 17.5 -73.5t48 -49.5t68.5 -18q27 0 51.5 10t46.5 25
l47 -76q-33 -21 -71.5 -33.5t-75.5 -12.5zM121 635h114l70 -134h-64z" />
    <glyph glyph-name="eacute" unicode="&#xe9;" horiz-adv-x="527" 
d="M276 -10q-73 0 -125 28.5t-80 79t-28 115.5q0 62 31.5 112.5t85 80.5t118.5 30q84 0 139.5 -49t74.5 -137l-341 -118l-24 60l273 98l-21 -13q-12 31 -38 54.5t-71 23.5q-36 0 -64.5 -17.5t-45 -48t-16.5 -71.5q0 -42 17.5 -73.5t48 -49.5t68.5 -18q27 0 51.5 10t46.5 25
l47 -76q-33 -21 -71.5 -33.5t-75.5 -12.5zM393 629l-131 -134h-65l82 134h114z" />
    <glyph glyph-name="ecircumflex" unicode="&#xea;" horiz-adv-x="527" 
d="M276 -10q-73 0 -125 28.5t-80 79t-28 115.5q0 62 31.5 112.5t85 80.5t118.5 30q84 0 139.5 -49t74.5 -137l-341 -118l-24 60l273 98l-21 -13q-12 31 -38 54.5t-71 23.5q-36 0 -64.5 -17.5t-45 -48t-16.5 -71.5q0 -42 17.5 -73.5t48 -49.5t68.5 -18q27 0 51.5 10t46.5 25
l47 -76q-33 -21 -71.5 -33.5t-75.5 -12.5zM349 501l-91 93l29 7l-91 -100h-95l169 174h1l172 -174h-94z" />
    <glyph glyph-name="edieresis" unicode="&#xeb;" horiz-adv-x="527" 
d="M276 -10q-73 0 -125 28.5t-80 79t-28 115.5q0 62 31.5 112.5t85 80.5t118.5 30q84 0 139.5 -49t74.5 -137l-341 -118l-24 60l273 98l-21 -13q-12 31 -38 54.5t-71 23.5q-36 0 -64.5 -17.5t-45 -48t-16.5 -71.5q0 -42 17.5 -73.5t48 -49.5t68.5 -18q27 0 51.5 10t46.5 25
l47 -76q-33 -21 -71.5 -33.5t-75.5 -12.5zM121 545q0 24 17 40.5t39 16.5q20 0 38 -16.5t18 -40.5q0 -25 -18 -41t-38 -16q-21 0 -38.5 16t-17.5 41v0zM310 545q0 24 18 40.5t39 16.5q20 0 37.5 -16.5t17.5 -40.5q0 -25 -17.5 -41t-37.5 -16q-21 0 -39 16t-18 41v0z" />
    <glyph glyph-name="igrave" unicode="&#xec;" horiz-adv-x="260" 
d="M79 419h103v-419h-103v419zM-20 620h114l70 -134h-64z" />
    <glyph glyph-name="iacute" unicode="&#xed;" horiz-adv-x="260" 
d="M79 419h103v-419h-103v419zM252 614l-131 -134h-65l82 134h114z" />
    <glyph glyph-name="icircumflex" unicode="&#xee;" horiz-adv-x="260" 
d="M79 419h103v-419h-103v419zM208 486l-91 93l29 7l-91 -100h-95l169 174h1l172 -174h-94z" />
    <glyph glyph-name="idieresis" unicode="&#xef;" horiz-adv-x="260" 
d="M79 419h103v-419h-103v419zM-21 530q0 24 17 40.5t39 16.5q20 0 38 -16.5t18 -40.5q0 -25 -18 -41t-38 -16q-21 0 -38.5 16t-17.5 41v0zM168 530q0 24 18 40.5t39 16.5q20 0 37.5 -16.5t17.5 -40.5q0 -25 -17.5 -41t-37.5 -16q-21 0 -39 16t-18 41v0z" />
    <glyph glyph-name="eth" unicode="&#xf0;" horiz-adv-x="550" 
d="M266 -10q-62 0 -112.5 27t-80.5 77.5t-30 119.5q0 63 28 113.5t75 79.5t105 29q43 0 76.5 -17.5t57.5 -46.5t38 -63.5t17 -68.5l-38 14q-2 75 -20.5 138.5t-52 117t-79 101.5t-102.5 92l75 68q60 -41 112 -99.5t90.5 -128t60 -144.5t21.5 -148q0 -50 -16 -96.5t-47 -84
t-75.5 -59t-102.5 -21.5zM275 74q37 0 66 18.5t45.5 50t16.5 70.5t-16.5 70t-45.5 50t-66 19t-66 -19t-45.5 -50.5t-16.5 -69.5q0 -39 17 -70.5t46 -50t65 -18.5zM438 673l-244 -152l-34 68l244 151z" />
    <glyph glyph-name="ntilde" unicode="&#xf1;" horiz-adv-x="561" 
d="M171 419l9 -96l-4 13q21 45 65 72.5t104 27.5q59 0 97.5 -35t39.5 -91v-310h-103v274q-1 32 -19 52.5t-56 21.5q-34 0 -62 -20.5t-44 -55.5t-16 -81v-191h-103v419h92zM358 467q-32 0 -53 14.5t-39 30.5q-12 11 -23.5 19.5t-26.5 8.5q-12 0 -21.5 -9t-13.5 -25.5
t-4 -38.5h-54q-3 39 8.5 71t34.5 51t56 19q26 0 45 -14t35 -29q14 -13 26.5 -23.5t27.5 -10.5q20 0 27.5 21.5t7.5 55.5l54 -1q4 -41 -6.5 -73t-32 -49.5t-48.5 -17.5z" />
    <glyph glyph-name="ograve" unicode="&#xf2;" horiz-adv-x="550" 
d="M43 214q0 63 30 113.5t83 79.5t121 29q69 0 121 -29t80.5 -79.5t28.5 -113.5t-28.5 -114t-80.5 -80.5t-122 -29.5q-67 0 -119.5 27t-83 77.5t-30.5 119.5zM147 213q0 -39 17 -70.5t46 -50t65 -18.5q37 0 66 18.5t45.5 50t16.5 70.5t-16.5 70t-45.5 50t-66 19t-66 -19
t-45.5 -50.5t-16.5 -69.5zM124 634h114l70 -134h-64z" />
    <glyph glyph-name="oacute" unicode="&#xf3;" horiz-adv-x="550" 
d="M43 214q0 63 30 113.5t83 79.5t121 29q69 0 121 -29t80.5 -79.5t28.5 -113.5t-28.5 -114t-80.5 -80.5t-122 -29.5q-67 0 -119.5 27t-83 77.5t-30.5 119.5zM147 213q0 -39 17 -70.5t46 -50t65 -18.5q37 0 66 18.5t45.5 50t16.5 70.5t-16.5 70t-45.5 50t-66 19t-66 -19
t-45.5 -50.5t-16.5 -69.5zM396 628l-131 -134h-65l82 134h114z" />
    <glyph glyph-name="ocircumflex" unicode="&#xf4;" horiz-adv-x="550" 
d="M43 214q0 63 30 113.5t83 79.5t121 29q69 0 121 -29t80.5 -79.5t28.5 -113.5t-28.5 -114t-80.5 -80.5t-122 -29.5q-67 0 -119.5 27t-83 77.5t-30.5 119.5zM147 213q0 -39 17 -70.5t46 -50t65 -18.5q37 0 66 18.5t45.5 50t16.5 70.5t-16.5 70t-45.5 50t-66 19t-66 -19
t-45.5 -50.5t-16.5 -69.5zM352 501l-91 93l29 7l-91 -100h-95l169 174h1l172 -174h-94z" />
    <glyph glyph-name="otilde" unicode="&#xf5;" horiz-adv-x="550" 
d="M43 214q0 63 30 113.5t83 79.5t121 29q69 0 121 -29t80.5 -79.5t28.5 -113.5t-28.5 -114t-80.5 -80.5t-122 -29.5q-67 0 -119.5 27t-83 77.5t-30.5 119.5zM147 213q0 -39 17 -70.5t46 -50t65 -18.5q37 0 66 18.5t45.5 50t16.5 70.5t-16.5 70t-45.5 50t-66 19t-66 -19
t-45.5 -50.5t-16.5 -69.5zM353 474q-32 0 -53 14.5t-39 30.5q-12 11 -23.5 19.5t-26.5 8.5q-12 0 -21.5 -9t-13.5 -25.5t-4 -38.5h-54q-3 39 8.5 71t34.5 51t56 19q26 0 45 -14t35 -29q14 -13 26.5 -23.5t27.5 -10.5q20 0 27.5 21.5t7.5 55.5l54 -1q4 -41 -6.5 -73
t-32 -49.5t-48.5 -17.5z" />
    <glyph glyph-name="odieresis" unicode="&#xf6;" horiz-adv-x="550" 
d="M43 214q0 63 30 113.5t83 79.5t121 29q69 0 121 -29t80.5 -79.5t28.5 -113.5t-28.5 -114t-80.5 -80.5t-122 -29.5q-67 0 -119.5 27t-83 77.5t-30.5 119.5zM147 213q0 -39 17 -70.5t46 -50t65 -18.5q37 0 66 18.5t45.5 50t16.5 70.5t-16.5 70t-45.5 50t-66 19t-66 -19
t-45.5 -50.5t-16.5 -69.5zM123 544q0 24 17 40.5t39 16.5q20 0 38 -16.5t18 -40.5q0 -25 -18 -41t-38 -16q-21 0 -38.5 16t-17.5 41v0zM312 544q0 24 18 40.5t39 16.5q20 0 37.5 -16.5t17.5 -40.5q0 -25 -17.5 -41t-37.5 -16q-21 0 -39 16t-18 41v0z" />
    <glyph glyph-name="divide" unicode="&#xf7;" horiz-adv-x="507" 
d="M198 403q0 24 17.5 40.5t38.5 16.5t38.5 -16.5t17.5 -40.5q0 -25 -17.5 -40.5t-38.5 -15.5t-38.5 15.5t-17.5 40.5v0zM198 107q0 24 17.5 41t38.5 17t38.5 -17t17.5 -41q0 -26 -17.5 -41.5t-38.5 -15.5t-38.5 15.5t-17.5 41.5v0zM69 298h365v-90h-365v90z" />
    <glyph glyph-name="oslash" unicode="&#xf8;" horiz-adv-x="526" 
d="M483 408l-379 -434l-50 46l377 432zM43 214q0 63 30 113.5t83 79.5t121 29q69 0 121 -29t80.5 -79.5t28.5 -113.5t-28.5 -114t-80.5 -80.5t-122 -29.5q-67 0 -119.5 27t-83 77.5t-30.5 119.5zM147 213q0 -39 17 -70.5t46 -50t65 -18.5q37 0 66 18.5t45.5 50t16.5 70.5
t-16.5 70t-45.5 50t-66 19t-66 -19t-45.5 -50.5t-16.5 -69.5z" />
    <glyph glyph-name="ugrave" unicode="&#xf9;" horiz-adv-x="554" 
d="M213 -17q-58 0 -95 35t-39 90v311h103v-274q2 -32 18.5 -52.5t53.5 -21.5q34 0 60.5 20.5t42 56t15.5 81.5v190h103v-419h-93l-8 97l4 -16q-13 -28 -37 -50.5t-57 -35t-71 -12.5zM127 634h114l70 -134h-64z" />
    <glyph glyph-name="uacute" unicode="&#xfa;" horiz-adv-x="554" 
d="M213 -17q-58 0 -95 35t-39 90v311h103v-274q2 -32 18.5 -52.5t53.5 -21.5q34 0 60.5 20.5t42 56t15.5 81.5v190h103v-419h-93l-8 97l4 -16q-13 -28 -37 -50.5t-57 -35t-71 -12.5zM399 628l-131 -134h-65l82 134h114z" />
    <glyph glyph-name="ucircumflex" unicode="&#xfb;" horiz-adv-x="554" 
d="M213 -17q-58 0 -95 35t-39 90v311h103v-274q2 -32 18.5 -52.5t53.5 -21.5q34 0 60.5 20.5t42 56t15.5 81.5v190h103v-419h-93l-8 97l4 -16q-13 -28 -37 -50.5t-57 -35t-71 -12.5zM355 501l-91 93l29 7l-91 -100h-95l169 174h1l172 -174h-94z" />
    <glyph glyph-name="udieresis" unicode="&#xfc;" horiz-adv-x="554" 
d="M213 -17q-58 0 -95 35t-39 90v311h103v-274q2 -32 18.5 -52.5t53.5 -21.5q34 0 60.5 20.5t42 56t15.5 81.5v190h103v-419h-93l-8 97l4 -16q-13 -28 -37 -50.5t-57 -35t-71 -12.5zM126 544q0 24 17 40.5t39 16.5q20 0 38 -16.5t18 -40.5q0 -25 -18 -41t-38 -16
q-21 0 -38.5 16t-17.5 41v0zM315 544q0 24 18 40.5t39 16.5q20 0 37.5 -16.5t17.5 -40.5q0 -25 -17.5 -41t-37.5 -16q-21 0 -39 16t-18 41v0z" />
    <glyph glyph-name="yacute" unicode="&#xfd;" horiz-adv-x="502" 
d="M114 -201l277 620h94l-270 -620h-101zM220 -3l-203 422h116l166 -370zM378 614l-131 -134h-65l82 134h114z" />
    <glyph glyph-name="thorn" unicode="&#xfe;" horiz-adv-x="593" 
d="M329 -10q-31 0 -60 9t-53 26t-38 41l2 37v-304h-102v978h103v-451l-11 23q19 25 46 44.5t61 31.5t72 12q59 0 105.5 -28t73.5 -79t27 -120q0 -68 -29.5 -117.5t-80.5 -76t-116 -26.5zM309 72q39 0 71 18t51.5 49t19.5 70q0 40 -18.5 72t-49.5 50t-67 18q-35 0 -62 -12.5
t-46 -34.5t-27 -53v-79q6 -28 24 -50.5t45 -35t59 -12.5z" />
    <glyph glyph-name="ydieresis" unicode="&#xff;" horiz-adv-x="502" 
d="M114 -201l277 620h94l-270 -620h-101zM220 -3l-203 422h116l166 -370zM106 530q0 24 17 40.5t39 16.5q20 0 38 -16.5t18 -40.5q0 -25 -18 -41t-38 -16q-21 0 -38.5 16t-17.5 41v0zM295 530q0 24 18 40.5t39 16.5q20 0 37.5 -16.5t17.5 -40.5q0 -25 -17.5 -41t-37.5 -16
q-21 0 -39 16t-18 41v0z" />
    <glyph glyph-name="Amacron" unicode="&#x100;" horiz-adv-x="700" 
d="M28 0l319 755h6l319 -755h-122l-232 588l77 51l-262 -639h-105zM222 272h258l37 -92h-327zM223 866h248v-72h-248v72z" />
    <glyph glyph-name="amacron" unicode="&#x101;" horiz-adv-x="592" 
d="M254 -10q-59 0 -107 24.5t-76 73.5t-28 121q0 71 29.5 122t78 78.5t105.5 27.5q60 0 98.5 -25.5t60.5 -59.5l-7 -16l10 83h95v-419h-103v105l11 -25q-4 -8 -17 -22.5t-34.5 -30.5t-50 -26.5t-65.5 -10.5zM282 74q33 0 59 12t44 34t25 52v87q-8 28 -27 48.5t-45.5 32.5
t-58.5 12q-36 0 -66 -17.5t-48 -48.5t-18 -72q0 -39 18.5 -71t49.5 -50.5t67 -18.5zM186 562h248v-72h-248v72z" />
    <glyph glyph-name="Abreve" unicode="&#x102;" horiz-adv-x="700" 
d="M28 0l319 755h6l319 -755h-122l-232 588l77 51l-262 -639h-105zM222 272h258l37 -92h-327zM351 789q-43 0 -75 20.5t-52 60.5t-28 97h69q5 -31 15.5 -56t28 -38.5t42.5 -13.5q26 0 42.5 13.5t26.5 38.5t14 56h70q-8 -59 -27.5 -98.5t-51 -59.5t-74.5 -20z" />
    <glyph glyph-name="abreve" unicode="&#x103;" horiz-adv-x="592" 
d="M254 -10q-59 0 -107 24.5t-76 73.5t-28 121q0 71 29.5 122t78 78.5t105.5 27.5q60 0 98.5 -25.5t60.5 -59.5l-7 -16l10 83h95v-419h-103v105l11 -25q-4 -8 -17 -22.5t-34.5 -30.5t-50 -26.5t-65.5 -10.5zM282 74q33 0 59 12t44 34t25 52v87q-8 28 -27 48.5t-45.5 32.5
t-58.5 12q-36 0 -66 -17.5t-48 -48.5t-18 -72q0 -39 18.5 -71t49.5 -50.5t67 -18.5zM312 481q-43 0 -75 20.5t-52 60.5t-28 97h69q5 -31 15.5 -56t28 -38.5t42.5 -13.5q26 0 42.5 13.5t26.5 38.5t14 56h70q-8 -59 -27.5 -98.5t-51 -59.5t-74.5 -20z" />
    <glyph glyph-name="Aogonek" unicode="&#x104;" horiz-adv-x="700" 
d="M28 0l319 755h6l319 -755h-122l-232 588l77 51l-262 -639h-105zM222 272h258l37 -92h-327zM594 -218q-51 0 -87 31t-36 82q0 34 24 66t65 49l113 -10q-53 -23 -85 -46t-32 -52q0 -25 15 -36t32 -11q20 0 37.5 12.5t31.5 35.5l39 -53q-18 -30 -51.5 -49t-65.5 -19z" />
    <glyph glyph-name="aogonek" unicode="&#x105;" horiz-adv-x="597" 
d="M253 -10q-57 0 -104.5 24.5t-75 73.5t-27.5 121q0 71 29 122t76.5 78.5t101.5 27.5q44 0 74 -12t51.5 -31t35.5 -42l7 67h95v-419q-45 -21 -73 -43.5t-28 -54.5q0 -25 14.5 -36t32.5 -11q20 0 37 12.5t32 35.5l38 -53q-18 -30 -51.5 -49t-64.5 -19q-51 0 -87.5 31
t-36.5 82q0 34 24 66t64 49l9 -15l-13 -13v123l8 -25q-12 -16 -34 -37.5t-55 -37t-79 -15.5zM281 74q34 0 61 12t45 34t26 52v87q-8 28 -27 48.5t-45.5 32.5t-59.5 12q-35 0 -65 -17.5t-48 -48.5t-18 -72q0 -39 18 -71t48 -50.5t65 -18.5z" />
    <glyph glyph-name="Cacute" unicode="&#x106;" horiz-adv-x="695" 
d="M637 55q-16 -11 -47.5 -26.5t-74 -26.5t-93.5 -10q-85 1 -152.5 30t-114.5 79.5t-72.5 116t-25.5 139.5q0 82 26 150.5t74.5 119.5t114 79t143.5 28q67 0 121 -18t91 -42l-42 -100q-29 20 -71.5 38.5t-94.5 18.5q-51 0 -96.5 -20.5t-80 -57t-54.5 -85t-20 -105.5
q0 -58 18 -107t51.5 -85t80.5 -56t106 -20q56 0 98.5 17t69.5 39zM557 907l-131 -134h-65l82 134h114z" />
    <glyph glyph-name="cacute" unicode="&#x107;" horiz-adv-x="461" 
d="M422 39q-28 -23 -67.5 -36t-79.5 -13q-69 0 -121.5 27t-81.5 76t-29 117q0 67 31 116.5t82 76t108 26.5q52 0 92 -14t69 -39l-51 -67q-17 14 -42.5 25t-58.5 11q-35 0 -64 -17.5t-46 -48t-17 -69.5q0 -37 17.5 -68.5t48.5 -49.5t71 -18q26 0 48 7.5t39 21.5zM374 621
l-131 -134h-65l82 134h114z" />
    <glyph glyph-name="Ccircumflex" unicode="&#x108;" horiz-adv-x="695" 
d="M637 55q-16 -11 -47.5 -26.5t-74 -26.5t-93.5 -10q-85 1 -152.5 30t-114.5 79.5t-72.5 116t-25.5 139.5q0 82 26 150.5t74.5 119.5t114 79t143.5 28q67 0 121 -18t91 -42l-42 -100q-29 20 -71.5 38.5t-94.5 18.5q-51 0 -96.5 -20.5t-80 -57t-54.5 -85t-20 -105.5
q0 -58 18 -107t51.5 -85t80.5 -56t106 -20q56 0 98.5 17t69.5 39zM468 790l-91 93l29 7l-91 -100h-95l169 174h1l172 -174h-94z" />
    <glyph glyph-name="ccircumflex" unicode="&#x109;" horiz-adv-x="461" 
d="M422 39q-28 -23 -67.5 -36t-79.5 -13q-69 0 -121.5 27t-81.5 76t-29 117q0 67 31 116.5t82 76t108 26.5q52 0 92 -14t69 -39l-51 -67q-17 14 -42.5 25t-58.5 11q-35 0 -64 -17.5t-46 -48t-17 -69.5q0 -37 17.5 -68.5t48.5 -49.5t71 -18q26 0 48 7.5t39 21.5zM330 493
l-91 93l29 7l-91 -100h-95l169 174h1l172 -174h-94z" />
    <glyph glyph-name="Cdotaccent" unicode="&#x10a;" horiz-adv-x="695" 
d="M637 55q-16 -11 -47.5 -26.5t-74 -26.5t-93.5 -10q-85 1 -152.5 30t-114.5 79.5t-72.5 116t-25.5 139.5q0 82 26 150.5t74.5 119.5t114 79t143.5 28q67 0 121 -18t91 -42l-42 -100q-29 20 -71.5 38.5t-94.5 18.5q-51 0 -96.5 -20.5t-80 -57t-54.5 -85t-20 -105.5
q0 -58 18 -107t51.5 -85t80.5 -56t106 -20q56 0 98.5 17t69.5 39zM337 833q0 24 19 40t41 16q23 0 41 -16t18 -40t-18 -39.5t-41 -15.5q-22 0 -41 15.5t-19 39.5z" />
    <glyph glyph-name="cdotaccent" unicode="&#x10b;" horiz-adv-x="461" 
d="M422 39q-28 -23 -67.5 -36t-79.5 -13q-69 0 -121.5 27t-81.5 76t-29 117q0 67 31 116.5t82 76t108 26.5q52 0 92 -14t69 -39l-51 -67q-17 14 -42.5 25t-58.5 11q-35 0 -64 -17.5t-46 -48t-17 -69.5q0 -37 17.5 -68.5t48.5 -49.5t71 -18q26 0 48 7.5t39 21.5zM195 576
q0 24 19 40t41 16q23 0 41 -16t18 -40t-18 -39.5t-41 -15.5q-22 0 -41 15.5t-19 39.5z" />
    <glyph glyph-name="Ccaron" unicode="&#x10c;" horiz-adv-x="695" 
d="M637 55q-16 -11 -47.5 -26.5t-74 -26.5t-93.5 -10q-85 1 -152.5 30t-114.5 79.5t-72.5 116t-25.5 139.5q0 82 26 150.5t74.5 119.5t114 79t143.5 28q67 0 121 -18t91 -42l-42 -100q-29 20 -71.5 38.5t-94.5 18.5q-51 0 -96.5 -20.5t-80 -57t-54.5 -85t-20 -105.5
q0 -58 18 -107t51.5 -85t80.5 -56t106 -20q56 0 98.5 17t69.5 39zM318 940l91 -93l-30 -8l92 101h95l-169 -174h-1l-173 174h95z" />
    <glyph glyph-name="ccaron" unicode="&#x10d;" horiz-adv-x="461" 
d="M422 39q-28 -23 -67.5 -36t-79.5 -13q-69 0 -121.5 27t-81.5 76t-29 117q0 67 31 116.5t82 76t108 26.5q52 0 92 -14t69 -39l-51 -67q-17 14 -42.5 25t-58.5 11q-35 0 -64 -17.5t-46 -48t-17 -69.5q0 -37 17.5 -68.5t48.5 -49.5t71 -18q26 0 48 7.5t39 21.5zM185 651
l91 -93l-30 -8l92 101h95l-169 -174h-1l-173 174h95z" />
    <glyph glyph-name="Dcaron" unicode="&#x10e;" horiz-adv-x="757" 
d="M102 0v726h202q108 0 184 -33t122.5 -87t68 -120t21.5 -133q0 -81 -29 -146t-79 -111.5t-115 -71t-138 -24.5h-237zM209 103h110q59 0 108.5 17t86 50t56.5 81t20 110q0 67 -22.5 116.5t-59.5 82t-82.5 48t-92.5 15.5h-124v-520zM231 923l91 -93l-30 -8l92 101h95
l-169 -174h-1l-173 174h95z" />
    <glyph glyph-name="dcaron" unicode="&#x10f;" horiz-adv-x="701" 
d="M250 -10q-59 0 -106 27.5t-74 78.5t-27 119q0 70 29 119.5t78.5 76t111.5 26.5q48 0 91.5 -19.5t67.5 -54.5l-3 -35v449h102v-777h-103v99l11 -27q-31 -35 -76 -58.5t-102 -23.5zM282 77q35 0 62 12t46 34.5t27 52.5v84q-7 28 -26.5 49.5t-47.5 33.5t-61 12
q-37 0 -67.5 -17.5t-49 -48.5t-18.5 -72q0 -39 18.5 -71t49.5 -50.5t67 -18.5zM638 613l-52 25q21 20 33.5 55.5t5.5 70.5l82 7q6 -28 -3 -59t-26 -57.5t-40 -41.5v0z" />
    <glyph glyph-name="Dcroat" unicode="&#x110;" horiz-adv-x="765" 
d="M110 0v726h202q108 0 184 -33t122.5 -87t68 -120t21.5 -133q0 -81 -29 -146t-79 -111.5t-115 -71t-138 -24.5h-237zM217 103h110q59 0 108.5 17t86 50t56.5 81t20 110q0 67 -22.5 116.5t-59.5 82t-82.5 48t-92.5 15.5h-124v-520zM26 408h285v-96h-285v96z" />
    <glyph glyph-name="dcroat" unicode="&#x111;" horiz-adv-x="599" 
d="M250 -10q-59 0 -106 27.5t-74 78.5t-27 119q0 70 29 119.5t78.5 76t111.5 26.5q48 0 91.5 -19.5t67.5 -54.5l-3 -35v449h102v-777h-103v99l11 -27q-31 -35 -76 -58.5t-102 -23.5zM282 77q35 0 62 12t46 34.5t27 52.5v84q-7 28 -26.5 49.5t-47.5 33.5t-61 12
q-37 0 -67.5 -17.5t-49 -48.5t-18.5 -72q0 -39 18.5 -71t49.5 -50.5t67 -18.5zM320 682h285v-96h-285v96z" />
    <glyph glyph-name="Emacron" unicode="&#x112;" horiz-adv-x="655" 
d="M102 726h477v-103h-370v-207h329v-103h-329v-210h384v-103h-491v726zM210 852h248v-72h-248v72z" />
    <glyph glyph-name="emacron" unicode="&#x113;" horiz-adv-x="527" 
d="M276 -10q-73 0 -125 28.5t-80 79t-28 115.5q0 62 31.5 112.5t85 80.5t118.5 30q84 0 139.5 -49t74.5 -137l-341 -118l-24 60l273 98l-21 -13q-12 31 -38 54.5t-71 23.5q-36 0 -64.5 -17.5t-45 -48t-16.5 -71.5q0 -42 17.5 -73.5t48 -49.5t68.5 -18q27 0 51.5 10t46.5 25
l47 -76q-33 -21 -71.5 -33.5t-75.5 -12.5zM149 563h248v-72h-248v72z" />
    <glyph glyph-name="Ebreve" unicode="&#x114;" horiz-adv-x="655" 
d="M102 726h477v-103h-370v-207h329v-103h-329v-210h384v-103h-491v726zM338 775q-43 0 -75 20.5t-52 60.5t-28 97h69q5 -31 15.5 -56t28 -38.5t42.5 -13.5q26 0 42.5 13.5t26.5 38.5t14 56h70q-8 -59 -27.5 -98.5t-51 -59.5t-74.5 -20z" />
    <glyph glyph-name="ebreve" unicode="&#x115;" horiz-adv-x="527" 
d="M276 -10q-73 0 -125 28.5t-80 79t-28 115.5q0 62 31.5 112.5t85 80.5t118.5 30q84 0 139.5 -49t74.5 -137l-341 -118l-24 60l273 98l-21 -13q-12 31 -38 54.5t-71 23.5q-36 0 -64.5 -17.5t-45 -48t-16.5 -71.5q0 -42 17.5 -73.5t48 -49.5t68.5 -18q27 0 51.5 10t46.5 25
l47 -76q-33 -21 -71.5 -33.5t-75.5 -12.5zM274 482q-43 0 -75 20.5t-52 60.5t-28 97h69q5 -31 15.5 -56t28 -38.5t42.5 -13.5q26 0 42.5 13.5t26.5 38.5t14 56h70q-8 -59 -27.5 -98.5t-51 -59.5t-74.5 -20z" />
    <glyph glyph-name="Edotaccent" unicode="&#x116;" horiz-adv-x="655" 
d="M102 726h477v-103h-370v-207h329v-103h-329v-210h384v-103h-491v726zM277 830q0 24 19 40t41 16q23 0 41 -16t18 -40t-18 -39.5t-41 -15.5q-22 0 -41 15.5t-19 39.5z" />
    <glyph glyph-name="edotaccent" unicode="&#x117;" horiz-adv-x="527" 
d="M276 -10q-73 0 -125 28.5t-80 79t-28 115.5q0 62 31.5 112.5t85 80.5t118.5 30q84 0 139.5 -49t74.5 -137l-341 -118l-24 60l273 98l-21 -13q-12 31 -38 54.5t-71 23.5q-36 0 -64.5 -17.5t-45 -48t-16.5 -71.5q0 -42 17.5 -73.5t48 -49.5t68.5 -18q27 0 51.5 10t46.5 25
l47 -76q-33 -21 -71.5 -33.5t-75.5 -12.5zM214 584q0 24 19 40t41 16q23 0 41 -16t18 -40t-18 -39.5t-41 -15.5q-22 0 -41 15.5t-19 39.5z" />
    <glyph glyph-name="Eogonek" unicode="&#x118;" horiz-adv-x="655" 
d="M102 726h477v-103h-370v-207h329v-103h-329v-210h384v-103h-491v726zM514 -218q-51 0 -87 31t-36 82q0 34 24 66t65 49l113 -10q-53 -23 -85 -46t-32 -52q0 -25 15 -36t32 -11q20 0 37.5 12.5t31.5 35.5l39 -53q-18 -30 -51.5 -49t-65.5 -19z" />
    <glyph glyph-name="eogonek" unicode="&#x119;" horiz-adv-x="529" 
d="M327 -218q-58 0 -94 31.5t-36 83.5q0 33 19.5 63.5t56.5 49.5l106 15q-8 -10 -27.5 -18t-39.5 -12.5t-33 -4.5q-73 0 -125 28.5t-80 79t-28 115.5q0 62 31.5 112.5t85 80.5t118.5 30q84 0 139.5 -49t74.5 -137l-341 -118l-23 58l273 99l-23 -12q-12 33 -38 55.5t-70 22.5
q-37 0 -65.5 -17.5t-44.5 -48t-16 -71.5q0 -42 17.5 -74t48 -49.5t68.5 -17.5q26 0 51 10t47 25l46 -76q-24 -15 -49 -26.5t-46 -24t-34 -29.5t-13 -43q0 -27 17.5 -42.5t36.5 -15.5q18 0 34.5 10.5t30.5 31.5l38 -54q-19 -27 -51 -44t-62 -17z" />
    <glyph glyph-name="Ecaron" unicode="&#x11a;" horiz-adv-x="655" 
d="M102 726h477v-103h-370v-207h329v-103h-329v-210h384v-103h-491v726zM258 937l91 -93l-30 -8l92 101h95l-169 -174h-1l-173 174h95z" />
    <glyph glyph-name="ecaron" unicode="&#x11b;" horiz-adv-x="527" 
d="M276 -10q-73 0 -125 28.5t-80 79t-28 115.5q0 62 31.5 112.5t85 80.5t118.5 30q84 0 139.5 -49t74.5 -137l-341 -118l-24 60l273 98l-21 -13q-12 31 -38 54.5t-71 23.5q-36 0 -64.5 -17.5t-45 -48t-16.5 -71.5q0 -42 17.5 -73.5t48 -49.5t68.5 -18q27 0 51.5 10t46.5 25
l47 -76q-33 -21 -71.5 -33.5t-75.5 -12.5zM204 659l91 -93l-30 -8l92 101h95l-169 -174h-1l-173 174h95z" />
    <glyph glyph-name="Gcircumflex" unicode="&#x11c;" horiz-adv-x="754" 
d="M675 64q-15 -13 -42 -26t-60.5 -23t-68.5 -16.5t-66 -6.5q-88 0 -158 27t-120 75t-76.5 112.5t-26.5 140.5q0 93 30 165t81.5 121.5t119 75t141.5 25.5q65 0 120.5 -15t95.5 -39l-35 -98q-20 11 -49.5 21.5t-60.5 16.5t-57 6q-64 0 -114.5 -18.5t-86.5 -53.5t-55.5 -85
t-19.5 -113q0 -57 20 -104.5t56 -82t86 -53t111 -18.5q35 0 69 7t58 20v132h-140v103h248v-296zM479 773l-91 93l29 7l-91 -100h-95l169 174h1l172 -174h-94z" />
    <glyph glyph-name="gcircumflex" unicode="&#x11d;" horiz-adv-x="605" 
d="M284 -208q-49 0 -85 11t-64.5 30.5t-54.5 41.5l61 71q31 -29 64 -46.5t77 -17.5t75.5 14.5t48.5 40.5t17 62l1 109l7 -20q-17 -41 -63 -69.5t-113 -28.5q-57 0 -105.5 29t-77.5 79t-29 113q0 66 30.5 116.5t80.5 80t107 29.5q56 0 100 -21.5t66 -53.5l-6 -17l11 74h95
v-421q0 -58 -30.5 -104.5t-84.5 -74t-128 -27.5zM147 214q0 -39 18 -71t49.5 -50.5t70.5 -18.5q35 0 63 12.5t47.5 34t28.5 50.5v87q-9 29 -29 49.5t-48 32.5t-62 12q-39 0 -70.5 -17.5t-49.5 -48.5t-18 -72zM379 501l-91 93l29 7l-91 -100h-95l169 174h1l172 -174h-94z" />
    <glyph glyph-name="Gbreve" unicode="&#x11e;" horiz-adv-x="754" 
d="M675 64q-15 -13 -42 -26t-60.5 -23t-68.5 -16.5t-66 -6.5q-88 0 -158 27t-120 75t-76.5 112.5t-26.5 140.5q0 93 30 165t81.5 121.5t119 75t141.5 25.5q65 0 120.5 -15t95.5 -39l-35 -98q-20 11 -49.5 21.5t-60.5 16.5t-57 6q-64 0 -114.5 -18.5t-86.5 -53.5t-55.5 -85
t-19.5 -113q0 -57 20 -104.5t56 -82t86 -53t111 -18.5q35 0 69 7t58 20v132h-140v103h248v-296zM409 761q-43 0 -75 20.5t-52 60.5t-28 97h69q5 -31 15.5 -56t28 -38.5t42.5 -13.5q26 0 42.5 13.5t26.5 38.5t14 56h70q-8 -59 -27.5 -98.5t-51 -59.5t-74.5 -20z" />
    <glyph glyph-name="gbreve" unicode="&#x11f;" horiz-adv-x="605" 
d="M284 -208q-49 0 -85 11t-64.5 30.5t-54.5 41.5l61 71q31 -29 64 -46.5t77 -17.5t75.5 14.5t48.5 40.5t17 62l1 109l7 -20q-17 -41 -63 -69.5t-113 -28.5q-57 0 -105.5 29t-77.5 79t-29 113q0 66 30.5 116.5t80.5 80t107 29.5q56 0 100 -21.5t66 -53.5l-6 -17l11 74h95
v-421q0 -58 -30.5 -104.5t-84.5 -74t-128 -27.5zM147 214q0 -39 18 -71t49.5 -50.5t70.5 -18.5q35 0 63 12.5t47.5 34t28.5 50.5v87q-9 29 -29 49.5t-48 32.5t-62 12q-39 0 -70.5 -17.5t-49.5 -48.5t-18 -72zM304 481q-43 0 -75 20.5t-52 60.5t-28 97h69q5 -31 15.5 -56
t28 -38.5t42.5 -13.5q26 0 42.5 13.5t26.5 38.5t14 56h70q-8 -59 -27.5 -98.5t-51 -59.5t-74.5 -20z" />
    <glyph glyph-name="Gdotaccent" unicode="&#x120;" horiz-adv-x="754" 
d="M675 64q-15 -13 -42 -26t-60.5 -23t-68.5 -16.5t-66 -6.5q-88 0 -158 27t-120 75t-76.5 112.5t-26.5 140.5q0 93 30 165t81.5 121.5t119 75t141.5 25.5q65 0 120.5 -15t95.5 -39l-35 -98q-20 11 -49.5 21.5t-60.5 16.5t-57 6q-64 0 -114.5 -18.5t-86.5 -53.5t-55.5 -85
t-19.5 -113q0 -57 20 -104.5t56 -82t86 -53t111 -18.5q35 0 69 7t58 20v132h-140v103h248v-296zM348 816q0 24 19 40t41 16q23 0 41 -16t18 -40t-18 -39.5t-41 -15.5q-22 0 -41 15.5t-19 39.5z" />
    <glyph glyph-name="gdotaccent" unicode="&#x121;" horiz-adv-x="605" 
d="M284 -208q-49 0 -85 11t-64.5 30.5t-54.5 41.5l61 71q31 -29 64 -46.5t77 -17.5t75.5 14.5t48.5 40.5t17 62l1 109l7 -20q-17 -41 -63 -69.5t-113 -28.5q-57 0 -105.5 29t-77.5 79t-29 113q0 66 30.5 116.5t80.5 80t107 29.5q56 0 100 -21.5t66 -53.5l-6 -17l11 74h95
v-421q0 -58 -30.5 -104.5t-84.5 -74t-128 -27.5zM147 214q0 -39 18 -71t49.5 -50.5t70.5 -18.5q35 0 63 12.5t47.5 34t28.5 50.5v87q-9 29 -29 49.5t-48 32.5t-62 12q-39 0 -70.5 -17.5t-49.5 -48.5t-18 -72zM244 583q0 24 19 40t41 16q23 0 41 -16t18 -40t-18 -39.5
t-41 -15.5q-22 0 -41 15.5t-19 39.5z" />
    <glyph glyph-name="uni0122" unicode="&#x122;" horiz-adv-x="754" 
d="M675 64q-15 -13 -42 -26t-60.5 -23t-68.5 -16.5t-66 -6.5q-88 0 -158 27t-120 75t-76.5 112.5t-26.5 140.5q0 93 30 165t81.5 121.5t119 75t141.5 25.5q65 0 120.5 -15t95.5 -39l-35 -98q-20 11 -49.5 21.5t-60.5 16.5t-57 6q-64 0 -114.5 -18.5t-86.5 -53.5t-55.5 -85
t-19.5 -113q0 -57 20 -104.5t56 -82t86 -53t111 -18.5q35 0 69 7t58 20v132h-140v103h248v-296zM352 -218l-53 36q24 20 34 58.5t4 75.5l91 -1q5 -27 -2.5 -59.5t-26 -62t-47.5 -47.5z" />
    <glyph glyph-name="uni0123" unicode="&#x123;" horiz-adv-x="574" 
d="M229 507q23 53 44.5 105t43.5 104h83q-20 -52 -39 -104t-39 -105h-93zM284 -208q-49 0 -85 11t-64.5 30.5t-54.5 41.5l61 71q31 -29 64 -46.5t77 -17.5t75.5 14.5t48.5 40.5t17 62l1 109l7 -20q-17 -41 -63 -69.5t-113 -28.5q-57 0 -105.5 29t-77.5 79t-29 113
q0 66 30.5 116.5t80.5 80t107 29.5q56 0 100 -21.5t66 -53.5l-6 -17l11 74h95v-421q0 -58 -30.5 -104.5t-84.5 -74t-128 -27.5zM147 214q0 -39 18 -71t49.5 -50.5t70.5 -18.5q35 0 63 12.5t47.5 34t28.5 50.5v87q-9 29 -29 49.5t-48 32.5t-62 12q-39 0 -70.5 -17.5
t-49.5 -48.5t-18 -72z" />
    <glyph glyph-name="Hcircumflex" unicode="&#x124;" horiz-adv-x="786" 
d="M684 726v-726h-107v313h-368v-313h-107v726h107v-311h368v311h107zM465 773l-91 93l29 7l-91 -100h-95l169 174h1l172 -174h-94z" />
    <glyph glyph-name="hcircumflex" unicode="&#x125;" horiz-adv-x="561" 
d="M79 0v777h100v-453l-1 17q21 41 64 68t103 27q59 0 97.5 -35t39.5 -91v-310h-103v274q-1 32 -19 52.5t-56 21.5q-34 0 -62 -20.5t-44 -56t-16 -80.5v-191h-103zM199 821l-91 93l29 7l-91 -100h-95l169 174h1l172 -174h-94z" />
    <glyph glyph-name="Hbar" unicode="&#x126;" horiz-adv-x="950" 
d="M102 576h746v-79h-746v79zM763 726v-726h-106v313h-369v-313h-107v726h107v-311h369v311h106z" />
    <glyph glyph-name="hbar" unicode="&#x127;" horiz-adv-x="561" 
d="M79 0v777h100v-453l-1 17q21 41 64 68t103 27q59 0 97.5 -35t39.5 -91v-310h-103v274q-1 32 -19 52.5t-56 21.5q-34 0 -62 -20.5t-44 -56t-16 -80.5v-191h-103zM-6 651h285v-96h-285v96z" />
    <glyph glyph-name="Itilde" unicode="&#x128;" horiz-adv-x="311" 
d="M102 726h107v-726h-107v726zM232 806q-32 0 -53 14.5t-39 30.5q-12 11 -23.5 19.5t-26.5 8.5q-12 0 -21.5 -9t-13.5 -25.5t-4 -38.5h-54q-3 39 8.5 71t34.5 51t56 19q26 0 45 -14t35 -29q14 -13 26.5 -23.5t27.5 -10.5q20 0 27.5 21.5t7.5 55.5l54 -1q4 -41 -6.5 -73
t-32 -49.5t-48.5 -17.5z" />
    <glyph glyph-name="itilde" unicode="&#x129;" horiz-adv-x="260" 
d="M79 419h103v-419h-103v419zM209 460q-32 0 -53 14.5t-39 30.5q-12 11 -23.5 19.5t-26.5 8.5q-12 0 -21.5 -9t-13.5 -25.5t-4 -38.5h-54q-3 39 8.5 71t34.5 51t56 19q26 0 45 -14t35 -29q14 -13 26.5 -23.5t27.5 -10.5q20 0 27.5 21.5t7.5 55.5l54 -1q4 -41 -6.5 -73
t-32 -49.5t-48.5 -17.5z" />
    <glyph glyph-name="Imacron" unicode="&#x12a;" horiz-adv-x="311" 
d="M102 726h107v-726h-107v726zM29 852h248v-72h-248v72z" />
    <glyph glyph-name="imacron" unicode="&#x12b;" horiz-adv-x="260" 
d="M79 419h103v-419h-103v419zM8 548h248v-72h-248v72z" />
    <glyph glyph-name="Ibreve" unicode="&#x12c;" horiz-adv-x="311" 
d="M102 726h107v-726h-107v726zM157 775q-43 0 -75 20.5t-52 60.5t-28 97h69q5 -31 15.5 -56t28 -38.5t42.5 -13.5q26 0 42.5 13.5t26.5 38.5t14 56h70q-8 -59 -27.5 -98.5t-51 -59.5t-74.5 -20z" />
    <glyph glyph-name="ibreve" unicode="&#x12d;" horiz-adv-x="260" 
d="M79 419h103v-419h-103v419zM133 467q-43 0 -75 20.5t-52 60.5t-28 97h69q5 -31 15.5 -56t28 -38.5t42.5 -13.5q26 0 42.5 13.5t26.5 38.5t14 56h70q-8 -59 -27.5 -98.5t-51 -59.5t-74.5 -20z" />
    <glyph glyph-name="Iogonek" unicode="&#x12e;" horiz-adv-x="276" 
d="M136 -218q-51 0 -87 27.5t-36 77.5q0 35 24 67t65 50l84 2l19 -6q-49 -21 -78 -43.5t-29 -54.5q0 -25 14.5 -36t33.5 -11q20 0 37 12.5t31 35.5l39 -53q-19 -30 -52 -49t-65 -19zM102 726h107v-726h-107v726z" />
    <glyph glyph-name="iogonek" unicode="&#x12f;" horiz-adv-x="265" 
d="M121 -218q-51 0 -87.5 31t-36.5 82q0 34 24.5 66t64.5 49l78 -1l19 -9q-46 -21 -73 -43.5t-27 -54.5q0 -25 14.5 -36t32.5 -11q20 0 37 12.5t32 35.5l39 -53q-19 -30 -52 -49t-65 -19zM79 419h103v-419h-103v419zM71 560q0 25 19.5 40.5t41.5 15.5t40 -15.5t18 -40.5
q0 -24 -18 -39.5t-40 -15.5t-41.5 15.5t-19.5 39.5z" />
    <glyph glyph-name="Idotaccent" unicode="&#x130;" horiz-adv-x="311" 
d="M102 726h107v-726h-107v726zM97 830q0 24 19 40t41 16q23 0 41 -16t18 -40t-18 -39.5t-41 -15.5q-22 0 -41 15.5t-19 39.5z" />
    <glyph glyph-name="dotlessi" unicode="&#x131;" horiz-adv-x="260" 
d="M79 419h103v-419h-103v419z" />
    <glyph glyph-name="IJ" unicode="&#x132;" horiz-adv-x="683" 
d="M102 726h107v-726h-107v726zM581 136q0 -89 -34.5 -152.5t-94.5 -97t-138 -36.5v0v104q70 4 115 48t45 137v587h107v-590z" />
    <glyph glyph-name="ij" unicode="&#x133;" horiz-adv-x="516" 
d="M79 419h103v-419h-103v419zM73 569q0 24 19 40t41 16q23 0 41 -16t18 -40t-18 -39.5t-41 -15.5q-22 0 -41 15.5t-19 39.5zM331 -202l-60 64q28 24 44 58.5t16 81.5v417h104v-421q0 -72 -24.5 -121t-79.5 -79zM324 569q0 24 19 40t41 16q23 0 41 -16t18 -40t-18 -39.5
t-41 -15.5q-22 0 -41 15.5t-19 39.5z" />
    <glyph glyph-name="Jcircumflex" unicode="&#x134;" horiz-adv-x="372" 
d="M270 136q0 -89 -34.5 -152.5t-94.5 -97t-138 -36.5v0v104q70 4 115 48t45 137v587h107v-590zM289 787l-91 93l29 7l-91 -100h-95l169 174h1l172 -174h-94z" />
    <glyph glyph-name="jcircumflex" unicode="&#x135;" horiz-adv-x="267" 
d="M89 -202l-60 64q28 24 44 58.5t16 81.5v417h104v-421q0 -72 -24.5 -121t-79.5 -79zM217 486l-91 93l29 7l-91 -100h-95l169 174h1l172 -174h-94z" />
    <glyph glyph-name="uni0136" unicode="&#x136;" horiz-adv-x="684" 
d="M210 440l-3 -36l15 21l284 301h138l-300 -315l314 -411h-135l-257 344l-56 -55v-289h-108v726h108v-286zM291 -218l-53 36q24 20 34 58.5t4 75.5l91 -1q5 -27 -2.5 -59.5t-26 -62t-47.5 -47.5z" />
    <glyph glyph-name="uni0137" unicode="&#x137;" horiz-adv-x="508" 
d="M79 0v777h103v-777h-103zM284 280l192 -280h-120l-140 221zM150 129l-10 99l254 200l63 -55zM223 -204l-53 36q24 20 34 58.5t4 75.5l91 -1q5 -27 -2.5 -59.5t-26 -62t-47.5 -47.5z" />
    <glyph glyph-name="kgreenlandic" unicode="&#x138;" horiz-adv-x="518" 
d="M174 124l-16 91l193 204h124zM182 0h-103v419h103v-419zM279 241l196 -241h-120l-155 195z" />
    <glyph glyph-name="Lacute" unicode="&#x139;" horiz-adv-x="626" 
d="M102 726h107v-623h363v-103h-470v726zM314 905l-131 -134h-65l82 134h114z" />
    <glyph glyph-name="lacute" unicode="&#x13a;" horiz-adv-x="260" 
d="M79 777h103v-777h-103v777zM293 955l-131 -134h-65l82 134h114z" />
    <glyph glyph-name="uni013B" unicode="&#x13b;" horiz-adv-x="626" 
d="M102 726h107v-623h363v-103h-470v726zM291 -218l-53 36q24 20 34 58.5t4 75.5l91 -1q5 -27 -2.5 -59.5t-26 -62t-47.5 -47.5z" />
    <glyph glyph-name="uni013C" unicode="&#x13c;" horiz-adv-x="260" 
d="M79 777h103v-777h-103v777zM99 -204l-53 36q24 20 34 58.5t4 75.5l91 -1q5 -27 -2.5 -59.5t-26 -62t-47.5 -47.5z" />
    <glyph glyph-name="Lcaron" unicode="&#x13d;" horiz-adv-x="620" 
d="M102 726h107v-623h363v-103h-470v726zM430 563l-52 25q21 20 33.5 55.5t5.5 70.5l82 7q6 -28 -3 -59t-26 -57.5t-40 -41.5v0z" />
    <glyph glyph-name="lcaron" unicode="&#x13e;" horiz-adv-x="383" 
d="M79 777h103v-777h-103v777zM306 605l-52 25q21 20 33.5 55.5t5.5 70.5l82 7q6 -28 -3 -59t-26 -57.5t-40 -41.5v0z" />
    <glyph glyph-name="Ldot" unicode="&#x13f;" horiz-adv-x="630" 
d="M102 726h107v-623h363v-103h-470v726zM472 387q0 24 17.5 40.5t39.5 16.5q20 0 37.5 -16.5t17.5 -40.5q0 -26 -17.5 -41.5t-37.5 -15.5q-22 0 -39.5 15.5t-17.5 41.5v0z" />
    <glyph glyph-name="ldot" unicode="&#x140;" horiz-adv-x="357" 
d="M79 777h103v-777h-103v777zM254 322q0 24 17.5 40.5t39.5 16.5q20 0 37.5 -16.5t17.5 -40.5q0 -26 -17.5 -41.5t-37.5 -15.5q-22 0 -39.5 15.5t-17.5 41.5v0z" />
    <glyph glyph-name="Lslash" unicode="&#x141;" horiz-adv-x="620" 
d="M392 469l21 -84l-378 -123l-22 84zM102 726h107v-623h363v-103h-470v726z" />
    <glyph glyph-name="lslash" unicode="&#x142;" horiz-adv-x="277" 
d="M264 394v-89l-245 -64v89zM86 777h103v-777h-103v777z" />
    <glyph glyph-name="Nacute" unicode="&#x143;" horiz-adv-x="841" 
d="M735 -25l-559 555l31 -10l3 -520h-108v749h5l552 -556l-25 7l-2 526h106v-751h-3zM567 891l-131 -134h-65l82 134h114z" />
    <glyph glyph-name="nacute" unicode="&#x144;" horiz-adv-x="561" 
d="M171 419l9 -96l-4 13q21 45 65 72.5t104 27.5q59 0 97.5 -35t39.5 -91v-310h-103v274q-1 32 -19 52.5t-56 21.5q-34 0 -62 -20.5t-44 -55.5t-16 -81v-191h-103v419h92zM401 621l-131 -134h-65l82 134h114z" />
    <glyph glyph-name="uni0145" unicode="&#x145;" horiz-adv-x="841" 
d="M735 -25l-559 555l31 -10l3 -520h-108v749h5l552 -556l-25 7l-2 526h106v-751h-3zM389 -218l-53 36q24 20 34 58.5t4 75.5l91 -1q5 -27 -2.5 -59.5t-26 -62t-47.5 -47.5z" />
    <glyph glyph-name="uni0146" unicode="&#x146;" horiz-adv-x="561" 
d="M171 419l9 -96l-4 13q21 45 65 72.5t104 27.5q59 0 97.5 -35t39.5 -91v-310h-103v274q-1 32 -19 52.5t-56 21.5q-34 0 -62 -20.5t-44 -55.5t-16 -81v-191h-103v419h92zM250 -204l-53 36q24 20 34 58.5t4 75.5l91 -1q5 -27 -2.5 -59.5t-26 -62t-47.5 -47.5z" />
    <glyph glyph-name="Ncaron" unicode="&#x147;" horiz-adv-x="841" 
d="M735 -25l-559 555l31 -10l3 -520h-108v749h5l552 -556l-25 7l-2 526h106v-751h-3zM328 923l91 -93l-30 -8l92 101h95l-169 -174h-1l-173 174h95z" />
    <glyph glyph-name="ncaron" unicode="&#x148;" horiz-adv-x="561" 
d="M171 419l9 -96l-4 13q21 45 65 72.5t104 27.5q59 0 97.5 -35t39.5 -91v-310h-103v274q-1 32 -19 52.5t-56 21.5q-34 0 -62 -20.5t-44 -55.5t-16 -81v-191h-103v419h92zM211 651l91 -93l-30 -8l92 101h95l-169 -174h-1l-173 174h95z" />
    <glyph glyph-name="napostrophe" unicode="&#x149;" horiz-adv-x="577" 
d="M-1 413l-53 36q24 20 34 58.5t4 75.5l91 -1q5 -27 -2.5 -59.5t-26 -62t-47.5 -47.5zM187 419l9 -96l-4 13q21 45 65 72.5t104 27.5q59 0 97.5 -35t39.5 -91v-310h-103v274q-1 32 -19 52.5t-56 21.5q-34 0 -62 -20.5t-44 -55.5t-16 -81v-191h-103v419h92z" />
    <glyph glyph-name="Eng" unicode="&#x14a;" horiz-adv-x="805" 
d="M717 -25l-558 556l31 -11l2 -520h-107v749h4l552 -557l-25 8l-2 526h107v-727zM721 40v-42q0 -68 -25.5 -118t-77.5 -82l-60 64q28 24 44 58.5t16 81.5v131z" />
    <glyph glyph-name="eng" unicode="&#x14b;" horiz-adv-x="561" 
d="M482 3q0 -68 -25 -120.5t-77 -84.5l-60 64q28 24 43.5 58.5t15.5 81.5v272q-1 32 -19 52.5t-56 21.5q-34 0 -62 -20.5t-44 -55.5t-16 -81v-191h-103v419h92l8 -83q21 45 63.5 72.5t102.5 27.5q59 0 97.5 -35t39.5 -91v-307z" />
    <glyph glyph-name="Omacron" unicode="&#x14c;" horiz-adv-x="856" 
d="M57 362q0 75 28.5 142t79.5 119t118 81.5t144 29.5q76 0 143 -29.5t119 -81.5t81 -119t29 -142q0 -77 -29 -144t-80.5 -118t-119 -79.5t-143.5 -28.5q-77 0 -144 28t-118 78.5t-79.5 118t-28.5 145.5zM167 362q0 -56 20.5 -104.5t56.5 -85t83.5 -57t102.5 -20.5
q54 0 101 20.5t82.5 57t55.5 85t20 104.5t-20.5 104.5t-56 85.5t-83 58t-101.5 21q-56 0 -103 -21t-83 -58t-55.5 -86t-19.5 -104zM301 845h248v-72h-248v72z" />
    <glyph glyph-name="omacron" unicode="&#x14d;" horiz-adv-x="550" 
d="M43 214q0 63 30 113.5t83 79.5t121 29q69 0 121 -29t80.5 -79.5t28.5 -113.5t-28.5 -114t-80.5 -80.5t-122 -29.5q-67 0 -119.5 27t-83 77.5t-30.5 119.5zM147 213q0 -39 17 -70.5t46 -50t65 -18.5q37 0 66 18.5t45.5 50t16.5 70.5t-16.5 70t-45.5 50t-66 19t-66 -19
t-45.5 -50.5t-16.5 -69.5zM152 562h248v-72h-248v72z" />
    <glyph glyph-name="Obreve" unicode="&#x14e;" horiz-adv-x="856" 
d="M57 362q0 75 28.5 142t79.5 119t118 81.5t144 29.5q76 0 143 -29.5t119 -81.5t81 -119t29 -142q0 -77 -29 -144t-80.5 -118t-119 -79.5t-143.5 -28.5q-77 0 -144 28t-118 78.5t-79.5 118t-28.5 145.5zM167 362q0 -56 20.5 -104.5t56.5 -85t83.5 -57t102.5 -20.5
q54 0 101 20.5t82.5 57t55.5 85t20 104.5t-20.5 104.5t-56 85.5t-83 58t-101.5 21q-56 0 -103 -21t-83 -58t-55.5 -86t-19.5 -104zM429 768q-43 0 -75 20.5t-52 60.5t-28 97h69q5 -31 15.5 -56t28 -38.5t42.5 -13.5q26 0 42.5 13.5t26.5 38.5t14 56h70q-8 -59 -27.5 -98.5
t-51 -59.5t-74.5 -20z" />
    <glyph glyph-name="obreve" unicode="&#x14f;" horiz-adv-x="550" 
d="M43 214q0 63 30 113.5t83 79.5t121 29q69 0 121 -29t80.5 -79.5t28.5 -113.5t-28.5 -114t-80.5 -80.5t-122 -29.5q-67 0 -119.5 27t-83 77.5t-30.5 119.5zM147 213q0 -39 17 -70.5t46 -50t65 -18.5q37 0 66 18.5t45.5 50t16.5 70.5t-16.5 70t-45.5 50t-66 19t-66 -19
t-45.5 -50.5t-16.5 -69.5zM277 481q-43 0 -75 20.5t-52 60.5t-28 97h69q5 -31 15.5 -56t28 -38.5t42.5 -13.5q26 0 42.5 13.5t26.5 38.5t14 56h70q-8 -59 -27.5 -98.5t-51 -59.5t-74.5 -20z" />
    <glyph glyph-name="Ohungarumlaut" unicode="&#x150;" horiz-adv-x="856" 
d="M57 362q0 75 28.5 142t79.5 119t118 81.5t144 29.5q76 0 143 -29.5t119 -81.5t81 -119t29 -142q0 -77 -29 -144t-80.5 -118t-119 -79.5t-143.5 -28.5q-77 0 -144 28t-118 78.5t-79.5 118t-28.5 145.5zM167 362q0 -56 20.5 -104.5t56.5 -85t83.5 -57t102.5 -20.5
q54 0 101 20.5t82.5 57t55.5 85t20 104.5t-20.5 104.5t-56 85.5t-83 58t-101.5 21q-56 0 -103 -21t-83 -58t-55.5 -86t-19.5 -104zM484 909l-131 -134h-65l82 134h114zM641 907l-131 -134h-65l82 134h114z" />
    <glyph glyph-name="ohungarumlaut" unicode="&#x151;" horiz-adv-x="550" 
d="M43 214q0 63 30 113.5t83 79.5t121 29q69 0 121 -29t80.5 -79.5t28.5 -113.5t-28.5 -114t-80.5 -80.5t-122 -29.5q-67 0 -119.5 27t-83 77.5t-30.5 119.5zM147 213q0 -39 17 -70.5t46 -50t65 -18.5q37 0 66 18.5t45.5 50t16.5 70.5t-16.5 70t-45.5 50t-66 19t-66 -19
t-45.5 -50.5t-16.5 -69.5zM343 634l-131 -134h-65l82 134h114zM500 632l-131 -134h-65l82 134h114z" />
    <glyph glyph-name="OE" unicode="&#x152;" horiz-adv-x="1017" 
d="M492 621q-13 4 -27.5 5.5t-29.5 1.5q-53 0 -100.5 -21t-83 -57.5t-56 -85t-20.5 -103.5q0 -54 20.5 -102.5t56.5 -85t84 -57.5t103 -21q28 0 56 7l31 -98q-22 -6 -45 -9t-46 -3q-77 0 -144 28.5t-118 79.5t-79.5 118t-28.5 144q0 75 28.5 142t79.5 119t118 81.5t144 29.5
q24 0 48 -3.5t46 -9.5zM485 726h447v-100h-337v-212h297v-101h-297v-211h351v-102h-461v726z" />
    <glyph glyph-name="oe" unicode="&#x153;" horiz-adv-x="810" 
d="M422 39q-28 -23 -67.5 -36t-79.5 -13q-69 0 -121.5 27t-81.5 76t-29 117q0 67 31 116.5t82 76t108 26.5q52 0 92 -14t69 -39l-51 -67q-17 14 -42.5 25t-58.5 11q-35 0 -64 -17.5t-46 -48t-17 -69.5q0 -37 17.5 -68.5t48.5 -49.5t71 -18q26 0 48 7.5t39 21.5zM560 -10
q-73 0 -125 28.5t-80 79t-28 115.5q0 62 31.5 112.5t85 80.5t118.5 30q84 0 139.5 -49t74.5 -137l-341 -118l-24 60l273 98l-21 -13q-12 31 -38 54.5t-71 23.5q-36 0 -64.5 -17.5t-45 -48t-16.5 -71.5q0 -42 17.5 -73.5t48 -49.5t68.5 -18q27 0 51.5 10t46.5 25l47 -76
q-33 -21 -71.5 -33.5t-75.5 -12.5z" />
    <glyph glyph-name="Racute" unicode="&#x154;" horiz-adv-x="665" 
d="M301 726q57 0 105.5 -15.5t83 -44.5t54 -71.5t19.5 -98.5q0 -43 -13 -85t-42 -76t-76 -54.5t-117 -20.5h-106v-260h-107v726h199zM313 362q41 0 68.5 13t43 32.5t22 42t6.5 43.5q0 20 -6.5 42t-22 42t-41.5 33t-64 13h-110v-261h104zM436 300l188 -300h-124l-191 297z
M464 905l-131 -134h-65l82 134h114z" />
    <glyph glyph-name="racute" unicode="&#x155;" horiz-adv-x="383" 
d="M171 419l10 -120l-5 16q17 38 48 65t64.5 41.5t56.5 14.5l-5 -102q-48 3 -83.5 -18t-55.5 -56t-20 -75v-185h-102v419h92zM304 614l-131 -134h-65l82 134h114z" />
    <glyph glyph-name="uni0156" unicode="&#x156;" horiz-adv-x="665" 
d="M301 726q57 0 105.5 -15.5t83 -44.5t54 -71.5t19.5 -98.5q0 -43 -13 -85t-42 -76t-76 -54.5t-117 -20.5h-106v-260h-107v726h199zM313 362q41 0 68.5 13t43 32.5t22 42t6.5 43.5q0 20 -6.5 42t-22 42t-41.5 33t-64 13h-110v-261h104zM436 300l188 -300h-124l-191 297z
M300 -218l-53 36q24 20 34 58.5t4 75.5l91 -1q5 -27 -2.5 -59.5t-26 -62t-47.5 -47.5z" />
    <glyph glyph-name="uni0157" unicode="&#x157;" horiz-adv-x="383" 
d="M171 419l10 -120l-5 16q17 38 48 65t64.5 41.5t56.5 14.5l-5 -102q-48 3 -83.5 -18t-55.5 -56t-20 -75v-185h-102v419h92zM106 -204l-53 36q24 20 34 58.5t4 75.5l91 -1q5 -27 -2.5 -59.5t-26 -62t-47.5 -47.5z" />
    <glyph glyph-name="Rcaron" unicode="&#x158;" horiz-adv-x="665" 
d="M301 726q57 0 105.5 -15.5t83 -44.5t54 -71.5t19.5 -98.5q0 -43 -13 -85t-42 -76t-76 -54.5t-117 -20.5h-106v-260h-107v726h199zM313 362q41 0 68.5 13t43 32.5t22 42t6.5 43.5q0 20 -6.5 42t-22 42t-41.5 33t-64 13h-110v-261h104zM436 300l188 -300h-124l-191 297z
M225 937l91 -93l-30 -8l92 101h95l-169 -174h-1l-173 174h95z" />
    <glyph glyph-name="rcaron" unicode="&#x159;" horiz-adv-x="383" 
d="M171 419l10 -120l-5 16q17 38 48 65t64.5 41.5t56.5 14.5l-5 -102q-48 3 -83.5 -18t-55.5 -56t-20 -75v-185h-102v419h92zM114 644l91 -93l-30 -8l92 101h95l-169 -174h-1l-173 174h95z" />
    <glyph glyph-name="Sacute" unicode="&#x15a;" horiz-adv-x="582" 
d="M480 587q-38 20 -82 34t-85 14q-56 0 -89 -25.5t-33 -69.5q0 -31 22 -54t57 -40t74 -32q33 -12 65.5 -28.5t59 -40.5t42 -59.5t15.5 -86.5q0 -58 -28.5 -105t-82 -74.5t-129.5 -27.5q-46 0 -89.5 10.5t-82 28t-69.5 38.5l48 83q24 -17 55 -32.5t64.5 -24.5t63.5 -9
q33 0 65 11.5t53 36t21 64.5q0 34 -18.5 57.5t-49 40.5t-65.5 30q-34 13 -69 29t-65 38.5t-48.5 56t-18.5 82.5q0 58 27.5 101.5t76.5 68.5t113 28q73 0 127 -18t96 -43zM450 896l-131 -134h-65l82 134h114z" />
    <glyph glyph-name="sacute" unicode="&#x15b;" horiz-adv-x="415" 
d="M201 -9q-46 0 -89 16.5t-71 48.5l44 58q27 -25 54.5 -37.5t52.5 -12.5q20 0 36 4.5t26 15.5t10 29q0 21 -14 33t-36 20t-47 15q-53 17 -80 48.5t-27 74.5q0 33 16.5 62.5t50.5 48.5t84 19q46 0 81 -10.5t65 -35.5l-40 -62q-18 18 -42.5 27.5t-44.5 10.5q-18 0 -33 -5.5
t-24 -16t-9 -24.5q-1 -20 13.5 -32.5t37.5 -20t45 -15.5q31 -9 55 -24.5t38 -37.5t14 -56q0 -37 -18 -69.5t-55 -52t-93 -19.5zM329 621l-131 -134h-65l82 134h114z" />
    <glyph glyph-name="Scircumflex" unicode="&#x15c;" horiz-adv-x="582" 
d="M480 587q-38 20 -82 34t-85 14q-56 0 -89 -25.5t-33 -69.5q0 -31 22 -54t57 -40t74 -32q33 -12 65.5 -28.5t59 -40.5t42 -59.5t15.5 -86.5q0 -58 -28.5 -105t-82 -74.5t-129.5 -27.5q-46 0 -89.5 10.5t-82 28t-69.5 38.5l48 83q24 -17 55 -32.5t64.5 -24.5t63.5 -9
q33 0 65 11.5t53 36t21 64.5q0 34 -18.5 57.5t-49 40.5t-65.5 30q-34 13 -69 29t-65 38.5t-48.5 56t-18.5 82.5q0 58 27.5 101.5t76.5 68.5t113 28q73 0 127 -18t96 -43zM361 779l-91 93l29 7l-91 -100h-95l169 174h1l172 -174h-94z" />
    <glyph glyph-name="scircumflex" unicode="&#x15d;" horiz-adv-x="415" 
d="M201 -9q-46 0 -89 16.5t-71 48.5l44 58q27 -25 54.5 -37.5t52.5 -12.5q20 0 36 4.5t26 15.5t10 29q0 21 -14 33t-36 20t-47 15q-53 17 -80 48.5t-27 74.5q0 33 16.5 62.5t50.5 48.5t84 19q46 0 81 -10.5t65 -35.5l-40 -62q-18 18 -42.5 27.5t-44.5 10.5q-18 0 -33 -5.5
t-24 -16t-9 -24.5q-1 -20 13.5 -32.5t37.5 -20t45 -15.5q31 -9 55 -24.5t38 -37.5t14 -56q0 -37 -18 -69.5t-55 -52t-93 -19.5zM285 493l-91 93l29 7l-91 -100h-95l169 174h1l172 -174h-94z" />
    <glyph glyph-name="Scedilla" unicode="&#x15e;" horiz-adv-x="582" 
d="M480 587q-38 20 -82 34t-85 14q-56 0 -89 -25.5t-33 -69.5q0 -31 22 -54t57 -40t74 -32q33 -12 65.5 -28.5t59 -40.5t42 -59.5t15.5 -86.5q0 -58 -28.5 -105t-82 -74.5t-129.5 -27.5q-46 0 -89.5 10.5t-82 28t-69.5 38.5l48 83q24 -17 55 -32.5t64.5 -24.5t63.5 -9
q33 0 65 11.5t53 36t21 64.5q0 34 -18.5 57.5t-49 40.5t-65.5 30q-34 13 -69 29t-65 38.5t-48.5 56t-18.5 82.5q0 58 27.5 101.5t76.5 68.5t113 28q73 0 127 -18t96 -43zM209 -157q11 -12 27.5 -19.5t37.5 -7.5q25 0 45.5 11.5t20.5 32.5q0 16 -13.5 29.5t-49.5 13.5
q-16 0 -33 -4t-31 -9l-17 50l69 62l79 -3l-73 -84l-22 25q11 4 25.5 6.5t28.5 2.5q54 2 88.5 -20.5t34.5 -66.5q0 -35 -20 -57t-52 -33t-69 -11q-39 0 -65.5 11.5t-42.5 27.5z" />
    <glyph glyph-name="scedilla" unicode="&#x15f;" horiz-adv-x="415" 
d="M201 -9q-46 0 -89 16.5t-71 48.5l44 58q27 -25 54.5 -37.5t52.5 -12.5q20 0 36 4.5t26 15.5t10 29q0 21 -14 33t-36 20t-47 15q-53 17 -80 48.5t-27 74.5q0 33 16.5 62.5t50.5 48.5t84 19q46 0 81 -10.5t65 -35.5l-40 -62q-18 18 -42.5 27.5t-44.5 10.5q-18 0 -33 -5.5
t-24 -16t-9 -24.5q-1 -20 13.5 -32.5t37.5 -20t45 -15.5q31 -9 55 -24.5t38 -37.5t14 -56q0 -37 -18 -69.5t-55 -52t-93 -19.5zM125 -156q11 -12 27.5 -19.5t37.5 -7.5q25 0 45.5 11.5t20.5 32.5q0 16 -13.5 29.5t-49.5 13.5q-16 0 -33 -4t-31 -9l-17 50l69 62l79 -3
l-73 -84l-22 25q11 4 25.5 6.5t28.5 2.5q54 2 88.5 -20.5t34.5 -66.5q0 -35 -20 -57t-52 -33t-69 -11q-39 0 -65.5 11.5t-42.5 27.5z" />
    <glyph glyph-name="Scaron" unicode="&#x160;" horiz-adv-x="582" 
d="M480 587q-38 20 -82 34t-85 14q-56 0 -89 -25.5t-33 -69.5q0 -31 22 -54t57 -40t74 -32q33 -12 65.5 -28.5t59 -40.5t42 -59.5t15.5 -86.5q0 -58 -28.5 -105t-82 -74.5t-129.5 -27.5q-46 0 -89.5 10.5t-82 28t-69.5 38.5l48 83q24 -17 55 -32.5t64.5 -24.5t63.5 -9
q33 0 65 11.5t53 36t21 64.5q0 34 -18.5 57.5t-49 40.5t-65.5 30q-34 13 -69 29t-65 38.5t-48.5 56t-18.5 82.5q0 58 27.5 101.5t76.5 68.5t113 28q73 0 127 -18t96 -43zM211 929l91 -93l-30 -8l92 101h95l-169 -174h-1l-173 174h95z" />
    <glyph glyph-name="scaron" unicode="&#x161;" horiz-adv-x="415" 
d="M201 -9q-46 0 -89 16.5t-71 48.5l44 58q27 -25 54.5 -37.5t52.5 -12.5q20 0 36 4.5t26 15.5t10 29q0 21 -14 33t-36 20t-47 15q-53 17 -80 48.5t-27 74.5q0 33 16.5 62.5t50.5 48.5t84 19q46 0 81 -10.5t65 -35.5l-40 -62q-18 18 -42.5 27.5t-44.5 10.5q-18 0 -33 -5.5
t-24 -16t-9 -24.5q-1 -20 13.5 -32.5t37.5 -20t45 -15.5q31 -9 55 -24.5t38 -37.5t14 -56q0 -37 -18 -69.5t-55 -52t-93 -19.5zM140 651l91 -93l-30 -8l92 101h95l-169 -174h-1l-173 174h95z" />
    <glyph glyph-name="uni0162" unicode="&#x162;" horiz-adv-x="582" 
d="M49 726h484v-103h-191v-623h-107v623h-186v103zM211 -150q11 -12 27.5 -19.5t37.5 -7.5q25 0 45.5 11.5t20.5 32.5q0 16 -13.5 29.5t-49.5 13.5q-16 0 -33 -4t-31 -9l-17 50l69 62l79 -3l-73 -84l-22 25q11 4 25.5 6.5t28.5 2.5q54 2 88.5 -20.5t34.5 -66.5
q0 -35 -20 -57t-52 -33t-69 -11q-39 0 -65.5 11.5t-42.5 27.5z" />
    <glyph glyph-name="uni0163" unicode="&#x163;" horiz-adv-x="366" 
d="M119 603h103v-185h112v-81h-112v-337h-103v337h-74v81h74v185zM86 -148q11 -12 27.5 -19.5t37.5 -7.5q25 0 45.5 11.5t20.5 32.5q0 16 -13.5 29.5t-49.5 13.5q-16 0 -33 -4t-31 -9l-17 50l69 62l79 -3l-73 -84l-22 25q11 4 25.5 6.5t28.5 2.5q54 2 88.5 -20.5t34.5 -66.5
q0 -35 -20 -57t-52 -33t-69 -11q-39 0 -65.5 11.5t-42.5 27.5z" />
    <glyph glyph-name="Tcaron" unicode="&#x164;" horiz-adv-x="582" 
d="M49 726h484v-103h-191v-623h-107v623h-186v103zM213 923l91 -93l-30 -8l92 101h95l-169 -174h-1l-173 174h95z" />
    <glyph glyph-name="tcaron" unicode="&#x165;" horiz-adv-x="366" 
d="M119 603h103v-185h112v-81h-112v-337h-103v337h-74v81h74v185zM311 491l-53 36q24 20 34 58.5t4 75.5l91 -1q5 -27 -2.5 -59.5t-26 -62t-47.5 -47.5z" />
    <glyph glyph-name="Tbar" unicode="&#x166;" horiz-adv-x="582" 
d="M49 726h484v-103h-191v-623h-107v623h-186v103zM145 408h285v-96h-285v96z" />
    <glyph glyph-name="tbar" unicode="&#x167;" horiz-adv-x="366" 
d="M119 603h103v-185h112v-81h-112v-337h-103v337h-74v81h74v185zM31 240h285v-96h-285v96z" />
    <glyph glyph-name="Utilde" unicode="&#x168;" horiz-adv-x="736" 
d="M198 259q0 -46 23 -83t61 -59t85 -22q50 0 89 22t61.5 59t22.5 83v467h105v-470q0 -79 -37 -138.5t-100 -92.5t-141 -33v0q-76 0 -139 33t-99.5 92.5t-36.5 138.5v470h106v-467zM445 806q-32 0 -53 14.5t-39 30.5q-12 11 -23.5 19.5t-26.5 8.5q-12 0 -21.5 -9
t-13.5 -25.5t-4 -38.5h-54q-3 39 8.5 71t34.5 51t56 19q26 0 45 -14t35 -29q14 -13 26.5 -23.5t27.5 -10.5q20 0 27.5 21.5t7.5 55.5l54 -1q4 -41 -6.5 -73t-32 -49.5t-48.5 -17.5z" />
    <glyph glyph-name="utilde" unicode="&#x169;" horiz-adv-x="554" 
d="M213 -17q-58 0 -95 35t-39 90v311h103v-274q2 -32 18.5 -52.5t53.5 -21.5q34 0 60.5 20.5t42 56t15.5 81.5v190h103v-419h-93l-8 97l4 -16q-13 -28 -37 -50.5t-57 -35t-71 -12.5zM355 474q-32 0 -53 14.5t-39 30.5q-12 11 -23.5 19.5t-26.5 8.5q-12 0 -21.5 -9
t-13.5 -25.5t-4 -38.5h-54q-3 39 8.5 71t34.5 51t56 19q26 0 45 -14t35 -29q14 -13 26.5 -23.5t27.5 -10.5q20 0 27.5 21.5t7.5 55.5l54 -1q4 -41 -6.5 -73t-32 -49.5t-48.5 -17.5z" />
    <glyph glyph-name="Umacron" unicode="&#x16a;" horiz-adv-x="736" 
d="M198 259q0 -46 23 -83t61 -59t85 -22q50 0 89 22t61.5 59t22.5 83v467h105v-470q0 -79 -37 -138.5t-100 -92.5t-141 -33v0q-76 0 -139 33t-99.5 92.5t-36.5 138.5v470h106v-467zM241 852h248v-72h-248v72z" />
    <glyph glyph-name="umacron" unicode="&#x16b;" horiz-adv-x="554" 
d="M213 -17q-58 0 -95 35t-39 90v311h103v-274q2 -32 18.5 -52.5t53.5 -21.5q34 0 60.5 20.5t42 56t15.5 81.5v190h103v-419h-93l-8 97l4 -16q-13 -28 -37 -50.5t-57 -35t-71 -12.5zM155 562h248v-72h-248v72z" />
    <glyph glyph-name="Ubreve" unicode="&#x16c;" horiz-adv-x="736" 
d="M198 259q0 -46 23 -83t61 -59t85 -22q50 0 89 22t61.5 59t22.5 83v467h105v-470q0 -79 -37 -138.5t-100 -92.5t-141 -33v0q-76 0 -139 33t-99.5 92.5t-36.5 138.5v470h106v-467zM369 775q-43 0 -75 20.5t-52 60.5t-28 97h69q5 -31 15.5 -56t28 -38.5t42.5 -13.5
q26 0 42.5 13.5t26.5 38.5t14 56h70q-8 -59 -27.5 -98.5t-51 -59.5t-74.5 -20z" />
    <glyph glyph-name="ubreve" unicode="&#x16d;" horiz-adv-x="554" 
d="M213 -17q-58 0 -95 35t-39 90v311h103v-274q2 -32 18.5 -52.5t53.5 -21.5q34 0 60.5 20.5t42 56t15.5 81.5v190h103v-419h-93l-8 97l4 -16q-13 -28 -37 -50.5t-57 -35t-71 -12.5zM280 481q-43 0 -75 20.5t-52 60.5t-28 97h69q5 -31 15.5 -56t28 -38.5t42.5 -13.5
q26 0 42.5 13.5t26.5 38.5t14 56h70q-8 -59 -27.5 -98.5t-51 -59.5t-74.5 -20z" />
    <glyph glyph-name="Uring" unicode="&#x16e;" horiz-adv-x="736" 
d="M198 259q0 -46 23 -83t61 -59t85 -22q50 0 89 22t61.5 59t22.5 83v467h105v-470q0 -79 -37 -138.5t-100 -92.5t-141 -33v0q-76 0 -139 33t-99.5 92.5t-36.5 138.5v470h106v-467zM274 866q0 42 27.5 67.5t69.5 25.5t69.5 -25.5t27.5 -66.5t-28 -67t-69 -26
q-42 0 -69.5 25.5t-27.5 66.5zM329 865q0 -19 12 -31t30 -12q19 0 30.5 12t11.5 31q0 21 -11.5 32.5t-29.5 11.5q-19 0 -31 -11.5t-12 -32.5z" />
    <glyph glyph-name="uring" unicode="&#x16f;" horiz-adv-x="554" 
d="M213 -17q-58 0 -95 35t-39 90v311h103v-274q2 -32 18.5 -52.5t53.5 -21.5q34 0 60.5 20.5t42 56t15.5 81.5v190h103v-419h-93l-8 97l4 -16q-13 -28 -37 -50.5t-57 -35t-71 -12.5zM171 560q0 42 27.5 67.5t69.5 25.5t69.5 -25.5t27.5 -66.5t-28 -67t-69 -26
q-42 0 -69.5 25.5t-27.5 66.5zM226 559q0 -19 12 -31t30 -12q19 0 30.5 12t11.5 31q0 21 -11.5 32.5t-29.5 11.5q-19 0 -31 -11.5t-12 -32.5z" />
    <glyph glyph-name="Uhungarumlaut" unicode="&#x170;" horiz-adv-x="736" 
d="M198 259q0 -46 23 -83t61 -59t85 -22q50 0 89 22t61.5 59t22.5 83v467h105v-470q0 -79 -37 -138.5t-100 -92.5t-141 -33v0q-76 0 -139 33t-99.5 92.5t-36.5 138.5v470h106v-467zM425 916l-131 -134h-65l82 134h114zM582 914l-131 -134h-65l82 134h114z" />
    <glyph glyph-name="uhungarumlaut" unicode="&#x171;" horiz-adv-x="554" 
d="M213 -17q-58 0 -95 35t-39 90v311h103v-274q2 -32 18.5 -52.5t53.5 -21.5q34 0 60.5 20.5t42 56t15.5 81.5v190h103v-419h-93l-8 97l4 -16q-13 -28 -37 -50.5t-57 -35t-71 -12.5zM346 634l-131 -134h-65l82 134h114zM503 632l-131 -134h-65l82 134h114z" />
    <glyph glyph-name="Uogonek" unicode="&#x172;" horiz-adv-x="736" 
d="M472 -218q-51 0 -87 31t-36 82q0 33 21 65t58 50l31 42l10 -43q-47 -17 -102 -17q-82 0 -144 33t-96.5 92.5t-34.5 138.5v470h106v-467q0 -46 23 -83t61 -59t85 -22q50 0 89 22t61.5 59t22.5 83v467h105v-476q0 -56 -18.5 -97.5t-47 -71.5t-59.5 -54q-36 -29 -61 -58.5
t-25 -66.5q0 -25 15 -36t33 -11q20 0 37 12.5t31 35.5l39 -53q-18 -30 -51.5 -49t-65.5 -19z" />
    <glyph glyph-name="uogonek" unicode="&#x173;" horiz-adv-x="558" 
d="M422 -218q-51 0 -87 31t-36 82q0 33 23 65.5t63 49.5l56 7l36 -17q-42 -21 -67.5 -43.5t-25.5 -54.5q0 -25 14.5 -36t33.5 -11q20 0 37 12.5t31 35.5l39 -53q-19 -30 -52 -49t-65 -19zM213 -17q-58 0 -95 35t-39 90v311h103v-274q2 -32 18.5 -52.5t53.5 -21.5
q34 0 60.5 20.5t42 56t15.5 81.5v190h103v-419h-93l-8 97l4 -16q-13 -28 -37 -50.5t-57 -35t-71 -12.5z" />
    <glyph glyph-name="Wcircumflex" unicode="&#x174;" horiz-adv-x="1011" 
d="M39 722h124l188 -534l-18 7l142 365l49 -145l-196 -449zM391 722h106l206 -525l-21 4l176 521h114l-284 -754zM577 780l-91 93l29 7l-91 -100h-95l169 174h1l172 -174h-94z" />
    <glyph glyph-name="wcircumflex" unicode="&#x175;" horiz-adv-x="676" 
d="M354 419l117 -269l-20 -1l107 270h101l-192 -444l-134 285l-123 -285l-193 444h101l124 -282l-36 6l90 208l-31 68h89zM414 486l-91 93l29 7l-91 -100h-95l169 174h1l172 -174h-94z" />
    <glyph glyph-name="Ycircumflex" unicode="&#x176;" horiz-adv-x="698" 
d="M294 239l-269 487h132l209 -396l-32 -2l207 398h131l-271 -487v-239h-107v239zM434 785l-91 93l29 7l-91 -100h-95l169 174h1l172 -174h-94z" />
    <glyph glyph-name="ycircumflex" unicode="&#x177;" horiz-adv-x="502" 
d="M114 -201l277 620h94l-270 -620h-101zM220 -3l-203 422h116l166 -370zM335 486l-91 93l29 7l-91 -100h-95l169 174h1l172 -174h-94z" />
    <glyph glyph-name="Ydieresis" unicode="&#x178;" horiz-adv-x="698" 
d="M294 239l-269 487h132l209 -396l-32 -2l207 398h131l-271 -487v-239h-107v239zM207 831q0 24 17 40.5t39 16.5q20 0 38 -16.5t18 -40.5q0 -25 -18 -41t-38 -16q-21 0 -38.5 16t-17.5 41v0zM396 831q0 24 18 40.5t39 16.5q20 0 37.5 -16.5t17.5 -40.5q0 -25 -17.5 -41
t-37.5 -16q-21 0 -39 16t-18 41v0z" />
    <glyph glyph-name="Zacute" unicode="&#x179;" horiz-adv-x="714" 
d="M49 0q10 13 31 44.5l51 76.5t64.5 98t71 108.5t71.5 108t64.5 97t51 76t30.5 43.5l13 -29h-319q-20 0 -39.5 7.5t-32.5 22t-13 33.5v76h99v-13q0 -19 7 -21t24 -2h429l-428 -636l-6 13h443v-103h-612zM517 891l-131 -134h-65l82 134h114z" />
    <glyph glyph-name="zacute" unicode="&#x17a;" horiz-adv-x="475" 
d="M124 335q-32 0 -55 20.5t-23 59.5v44h77v-14q0 -17 8 -21.5t26 -4.5h268l-247 -356l-20 21h263v-84h-395l253 364l16 -29h-171zM360 614l-131 -134h-65l82 134h114z" />
    <glyph glyph-name="Zdotaccent" unicode="&#x17b;" horiz-adv-x="714" 
d="M49 0q10 13 31 44.5l51 76.5t64.5 98t71 108.5t71.5 108t64.5 97t51 76t30.5 43.5l13 -29h-319q-20 0 -39.5 7.5t-32.5 22t-13 33.5v76h99v-13q0 -19 7 -21t24 -2h429l-428 -636l-6 13h443v-103h-612zM298 816q0 24 19 40t41 16q23 0 41 -16t18 -40t-18 -39.5t-41 -15.5
q-22 0 -41 15.5t-19 39.5z" />
    <glyph glyph-name="zdotaccent" unicode="&#x17c;" horiz-adv-x="475" 
d="M124 335q-32 0 -55 20.5t-23 59.5v44h77v-14q0 -17 8 -21.5t26 -4.5h268l-247 -356l-20 21h263v-84h-395l253 364l16 -29h-171zM181 569q0 24 19 40t41 16q23 0 41 -16t18 -40t-18 -39.5t-41 -15.5q-22 0 -41 15.5t-19 39.5z" />
    <glyph glyph-name="Zcaron" unicode="&#x17d;" horiz-adv-x="714" 
d="M49 0q10 13 31 44.5l51 76.5t64.5 98t71 108.5t71.5 108t64.5 97t51 76t30.5 43.5l13 -29h-319q-20 0 -39.5 7.5t-32.5 22t-13 33.5v76h99v-13q0 -19 7 -21t24 -2h429l-428 -636l-6 13h443v-103h-612zM278 923l91 -93l-30 -8l92 101h95l-169 -174h-1l-173 174h95z" />
    <glyph glyph-name="zcaron" unicode="&#x17e;" horiz-adv-x="475" 
d="M124 335q-32 0 -55 20.5t-23 59.5v44h77v-14q0 -17 8 -21.5t26 -4.5h268l-247 -356l-20 21h263v-84h-395l253 364l16 -29h-171zM171 644l91 -93l-30 -8l92 101h95l-169 -174h-1l-173 174h95z" />
    <glyph glyph-name="uni018F" unicode="&#x18f;" horiz-adv-x="793" 
d="M376 733q81 0 147.5 -27t114 -76t73 -114.5t25.5 -141.5q0 -80 -28.5 -148.5t-78.5 -119.5t-115.5 -79.5t-140.5 -28.5q-85 0 -151.5 36t-111 103.5t-64.5 159.5l590 207l23 -79l-521 -188l33 33q24 -77 77 -127t133 -50q49 0 93 21t77.5 58.5t52.5 87.5t19 108
q0 57 -20 104.5t-55 82.5t-80 54.5t-95 19.5q-36 0 -74.5 -11.5t-72 -31.5t-55.5 -45l-53 86q29 29 73.5 53t93.5 38.5t91 14.5z" />
    <glyph glyph-name="florin" unicode="&#x192;" horiz-adv-x="341" 
d="M97 516q0 87 32.5 144t90.5 86t133 31v-102q-52 -3 -85 -22.5t-49 -55t-16 -83.5v-95h132v-98h-132v-226q0 -87 -28.5 -144t-85 -86t-142.5 -32v102q52 3 85 23t49 55t16 84v224h-72v98h72v97z" />
    <glyph glyph-name="uni019D" unicode="&#x19d;" horiz-adv-x="823" 
d="M717 -25l-558 556l31 -11l2 -520h-107v749h4l552 -556l-25 7l-2 526h107v-727zM192 40v-42q0 -68 -25 -118t-77 -82l-66 64q29 24 45 58.5t16 81.5v131z" />
    <glyph glyph-name="Ohorn" unicode="&#x1a0;" horiz-adv-x="856" 
d="M57 362q0 75 28.5 142t79.5 119t118 81.5t144 29.5q76 0 143 -29.5t119 -81.5t81 -119t29 -142q0 -77 -29 -144t-80.5 -118t-119 -79.5t-143.5 -28.5q-77 0 -144 28t-118 78.5t-79.5 118t-28.5 145.5zM167 362q0 -56 20.5 -104.5t56.5 -85t83.5 -57t102.5 -20.5
q54 0 101 20.5t82.5 57t55.5 85t20 104.5t-20.5 104.5t-56 85.5t-83 58t-101.5 21q-56 0 -103 -21t-83 -58t-55.5 -86t-19.5 -104zM499 727q40 0 56.5 18.5t22.5 68.5h77q-8 -63 -28 -95.5t-52.5 -43.5t-75.5 -11v63z" />
    <glyph glyph-name="ohorn" unicode="&#x1a1;" horiz-adv-x="550" 
d="M43 214q0 63 30 113.5t83 79.5t121 29q69 0 121 -29t80.5 -79.5t28.5 -113.5t-28.5 -114t-80.5 -80.5t-122 -29.5q-67 0 -119.5 27t-83 77.5t-30.5 119.5zM147 213q0 -39 17 -70.5t46 -50t65 -18.5q37 0 66 18.5t45.5 50t16.5 70.5t-16.5 70t-45.5 50t-66 19t-66 -19
t-45.5 -50.5t-16.5 -69.5zM356 419q41 0 62.5 21.5t28.5 69.5h77q-8 -61 -31 -94.5t-58 -46.5t-79 -13v63z" />
    <glyph glyph-name="Uhorn" unicode="&#x1af;" horiz-adv-x="757" 
d="M198 259q0 -46 23 -83t61 -59t85 -22q50 0 89 22t61.5 59t22.5 83v467h105v-470q0 -79 -37 -138.5t-100 -92.5t-141 -33v0q-76 0 -139 33t-99.5 92.5t-36.5 138.5v470h106v-467zM626 676q40 0 56.5 18.5t22.5 68.5h77q-8 -63 -28 -95.5t-52.5 -43.5t-75.5 -11v63z" />
    <glyph glyph-name="uhorn" unicode="&#x1b0;" horiz-adv-x="564" 
d="M213 -17q-58 0 -95 35t-39 90v311h103v-274q2 -32 18.5 -52.5t53.5 -21.5q34 0 60.5 20.5t42 56t15.5 81.5v190h103v-419h-93l-8 97l4 -16q-13 -28 -37 -50.5t-57 -35t-71 -12.5zM416 419q41 0 62.5 21.5t28.5 69.5h77q-8 -61 -31 -94.5t-58 -46.5t-79 -13v63z" />
    <glyph glyph-name="uni01C4" unicode="&#x1c4;" horiz-adv-x="1414" 
d="M102 0v726h202q108 0 184 -33t122.5 -87t68 -120t21.5 -133q0 -81 -29 -146t-79 -111.5t-115 -71t-138 -24.5h-237zM209 103h110q59 0 108.5 17t86 50t56.5 81t20 110q0 67 -22.5 116.5t-59.5 82t-82.5 48t-92.5 15.5h-124v-520zM749 0q10 13 31 44.5l51 76.5t64.5 98
t71 108.5t71.5 108t64.5 97t51 76t30.5 43.5l13 -29h-319q-20 0 -39.5 7.5t-32.5 22t-13 33.5v76h99v-13q0 -19 7 -21t24 -2h429l-428 -636l-6 13h443v-103h-612zM978 923l91 -93l-30 -8l92 101h95l-169 -174h-1l-173 174h95z" />
    <glyph glyph-name="uni01C5" unicode="&#x1c5;" horiz-adv-x="1232" 
d="M102 0v726h202q108 0 184 -33t122.5 -87t68 -120t21.5 -133q0 -81 -29 -146t-79 -111.5t-115 -71t-138 -24.5h-237zM209 103h110q59 0 108.5 17t86 50t56.5 81t20 110q0 67 -22.5 116.5t-59.5 82t-82.5 48t-92.5 15.5h-124v-520zM881 335q-32 0 -55 20.5t-23 59.5v44h77
v-14q0 -17 8 -21.5t26 -4.5h268l-247 -356l-20 21h263v-84h-395l253 364l16 -29h-171zM928 644l91 -93l-30 -8l92 101h95l-169 -174h-1l-173 174h95z" />
    <glyph glyph-name="uni01C6" unicode="&#x1c6;" horiz-adv-x="1074" 
d="M250 -10q-59 0 -106 27.5t-74 78.5t-27 119q0 70 29 119.5t78.5 76t111.5 26.5q48 0 91.5 -19.5t67.5 -54.5l-3 -35v449h102v-777h-103v99l11 -27q-31 -35 -76 -58.5t-102 -23.5zM282 77q35 0 62 12t46 34.5t27 52.5v84q-7 28 -26.5 49.5t-47.5 33.5t-61 12
q-37 0 -67.5 -17.5t-49 -48.5t-18.5 -72q0 -39 18.5 -71t49.5 -50.5t67 -18.5zM723 335q-32 0 -55 20.5t-23 59.5v44h77v-14q0 -17 8 -21.5t26 -4.5h268l-247 -356l-20 21h263v-84h-395l253 364l16 -29h-171zM770 644l91 -93l-30 -8l92 101h95l-169 -174h-1l-173 174h95z
" />
    <glyph glyph-name="uni01C7" unicode="&#x1c7;" horiz-adv-x="998" 
d="M102 726h107v-623h363v-103h-470v726zM896 136q0 -89 -34.5 -152.5t-94.5 -97t-138 -36.5v0v104q70 4 115 48t45 137v587h107v-590z" />
    <glyph glyph-name="uni01C8" unicode="&#x1c8;" horiz-adv-x="892" 
d="M102 726h107v-623h363v-103h-470v726zM715 -202l-60 64q28 24 44 58.5t16 81.5v417h104v-421q0 -72 -24.5 -121t-79.5 -79zM708 569q0 24 19 40t41 16q23 0 41 -16t18 -40t-18 -39.5t-41 -15.5q-22 0 -41 15.5t-19 39.5z" />
    <glyph glyph-name="uni01C9" unicode="&#x1c9;" horiz-adv-x="527" 
d="M79 777h103v-777h-103v777zM349 -202l-60 64q28 24 44 58.5t16 81.5v417h104v-421q0 -72 -24.5 -121t-79.5 -79zM342 569q0 24 19 40t41 16q23 0 41 -16t18 -40t-18 -39.5t-41 -15.5q-22 0 -41 15.5t-19 39.5z" />
    <glyph glyph-name="uni01CA" unicode="&#x1ca;" horiz-adv-x="1213" 
d="M735 -25l-559 555l31 -10l3 -520h-108v749h5l552 -556l-25 7l-2 526h106v-751h-3zM1111 136q0 -89 -34.5 -152.5t-94.5 -97t-138 -36.5v0v104q70 4 115 48t45 137v587h107v-590z" />
    <glyph glyph-name="uni01CB" unicode="&#x1cb;" horiz-adv-x="1107" 
d="M735 -25l-559 555l31 -10l3 -520h-108v749h5l552 -556l-25 7l-2 526h106v-751h-3zM930 -202l-60 64q28 24 44 58.5t16 81.5v417h104v-421q0 -72 -24.5 -121t-79.5 -79zM923 569q0 24 19 40t41 16q23 0 41 -16t18 -40t-18 -39.5t-41 -15.5q-22 0 -41 15.5t-19 39.5z" />
    <glyph glyph-name="uni01CC" unicode="&#x1cc;" horiz-adv-x="819" 
d="M171 419l9 -96l-4 13q21 45 65 72.5t104 27.5q59 0 97.5 -35t39.5 -91v-310h-103v274q-1 32 -19 52.5t-56 21.5q-34 0 -62 -20.5t-44 -55.5t-16 -81v-191h-103v419h92zM635 -202l-60 64q28 24 44 58.5t16 81.5v417h104v-421q0 -72 -24.5 -121t-79.5 -79zM628 569
q0 24 19 40t41 16q23 0 41 -16t18 -40t-18 -39.5t-41 -15.5q-22 0 -41 15.5t-19 39.5z" />
    <glyph glyph-name="uni01D3" unicode="&#x1d3;" horiz-adv-x="736" 
d="M198 259q0 -46 23 -83t61 -59t85 -22q50 0 89 22t61.5 59t22.5 83v467h105v-470q0 -79 -37 -138.5t-100 -92.5t-141 -33v0q-76 0 -139 33t-99.5 92.5t-36.5 138.5v470h106v-467zM290 937l91 -93l-30 -8l92 101h95l-169 -174h-1l-173 174h95z" />
    <glyph glyph-name="Gcaron" unicode="&#x1e6;" horiz-adv-x="754" 
d="M675 64q-15 -13 -42 -26t-60.5 -23t-68.5 -16.5t-66 -6.5q-88 0 -158 27t-120 75t-76.5 112.5t-26.5 140.5q0 93 30 165t81.5 121.5t119 75t141.5 25.5q65 0 120.5 -15t95.5 -39l-35 -98q-20 11 -49.5 21.5t-60.5 16.5t-57 6q-64 0 -114.5 -18.5t-86.5 -53.5t-55.5 -85
t-19.5 -113q0 -57 20 -104.5t56 -82t86 -53t111 -18.5q35 0 69 7t58 20v132h-140v103h248v-296zM329 923l91 -93l-30 -8l92 101h95l-169 -174h-1l-173 174h95z" />
    <glyph glyph-name="gcaron" unicode="&#x1e7;" horiz-adv-x="605" 
d="M284 -208q-49 0 -85 11t-64.5 30.5t-54.5 41.5l61 71q31 -29 64 -46.5t77 -17.5t75.5 14.5t48.5 40.5t17 62l1 109l7 -20q-17 -41 -63 -69.5t-113 -28.5q-57 0 -105.5 29t-77.5 79t-29 113q0 66 30.5 116.5t80.5 80t107 29.5q56 0 100 -21.5t66 -53.5l-6 -17l11 74h95
v-421q0 -58 -30.5 -104.5t-84.5 -74t-128 -27.5zM147 214q0 -39 18 -71t49.5 -50.5t70.5 -18.5q35 0 63 12.5t47.5 34t28.5 50.5v87q-9 29 -29 49.5t-48 32.5t-62 12q-39 0 -70.5 -17.5t-49.5 -48.5t-18 -72zM233 658l91 -93l-30 -8l92 101h95l-169 -174h-1l-173 174h95z
" />
    <glyph glyph-name="uni01EA" unicode="&#x1ea;" horiz-adv-x="856" 
d="M427 -8q-77 0 -144 28t-118 78.5t-79.5 118t-28.5 145.5q0 75 28.5 142t79.5 119t118 81.5t144 29.5q76 0 143 -29.5t119 -81.5t81 -119t29 -142q0 -74 -20.5 -130t-52 -97t-68.5 -71q-30 -25 -59.5 -44.5t-53.5 -37t-38 -36t-14 -42.5q0 -27 14.5 -38t32.5 -11
q20 0 37.5 12.5t31.5 35.5l38 -53q-18 -30 -51 -49t-65 -19q-51 0 -87 27.5t-36 77.5q0 27 12 49.5t33.5 40.5t48.5 29l92 31q-36 -21 -79 -33t-88 -12zM430 95q55 0 101.5 21t82 57t55.5 84.5t20 104.5q0 55 -20.5 103t-56 84.5t-83 57.5t-101.5 21q-56 0 -103 -21t-83 -58
t-55.5 -85t-19.5 -103q0 -54 20 -102.5t56.5 -85t84 -57.5t102.5 -21z" />
    <glyph glyph-name="uni01EB" unicode="&#x1eb;" horiz-adv-x="555" 
d="M349 -218q-31 0 -57.5 13t-43 39t-16.5 65t24.5 71t64.5 51l38 -1q-14 -12 -36.5 -21t-44.5 -9q-67 0 -119.5 27t-82.5 77.5t-30 119.5q0 63 29.5 113t83 79.5t121.5 29.5q69 0 120.5 -29t80 -79.5t28.5 -113.5q0 -61 -29 -111.5t-78 -85.5q-36 -27 -60 -51t-24 -60
q0 -25 14.5 -38t32.5 -13q20 0 37 12.5t32 35.5l38 -53q-18 -30 -52 -49t-71 -19zM277 74q38 0 67 18.5t45.5 50t16.5 70.5t-16.5 70t-45.5 50t-67 19q-36 0 -65 -19t-46 -50.5t-17 -69.5q0 -39 17 -70.5t46 -50t65 -18.5z" />
    <glyph glyph-name="uni01F3" unicode="&#x1f3;" horiz-adv-x="1074" 
d="M250 -10q-59 0 -106 27.5t-74 78.5t-27 119q0 70 29 119.5t78.5 76t111.5 26.5q48 0 91.5 -19.5t67.5 -54.5l-3 -35v449h102v-777h-103v99l11 -27q-31 -35 -76 -58.5t-102 -23.5zM282 77q35 0 62 12t46 34.5t27 52.5v84q-7 28 -26.5 49.5t-47.5 33.5t-61 12
q-37 0 -67.5 -17.5t-49 -48.5t-18.5 -72q0 -39 18.5 -71t49.5 -50.5t67 -18.5zM723 335q-32 0 -55 20.5t-23 59.5v44h77v-14q0 -17 8 -21.5t26 -4.5h268l-247 -356l-20 21h263v-84h-395l253 364l16 -29h-171z" />
    <glyph glyph-name="Aringacute" unicode="&#x1fa;" horiz-adv-x="700" 
d="M28 0l319 755h6l319 -755h-122l-232 588l77 51l-262 -639h-105zM222 272h258l37 -92h-327zM255 880q0 42 27.5 67.5t69.5 25.5t69.5 -25.5t27.5 -66.5t-28 -67t-69 -26q-42 0 -69.5 25.5t-27.5 66.5zM310 879q0 -19 12 -31t30 -12q19 0 30.5 12t11.5 31q0 21 -11.5 32.5
t-29.5 11.5q-19 0 -31 -11.5t-12 -32.5zM510 1144l-131 -134h-65l82 134h114z" />
    <glyph glyph-name="aringacute" unicode="&#x1fb;" horiz-adv-x="592" 
d="M254 -10q-59 0 -107 24.5t-76 73.5t-28 121q0 71 29.5 122t78 78.5t105.5 27.5q60 0 98.5 -25.5t60.5 -59.5l-7 -16l10 83h95v-419h-103v105l11 -25q-4 -8 -17 -22.5t-34.5 -30.5t-50 -26.5t-65.5 -10.5zM282 74q33 0 59 12t44 34t25 52v87q-8 28 -27 48.5t-45.5 32.5
t-58.5 12q-36 0 -66 -17.5t-48 -48.5t-18 -72q0 -39 18.5 -71t49.5 -50.5t67 -18.5zM203 560q0 42 27.5 67.5t69.5 25.5t69.5 -25.5t27.5 -66.5t-28 -67t-69 -26q-42 0 -69.5 25.5t-27.5 66.5zM258 559q0 -19 12 -31t30 -12q19 0 30.5 12t11.5 31q0 21 -11.5 32.5
t-29.5 11.5q-19 0 -31 -11.5t-12 -32.5zM430 848l-131 -134h-65l82 134h114z" />
    <glyph glyph-name="AEacute" unicode="&#x1fc;" horiz-adv-x="954" 
d="M479 726h398v-104h-292v-208h252v-103h-252v-208h306v-103h-412v726zM493 605q-2 -10 -5.5 -22.5t-4.5 -14.5l-349 -568h-123l468 726zM239 260h254v-85h-286zM818 905l-131 -134h-65l82 134h114z" />
    <glyph glyph-name="aeacute" unicode="&#x1fd;" horiz-adv-x="821" 
d="M208 -11q-57 0 -93.5 17t-54 47t-17.5 66q0 41 24.5 70t64.5 44.5t84 15.5q47 0 91 -15t68 -38l-17 -59q-30 23 -55.5 33.5t-62.5 10.5q-23 0 -42 -6t-30.5 -19t-11.5 -34q0 -27 20.5 -44t59.5 -17q19 0 39.5 6.5t39.5 18t30 25.5v58h43l1 -103q-21 -27 -50.5 -44
t-63.5 -25t-67 -8zM338 203v60q0 36 -16 55t-37.5 26t-38.5 7q-40 0 -71 -19t-53 -46l-52 66q32 33 79 58.5t111 25.5q52 0 91.5 -16.5t62.5 -48.5t23 -80v-29zM571 -10q-73 0 -125 28.5t-80 79t-28 115.5q0 62 31.5 112.5t85 80.5t118.5 30q84 0 139.5 -49t74.5 -137
l-341 -118l-24 60l273 98l-22 -13q-11 31 -37 54.5t-71 23.5q-37 0 -65.5 -17.5t-44.5 -48t-16 -71.5q0 -42 17.5 -73.5t47.5 -49.5t69 -18q26 0 51 10t47 25l46 -76q-32 -21 -71 -33.5t-75 -12.5zM530 614l-131 -134h-65l82 134h114z" />
    <glyph glyph-name="Oslashacute" unicode="&#x1fe;" horiz-adv-x="858" 
d="M757 685l-600 -701l-67 61l601 701zM57 362q0 75 28.5 142t79.5 119t118 81.5t144 29.5q76 0 143 -29.5t119 -81.5t81 -119t29 -142q0 -77 -29 -144t-80.5 -118t-119 -79.5t-143.5 -28.5q-77 0 -144 28t-118 78.5t-79.5 118t-28.5 145.5zM167 362q0 -56 20.5 -104.5
t56.5 -85t83.5 -57t102.5 -20.5q54 0 101 20.5t82.5 57t55.5 85t20 104.5t-20.5 104.5t-56 85.5t-83 58t-101.5 21q-56 0 -103 -21t-83 -58t-55.5 -86t-19.5 -104zM587 897l-131 -134h-65l82 134h114z" />
    <glyph glyph-name="oslashacute" unicode="&#x1ff;" horiz-adv-x="526" 
d="M483 408l-379 -434l-50 46l377 432zM43 214q0 63 30 113.5t83 79.5t121 29q69 0 121 -29t80.5 -79.5t28.5 -113.5t-28.5 -114t-80.5 -80.5t-122 -29.5q-67 0 -119.5 27t-83 77.5t-30.5 119.5zM147 213q0 -39 17 -70.5t46 -50t65 -18.5q37 0 66 18.5t45.5 50t16.5 70.5
t-16.5 70t-45.5 50t-66 19t-66 -19t-45.5 -50.5t-16.5 -69.5zM383 614l-131 -134h-65l82 134h114z" />
    <glyph glyph-name="uni0200" unicode="&#x200;" horiz-adv-x="700" 
d="M28 0l319 755h6l319 -755h-122l-232 588l77 51l-262 -639h-105zM222 272h258l37 -92h-327zM142 933h114l70 -134h-64zM290 933h114l70 -134h-64z" />
    <glyph glyph-name="uni0201" unicode="&#x201;" horiz-adv-x="592" 
d="M254 -10q-59 0 -107 24.5t-76 73.5t-28 121q0 71 29.5 122t78 78.5t105.5 27.5q60 0 98.5 -25.5t60.5 -59.5l-7 -16l10 83h95v-419h-103v105l11 -25q-4 -8 -17 -22.5t-34.5 -30.5t-50 -26.5t-65.5 -10.5zM282 74q33 0 59 12t44 34t25 52v87q-8 28 -27 48.5t-45.5 32.5
t-58.5 12q-36 0 -66 -17.5t-48 -48.5t-18 -72q0 -39 18.5 -71t49.5 -50.5t67 -18.5zM93 634h114l70 -134h-64zM241 634h114l70 -134h-64z" />
    <glyph glyph-name="uni0202" unicode="&#x202;" horiz-adv-x="700" 
d="M28 0l319 755h6l319 -755h-122l-232 588l77 51l-262 -639h-105zM222 272h258l37 -92h-327zM345 943q43 0 75 -20.5t52 -60t28 -97.5h-70q-4 32 -14.5 56.5t-27.5 38.5t-43 14q-25 0 -42.5 -14t-27 -38.5t-14.5 -56.5h-70q8 59 28 99t51.5 59.5t74.5 19.5z" />
    <glyph glyph-name="uni0203" unicode="&#x203;" horiz-adv-x="592" 
d="M254 -10q-59 0 -107 24.5t-76 73.5t-28 121q0 71 29.5 122t78 78.5t105.5 27.5q60 0 98.5 -25.5t60.5 -59.5l-7 -16l10 83h95v-419h-103v105l11 -25q-4 -8 -17 -22.5t-34.5 -30.5t-50 -26.5t-65.5 -10.5zM282 74q33 0 59 12t44 34t25 52v87q-8 28 -27 48.5t-45.5 32.5
t-58.5 12q-36 0 -66 -17.5t-48 -48.5t-18 -72q0 -39 18.5 -71t49.5 -50.5t67 -18.5zM313 654q44 0 75.5 -20.5t51.5 -60t28 -97.5h-69q-5 32 -15.5 56.5t-27.5 38t-43 13.5q-25 0 -42 -13.5t-27 -38t-14 -56.5h-70q8 59 28 98.5t51.5 59.5t73.5 20z" />
    <glyph glyph-name="uni0204" unicode="&#x204;" horiz-adv-x="655" 
d="M102 726h477v-103h-370v-207h329v-103h-329v-210h384v-103h-491v726zM129 919h114l70 -134h-64zM277 919h114l70 -134h-64z" />
    <glyph glyph-name="uni0205" unicode="&#x205;" horiz-adv-x="527" 
d="M276 -10q-73 0 -125 28.5t-80 79t-28 115.5q0 62 31.5 112.5t85 80.5t118.5 30q84 0 139.5 -49t74.5 -137l-341 -118l-24 60l273 98l-21 -13q-12 31 -38 54.5t-71 23.5q-36 0 -64.5 -17.5t-45 -48t-16.5 -71.5q0 -42 17.5 -73.5t48 -49.5t68.5 -18q27 0 51.5 10t46.5 25
l47 -76q-33 -21 -71.5 -33.5t-75.5 -12.5zM55 635h114l70 -134h-64zM203 635h114l70 -134h-64z" />
    <glyph glyph-name="uni0206" unicode="&#x206;" horiz-adv-x="655" 
d="M102 726h477v-103h-370v-207h329v-103h-329v-210h384v-103h-491v726zM332 929q43 0 75 -20.5t52 -60t28 -97.5h-70q-4 32 -14.5 56.5t-27.5 38.5t-43 14q-25 0 -42.5 -14t-27 -38.5t-14.5 -56.5h-70q8 59 28 99t51.5 59.5t74.5 19.5z" />
    <glyph glyph-name="uni0207" unicode="&#x207;" horiz-adv-x="527" 
d="M276 -10q-73 0 -125 28.5t-80 79t-28 115.5q0 62 31.5 112.5t85 80.5t118.5 30q84 0 139.5 -49t74.5 -137l-341 -118l-24 60l273 98l-21 -13q-12 31 -38 54.5t-71 23.5q-36 0 -64.5 -17.5t-45 -48t-16.5 -71.5q0 -42 17.5 -73.5t48 -49.5t68.5 -18q27 0 51.5 10t46.5 25
l47 -76q-33 -21 -71.5 -33.5t-75.5 -12.5zM276 654q44 0 75.5 -20.5t51.5 -60t28 -97.5h-69q-5 32 -15.5 56.5t-27.5 38t-43 13.5q-25 0 -42 -13.5t-27 -38t-14 -56.5h-70q8 59 28 98.5t51.5 59.5t73.5 20z" />
    <glyph glyph-name="uni0208" unicode="&#x208;" horiz-adv-x="311" 
d="M102 726h107v-726h-107v726zM-52 919h114l70 -134h-64zM96 919h114l70 -134h-64z" />
    <glyph glyph-name="uni0209" unicode="&#x209;" horiz-adv-x="260" 
d="M79 419h103v-419h-103v419zM-86 620h114l70 -134h-64zM62 620h114l70 -134h-64z" />
    <glyph glyph-name="uni020A" unicode="&#x20a;" horiz-adv-x="311" 
d="M102 726h107v-726h-107v726zM151 929q43 0 75 -20.5t52 -60t28 -97.5h-70q-4 32 -14.5 56.5t-27.5 38.5t-43 14q-25 0 -42.5 -14t-27 -38.5t-14.5 -56.5h-70q8 59 28 99t51.5 59.5t74.5 19.5z" />
    <glyph glyph-name="uni020B" unicode="&#x20b;" horiz-adv-x="260" 
d="M79 419h103v-419h-103v419zM135 639q44 0 75.5 -20.5t51.5 -60t28 -97.5h-69q-5 32 -15.5 56.5t-27.5 38t-43 13.5q-25 0 -42 -13.5t-27 -38t-14 -56.5h-70q8 59 28 98.5t51.5 59.5t73.5 20z" />
    <glyph glyph-name="uni020C" unicode="&#x20c;" horiz-adv-x="856" 
d="M57 362q0 75 28.5 142t79.5 119t118 81.5t144 29.5q76 0 143 -29.5t119 -81.5t81 -119t29 -142q0 -77 -29 -144t-80.5 -118t-119 -79.5t-143.5 -28.5q-77 0 -144 28t-118 78.5t-79.5 118t-28.5 145.5zM167 362q0 -56 20.5 -104.5t56.5 -85t83.5 -57t102.5 -20.5
q54 0 101 20.5t82.5 57t55.5 85t20 104.5t-20.5 104.5t-56 85.5t-83 58t-101.5 21q-56 0 -103 -21t-83 -58t-55.5 -86t-19.5 -104zM220 912h114l70 -134h-64zM368 912h114l70 -134h-64z" />
    <glyph glyph-name="uni020D" unicode="&#x20d;" horiz-adv-x="550" 
d="M43 214q0 63 30 113.5t83 79.5t121 29q69 0 121 -29t80.5 -79.5t28.5 -113.5t-28.5 -114t-80.5 -80.5t-122 -29.5q-67 0 -119.5 27t-83 77.5t-30.5 119.5zM147 213q0 -39 17 -70.5t46 -50t65 -18.5q37 0 66 18.5t45.5 50t16.5 70.5t-16.5 70t-45.5 50t-66 19t-66 -19
t-45.5 -50.5t-16.5 -69.5zM58 634h114l70 -134h-64zM206 634h114l70 -134h-64z" />
    <glyph glyph-name="uni020E" unicode="&#x20e;" horiz-adv-x="856" 
d="M57 362q0 75 28.5 142t79.5 119t118 81.5t144 29.5q76 0 143 -29.5t119 -81.5t81 -119t29 -142q0 -77 -29 -144t-80.5 -118t-119 -79.5t-143.5 -28.5q-77 0 -144 28t-118 78.5t-79.5 118t-28.5 145.5zM167 362q0 -56 20.5 -104.5t56.5 -85t83.5 -57t102.5 -20.5
q54 0 101 20.5t82.5 57t55.5 85t20 104.5t-20.5 104.5t-56 85.5t-83 58t-101.5 21q-56 0 -103 -21t-83 -58t-55.5 -86t-19.5 -104zM423 922q43 0 75 -20.5t52 -60t28 -97.5h-70q-4 32 -14.5 56.5t-27.5 38.5t-43 14q-25 0 -42.5 -14t-27 -38.5t-14.5 -56.5h-70q8 59 28 99
t51.5 59.5t74.5 19.5z" />
    <glyph glyph-name="uni020F" unicode="&#x20f;" horiz-adv-x="550" 
d="M43 214q0 63 30 113.5t83 79.5t121 29q69 0 121 -29t80.5 -79.5t28.5 -113.5t-28.5 -114t-80.5 -80.5t-122 -29.5q-67 0 -119.5 27t-83 77.5t-30.5 119.5zM147 213q0 -39 17 -70.5t46 -50t65 -18.5q37 0 66 18.5t45.5 50t16.5 70.5t-16.5 70t-45.5 50t-66 19t-66 -19
t-45.5 -50.5t-16.5 -69.5zM279 654q44 0 75.5 -20.5t51.5 -60t28 -97.5h-69q-5 32 -15.5 56.5t-27.5 38t-43 13.5q-25 0 -42 -13.5t-27 -38t-14 -56.5h-70q8 59 28 98.5t51.5 59.5t73.5 20z" />
    <glyph glyph-name="uni0210" unicode="&#x210;" horiz-adv-x="665" 
d="M301 726q57 0 105.5 -15.5t83 -44.5t54 -71.5t19.5 -98.5q0 -43 -13 -85t-42 -76t-76 -54.5t-117 -20.5h-106v-260h-107v726h199zM313 362q41 0 68.5 13t43 32.5t22 42t6.5 43.5q0 20 -6.5 42t-22 42t-41.5 33t-64 13h-110v-261h104zM436 300l188 -300h-124l-191 297z
M96 919h114l70 -134h-64zM244 919h114l70 -134h-64z" />
    <glyph glyph-name="uni0211" unicode="&#x211;" horiz-adv-x="383" 
d="M171 419l10 -120l-5 16q17 38 48 65t64.5 41.5t56.5 14.5l-5 -102q-48 3 -83.5 -18t-55.5 -56t-20 -75v-185h-102v419h92zM-34 620h114l70 -134h-64zM114 620h114l70 -134h-64z" />
    <glyph glyph-name="uni0212" unicode="&#x212;" horiz-adv-x="665" 
d="M301 726q57 0 105.5 -15.5t83 -44.5t54 -71.5t19.5 -98.5q0 -43 -13 -85t-42 -76t-76 -54.5t-117 -20.5h-106v-260h-107v726h199zM313 362q41 0 68.5 13t43 32.5t22 42t6.5 43.5q0 20 -6.5 42t-22 42t-41.5 33t-64 13h-110v-261h104zM436 300l188 -300h-124l-191 297z
M299 929q43 0 75 -20.5t52 -60t28 -97.5h-70q-4 32 -14.5 56.5t-27.5 38.5t-43 14q-25 0 -42.5 -14t-27 -38.5t-14.5 -56.5h-70q8 59 28 99t51.5 59.5t74.5 19.5z" />
    <glyph glyph-name="uni0213" unicode="&#x213;" horiz-adv-x="383" 
d="M171 419l10 -120l-5 16q17 38 48 65t64.5 41.5t56.5 14.5l-5 -102q-48 3 -83.5 -18t-55.5 -56t-20 -75v-185h-102v419h92zM187 639q44 0 75.5 -20.5t51.5 -60t28 -97.5h-69q-5 32 -15.5 56.5t-27.5 38t-43 13.5q-25 0 -42 -13.5t-27 -38t-14 -56.5h-70q8 59 28 98.5
t51.5 59.5t73.5 20z" />
    <glyph glyph-name="uni0214" unicode="&#x214;" horiz-adv-x="736" 
d="M198 259q0 -46 23 -83t61 -59t85 -22q50 0 89 22t61.5 59t22.5 83v467h105v-470q0 -79 -37 -138.5t-100 -92.5t-141 -33v0q-76 0 -139 33t-99.5 92.5t-36.5 138.5v470h106v-467zM161 919h114l70 -134h-64zM309 919h114l70 -134h-64z" />
    <glyph glyph-name="uni0215" unicode="&#x215;" horiz-adv-x="554" 
d="M213 -17q-58 0 -95 35t-39 90v311h103v-274q2 -32 18.5 -52.5t53.5 -21.5q34 0 60.5 20.5t42 56t15.5 81.5v190h103v-419h-93l-8 97l4 -16q-13 -28 -37 -50.5t-57 -35t-71 -12.5zM61 634h114l70 -134h-64zM209 634h114l70 -134h-64z" />
    <glyph glyph-name="uni0216" unicode="&#x216;" horiz-adv-x="736" 
d="M198 259q0 -46 23 -83t61 -59t85 -22q50 0 89 22t61.5 59t22.5 83v467h105v-470q0 -79 -37 -138.5t-100 -92.5t-141 -33v0q-76 0 -139 33t-99.5 92.5t-36.5 138.5v470h106v-467zM364 929q43 0 75 -20.5t52 -60t28 -97.5h-70q-4 32 -14.5 56.5t-27.5 38.5t-43 14
q-25 0 -42.5 -14t-27 -38.5t-14.5 -56.5h-70q8 59 28 99t51.5 59.5t74.5 19.5z" />
    <glyph glyph-name="uni0217" unicode="&#x217;" horiz-adv-x="554" 
d="M213 -17q-58 0 -95 35t-39 90v311h103v-274q2 -32 18.5 -52.5t53.5 -21.5q34 0 60.5 20.5t42 56t15.5 81.5v190h103v-419h-93l-8 97l4 -16q-13 -28 -37 -50.5t-57 -35t-71 -12.5zM282 654q44 0 75.5 -20.5t51.5 -60t28 -97.5h-69q-5 32 -15.5 56.5t-27.5 38t-43 13.5
q-25 0 -42 -13.5t-27 -38t-14 -56.5h-70q8 59 28 98.5t51.5 59.5t73.5 20z" />
    <glyph glyph-name="uni0218" unicode="&#x218;" horiz-adv-x="582" 
d="M480 587q-38 20 -82 34t-85 14q-56 0 -89 -25.5t-33 -69.5q0 -31 22 -54t57 -40t74 -32q33 -12 65.5 -28.5t59 -40.5t42 -59.5t15.5 -86.5q0 -58 -28.5 -105t-82 -74.5t-129.5 -27.5q-46 0 -89.5 10.5t-82 28t-69.5 38.5l48 83q24 -17 55 -32.5t64.5 -24.5t63.5 -9
q33 0 65 11.5t53 36t21 64.5q0 34 -18.5 57.5t-49 40.5t-65.5 30q-34 13 -69 29t-65 38.5t-48.5 56t-18.5 82.5q0 58 27.5 101.5t76.5 68.5t113 28q73 0 127 -18t96 -43zM258 -225l-53 36q24 20 34 58.5t4 75.5l91 -1q5 -27 -2.5 -59.5t-26 -62t-47.5 -47.5z" />
    <glyph glyph-name="uni0219" unicode="&#x219;" horiz-adv-x="415" 
d="M201 -9q-46 0 -89 16.5t-71 48.5l44 58q27 -25 54.5 -37.5t52.5 -12.5q20 0 36 4.5t26 15.5t10 29q0 21 -14 33t-36 20t-47 15q-53 17 -80 48.5t-27 74.5q0 33 16.5 62.5t50.5 48.5t84 19q46 0 81 -10.5t65 -35.5l-40 -62q-18 18 -42.5 27.5t-44.5 10.5q-18 0 -33 -5.5
t-24 -16t-9 -24.5q-1 -20 13.5 -32.5t37.5 -20t45 -15.5q31 -9 55 -24.5t38 -37.5t14 -56q0 -37 -18 -69.5t-55 -52t-93 -19.5zM174 -211l-53 36q24 20 34 58.5t4 75.5l91 -1q5 -27 -2.5 -59.5t-26 -62t-47.5 -47.5z" />
    <glyph glyph-name="uni021A" unicode="&#x21a;" horiz-adv-x="582" 
d="M49 726h484v-103h-191v-623h-107v623h-186v103zM260 -218l-53 36q24 20 34 58.5t4 75.5l91 -1q5 -27 -2.5 -59.5t-26 -62t-47.5 -47.5z" />
    <glyph glyph-name="uni021B" unicode="&#x21b;" horiz-adv-x="366" 
d="M119 603h103v-185h112v-81h-112v-337h-103v337h-74v81h74v185zM134 -204l-53 36q24 20 34 58.5t4 75.5l91 -1q5 -27 -2.5 -59.5t-26 -62t-47.5 -47.5z" />
    <glyph glyph-name="uni022A" unicode="&#x22a;" horiz-adv-x="856" 
d="M57 362q0 75 28.5 142t79.5 119t118 81.5t144 29.5q76 0 143 -29.5t119 -81.5t81 -119t29 -142q0 -77 -29 -144t-80.5 -118t-119 -79.5t-143.5 -28.5q-77 0 -144 28t-118 78.5t-79.5 118t-28.5 145.5zM167 362q0 -56 20.5 -104.5t56.5 -85t83.5 -57t102.5 -20.5
q54 0 101 20.5t82.5 57t55.5 85t20 104.5t-20.5 104.5t-56 85.5t-83 58t-101.5 21q-56 0 -103 -21t-83 -58t-55.5 -86t-19.5 -104zM272 826q0 24 17 40.5t39 16.5q20 0 38 -16.5t18 -40.5q0 -25 -18 -41t-38 -16q-21 0 -38.5 16t-17.5 41v0zM461 826q0 24 18 40.5t39 16.5
q20 0 37.5 -16.5t17.5 -40.5q0 -25 -17.5 -41t-37.5 -16q-21 0 -39 16t-18 41v0zM301 996h248v-72h-248v72z" />
    <glyph glyph-name="uni022B" unicode="&#x22b;" horiz-adv-x="550" 
d="M43 214q0 63 30 113.5t83 79.5t121 29q69 0 121 -29t80.5 -79.5t28.5 -113.5t-28.5 -114t-80.5 -80.5t-122 -29.5q-67 0 -119.5 27t-83 77.5t-30.5 119.5zM147 213q0 -39 17 -70.5t46 -50t65 -18.5q37 0 66 18.5t45.5 50t16.5 70.5t-16.5 70t-45.5 50t-66 19t-66 -19
t-45.5 -50.5t-16.5 -69.5zM123 544q0 24 17 40.5t39 16.5q20 0 38 -16.5t18 -40.5q0 -25 -18 -41t-38 -16q-21 0 -38.5 16t-17.5 41v0zM312 544q0 24 18 40.5t39 16.5q20 0 37.5 -16.5t17.5 -40.5q0 -25 -17.5 -41t-37.5 -16q-21 0 -39 16t-18 41v0zM152 731h248v-72h-248
v72z" />
    <glyph glyph-name="uni022C" unicode="&#x22c;" horiz-adv-x="856" 
d="M57 362q0 75 28.5 142t79.5 119t118 81.5t144 29.5q76 0 143 -29.5t119 -81.5t81 -119t29 -142q0 -77 -29 -144t-80.5 -118t-119 -79.5t-143.5 -28.5q-77 0 -144 28t-118 78.5t-79.5 118t-28.5 145.5zM167 362q0 -56 20.5 -104.5t56.5 -85t83.5 -57t102.5 -20.5
q54 0 101 20.5t82.5 57t55.5 85t20 104.5t-20.5 104.5t-56 85.5t-83 58t-101.5 21q-56 0 -103 -21t-83 -58t-55.5 -86t-19.5 -104zM504 799q-32 0 -53 14.5t-39 30.5q-12 11 -23.5 19.5t-26.5 8.5q-12 0 -21.5 -9t-13.5 -25.5t-4 -38.5h-54q-3 39 8.5 71t34.5 51t56 19
q26 0 45 -14t35 -29q14 -13 26.5 -23.5t27.5 -10.5q20 0 27.5 21.5t7.5 55.5l54 -1q4 -41 -6.5 -73t-32 -49.5t-48.5 -17.5zM301 1072h248v-72h-248v72z" />
    <glyph glyph-name="uni022D" unicode="&#x22d;" horiz-adv-x="550" 
d="M43 214q0 63 30 113.5t83 79.5t121 29q69 0 121 -29t80.5 -79.5t28.5 -113.5t-28.5 -114t-80.5 -80.5t-122 -29.5q-67 0 -119.5 27t-83 77.5t-30.5 119.5zM147 213q0 -39 17 -70.5t46 -50t65 -18.5q37 0 66 18.5t45.5 50t16.5 70.5t-16.5 70t-45.5 50t-66 19t-66 -19
t-45.5 -50.5t-16.5 -69.5zM353 474q-32 0 -53 14.5t-39 30.5q-12 11 -23.5 19.5t-26.5 8.5q-12 0 -21.5 -9t-13.5 -25.5t-4 -38.5h-54q-3 39 8.5 71t34.5 51t56 19q26 0 45 -14t35 -29q14 -13 26.5 -23.5t27.5 -10.5q20 0 27.5 21.5t7.5 55.5l54 -1q4 -41 -6.5 -73
t-32 -49.5t-48.5 -17.5zM161 752h248v-72h-248v72z" />
    <glyph glyph-name="uni0230" unicode="&#x230;" horiz-adv-x="856" 
d="M57 362q0 75 28.5 142t79.5 119t118 81.5t144 29.5q76 0 143 -29.5t119 -81.5t81 -119t29 -142q0 -77 -29 -144t-80.5 -118t-119 -79.5t-143.5 -28.5q-77 0 -144 28t-118 78.5t-79.5 118t-28.5 145.5zM167 362q0 -56 20.5 -104.5t56.5 -85t83.5 -57t102.5 -20.5
q54 0 101 20.5t82.5 57t55.5 85t20 104.5t-20.5 104.5t-56 85.5t-83 58t-101.5 21q-56 0 -103 -21t-83 -58t-55.5 -86t-19.5 -104zM369 823q0 24 19 40t41 16q23 0 41 -16t18 -40t-18 -39.5t-41 -15.5q-22 0 -41 15.5t-19 39.5zM301 992h248v-72h-248v72z" />
    <glyph glyph-name="uni0231" unicode="&#x231;" horiz-adv-x="550" 
d="M43 214q0 63 30 113.5t83 79.5t121 29q69 0 121 -29t80.5 -79.5t28.5 -113.5t-28.5 -114t-80.5 -80.5t-122 -29.5q-67 0 -119.5 27t-83 77.5t-30.5 119.5zM147 213q0 -39 17 -70.5t46 -50t65 -18.5q37 0 66 18.5t45.5 50t16.5 70.5t-16.5 70t-45.5 50t-66 19t-66 -19
t-45.5 -50.5t-16.5 -69.5zM217 583q0 24 19 40t41 16q23 0 41 -16t18 -40t-18 -39.5t-41 -15.5q-22 0 -41 15.5t-19 39.5zM152 769h248v-72h-248v72z" />
    <glyph glyph-name="uni0232" unicode="&#x232;" horiz-adv-x="698" 
d="M294 239l-269 487h132l209 -396l-32 -2l207 398h131l-271 -487v-239h-107v239zM236 850h248v-72h-248v72z" />
    <glyph glyph-name="uni0233" unicode="&#x233;" horiz-adv-x="502" 
d="M114 -201l277 620h94l-270 -620h-101zM220 -3l-203 422h116l166 -370zM134 548h248v-72h-248v72z" />
    <glyph glyph-name="uni0237" unicode="&#x237;" horiz-adv-x="267" 
d="M89 -202l-60 64q28 24 44 58.5t16 81.5v417h104v-421q0 -72 -24.5 -121t-79.5 -79z" />
    <glyph glyph-name="uni0259" unicode="&#x259;" horiz-adv-x="527" 
d="M251 429q72 0 124 -29t80 -79t28 -115q0 -62 -31.5 -113t-84.5 -81t-118 -30q-85 0 -140 49t-75 138l341 117l24 -59l-272 -99l21 14q12 -31 38 -54.5t70 -23.5q38 0 66 17.5t44 48t16 70.5q0 43 -17 74.5t-47.5 49t-68.5 17.5q-27 0 -51.5 -9t-46.5 -25l-47 76
q33 21 71.5 33.5t75.5 12.5z" />
    <glyph glyph-name="uni0272" unicode="&#x272;" horiz-adv-x="561" 
d="M81 -202l-60 64q28 24 44 58.5t16 81.5v42h103v-46q0 -69 -28.5 -118.5t-74.5 -81.5zM171 419l9 -96l-4 13q21 45 65 72.5t104 27.5q59 0 97.5 -35t39.5 -91v-310h-103v274q-1 32 -19 52.5t-56 21.5q-34 0 -62 -20.5t-44 -55.5t-16 -81v-191h-103v419h92z" />
    <glyph glyph-name="uni02BC" unicode="&#x2bc;" horiz-adv-x="203" 
d="M178 649q-22 -53 -43.5 -105t-43.5 -105h-83q20 53 39 105t39 105h92z" />
    <glyph glyph-name="circumflex" unicode="&#x2c6;" horiz-adv-x="418" 
d="M285 495l-91 93l29 7l-91 -100h-95l169 174h1l172 -174h-94z" />
    <glyph glyph-name="caron" unicode="&#x2c7;" horiz-adv-x="417" 
d="M131 660l91 -93l-30 -8l92 101h95l-169 -174h-1l-173 174h95z" />
    <glyph glyph-name="uni02C9" unicode="&#x2c9;" horiz-adv-x="349" 
d="M41 619h248v-72h-248v72z" />
    <glyph glyph-name="breve" unicode="&#x2d8;" horiz-adv-x="408" 
d="M205 479q-43 0 -75 20.5t-52 60.5t-28 97h69q5 -31 15.5 -56t28 -38.5t42.5 -13.5q26 0 42.5 13.5t26.5 38.5t14 56h70q-8 -59 -27.5 -98.5t-51 -59.5t-74.5 -20z" />
    <glyph glyph-name="dotaccent" unicode="&#x2d9;" horiz-adv-x="222" 
d="M50 579q0 24 19 40t41 16q23 0 41 -16t18 -40t-18 -39.5t-41 -15.5q-22 0 -41 15.5t-19 39.5z" />
    <glyph glyph-name="ring" unicode="&#x2da;" horiz-adv-x="329" 
d="M66 537q0 42 27.5 67.5t69.5 25.5t69.5 -25.5t27.5 -66.5t-28 -67t-69 -26q-42 0 -69.5 25.5t-27.5 66.5zM121 536q0 -19 12 -31t30 -12q19 0 30.5 12t11.5 31q0 21 -11.5 32.5t-29.5 11.5q-19 0 -31 -11.5t-12 -32.5z" />
    <glyph glyph-name="ogonek" unicode="&#x2db;" horiz-adv-x="349" 
d="M180 -218q-51 0 -87 31t-36 82q0 34 24 66t65 49l113 -10q-53 -23 -85 -46t-32 -52q0 -25 15 -36t32 -11q20 0 37.5 12.5t31.5 35.5l39 -53q-18 -30 -51.5 -49t-65.5 -19z" />
    <glyph glyph-name="tilde" unicode="&#x2dc;" horiz-adv-x="455" 
d="M314 456q-38 0 -62 16.5t-45 34.5q-13 12 -26.5 22t-29.5 10q-14 0 -24.5 -10.5t-15.5 -30t-4 -43.5l-64 1q-3 44 10 81t39.5 59t64.5 22q30 0 52 -16t41 -34q16 -15 30.5 -26t30.5 -11q15 0 23.5 11t12 31t3.5 45l63 -1q6 -48 -6.5 -84.5t-37 -56.5t-55.5 -20z" />
    <glyph glyph-name="hungarumlaut" unicode="&#x2dd;" horiz-adv-x="441" 
d="M240 620l-131 -134h-65l82 134h114zM397 618l-131 -134h-65l82 134h114z" />
    <glyph glyph-name="gravecomb" unicode="&#x300;" 
d="M17 620h114l70 -134h-64z" />
    <glyph glyph-name="acutecomb" unicode="&#x301;" 
d="M289 620l-131 -134h-65l82 134h114z" />
    <glyph glyph-name="uni0302" unicode="&#x302;" 
d="M285 495l-91 93l29 7l-91 -100h-95l169 174h1l172 -174h-94z" />
    <glyph glyph-name="tildecomb" unicode="&#x303;" 
d="M303 460q-32 0 -53 14.5t-39 30.5q-12 11 -23.5 19.5t-26.5 8.5q-12 0 -21.5 -9t-13.5 -25.5t-4 -38.5h-54q-3 39 8.5 71t34.5 51t56 19q26 0 45 -14t35 -29q14 -13 26.5 -23.5t27.5 -10.5q20 0 27.5 21.5t7.5 55.5l54 -1q4 -41 -6.5 -73t-32 -49.5t-48.5 -17.5z" />
    <glyph glyph-name="uni0304" unicode="&#x304;" 
d="M41 541h248v-72h-248v72z" />
    <glyph glyph-name="uni0306" unicode="&#x306;" 
d="M205 479q-43 0 -75 20.5t-52 60.5t-28 97h69q5 -31 15.5 -56t28 -38.5t42.5 -13.5q26 0 42.5 13.5t26.5 38.5t14 56h70q-8 -59 -27.5 -98.5t-51 -59.5t-74.5 -20z" />
    <glyph glyph-name="uni0307" unicode="&#x307;" 
d="M50 579q0 24 19 40t41 16q23 0 41 -16t18 -40t-18 -39.5t-41 -15.5q-22 0 -41 15.5t-19 39.5z" />
    <glyph glyph-name="uni0308" unicode="&#x308;" 
d="M73 530q0 24 17 40.5t39 16.5q20 0 38 -16.5t18 -40.5q0 -25 -18 -41t-38 -16q-21 0 -38.5 16t-17.5 41v0zM262 530q0 24 18 40.5t39 16.5q20 0 37.5 -16.5t17.5 -40.5q0 -25 -17.5 -41t-37.5 -16q-21 0 -39 16t-18 41v0z" />
    <glyph glyph-name="hookabovecomb" unicode="&#x309;" 
d="M154 590q19 15 31 28t12 31q0 15 -8 25t-24 10q-15 0 -26 -8.5t-19 -21.5l-38 24q17 33 42.5 48.5t54.5 15.5q26 0 43 -11t25.5 -29.5t8.5 -39.5q0 -35 -23 -59t-55 -44z" />
    <glyph glyph-name="uni030A" unicode="&#x30a;" 
d="M85 537q0 42 27.5 67.5t69.5 25.5t69.5 -25.5t27.5 -66.5t-28 -67t-69 -26q-42 0 -69.5 25.5t-27.5 66.5zM140 536q0 -19 12 -31t30 -12q19 0 30.5 12t11.5 31q0 21 -11.5 32.5t-29.5 11.5q-19 0 -31 -11.5t-12 -32.5z" />
    <glyph glyph-name="uni030B" unicode="&#x30b;" 
d="M238 620l-131 -134h-65l82 134h114zM395 618l-131 -134h-65l82 134h114z" />
    <glyph glyph-name="uni030C" unicode="&#x30c;" 
d="M107 660l91 -93l-30 -8l92 101h95l-169 -174h-1l-173 174h95z" />
    <glyph glyph-name="uni030F" unicode="&#x30f;" 
d="M104 620h114l70 -134h-64zM252 620h114l70 -134h-64z" />
    <glyph glyph-name="uni0311" unicode="&#x311;" 
d="M203 678q44 0 75.5 -20.5t51.5 -60t28 -97.5h-69q-5 32 -15.5 56.5t-27.5 38t-43 13.5q-25 0 -42 -13.5t-27 -38t-14 -56.5h-70q8 59 28 98.5t51.5 59.5t73.5 20z" />
    <glyph glyph-name="uni0312" unicode="&#x312;" 
d="M130 664l53 -36q-24 -20 -34 -58.5t-4 -75.5l-91 1q-4 28 3.5 60.5t26 62t46.5 46.5z" />
    <glyph glyph-name="uni031B" unicode="&#x31b;" 
d="M66 726q41 0 62.5 21.5t28.5 69.5h77q-8 -61 -31 -94.5t-58 -46.5t-79 -13v63z" />
    <glyph glyph-name="dotbelowcomb" unicode="&#x323;" 
d="M59 -105q0 21 16 34.5t36 13.5q19 0 34.5 -13.5t15.5 -34.5t-15.5 -34.5t-34.5 -13.5t-35.5 13.5t-16.5 34.5z" />
    <glyph glyph-name="uni0324" unicode="&#x324;" 
d="M73 -103q0 24 17 40.5t39 16.5q20 0 38 -16.5t18 -40.5q0 -25 -18 -41t-38 -16q-21 0 -38.5 16t-17.5 41v0zM262 -103q0 24 18 40.5t39 16.5q20 0 37.5 -16.5t17.5 -40.5q0 -25 -17.5 -41t-37.5 -16q-21 0 -39 16t-18 41v0z" />
    <glyph glyph-name="uni0326" unicode="&#x326;" 
d="M105 -204l-53 36q24 20 34 58.5t4 75.5l91 -1q5 -27 -2.5 -59.5t-26 -62t-47.5 -47.5z" />
    <glyph glyph-name="uni0327" unicode="&#x327;" 
d="M71 -150q11 -12 27.5 -19.5t37.5 -7.5q25 0 45.5 11.5t20.5 32.5q0 16 -13.5 29.5t-49.5 13.5q-16 0 -33 -4t-31 -9l-17 50l69 62l79 -3l-73 -84l-22 25q11 4 25.5 6.5t28.5 2.5q54 2 88.5 -20.5t34.5 -66.5q0 -35 -20 -57t-52 -33t-69 -11q-39 0 -65.5 11.5t-42.5 27.5z
" />
    <glyph glyph-name="uni0328" unicode="&#x328;" 
d="M196 -218q-51 0 -87 31t-36 82q0 34 24 66t65 49l113 -10q-53 -23 -85 -46t-32 -52q0 -25 15 -36t32 -11q20 0 37.5 12.5t31.5 35.5l39 -53q-18 -30 -51.5 -49t-65.5 -19z" />
    <glyph glyph-name="uni032E" unicode="&#x32e;" 
d="M205 -223q-43 0 -75 20.5t-52 60.5t-28 97h69q5 -31 15.5 -56t28 -38.5t42.5 -13.5q26 0 42.5 13.5t26.5 38.5t14 56h70q-8 -59 -27.5 -98.5t-51 -59.5t-74.5 -20z" />
    <glyph glyph-name="uni0331" unicode="&#x331;" 
d="M41 -86h248v-72h-248v72z" />
    <glyph glyph-name="uni0335" unicode="&#x335;" 
d="M42 379h285v-96h-285v96z" />
    <glyph glyph-name="uni0394" unicode="&#x394;" horiz-adv-x="737" 
d="M28 0l339 755h5l338 -755h-682zM575 53l-253 577l91 -13l-257 -575l-61 60h535z" />
    <glyph glyph-name="uni03BC" unicode="&#x3bc;" horiz-adv-x="554" 
d="M213 -17q-58 0 -95 35t-39 90v311h103v-274q2 -32 18.5 -52.5t53.5 -21.5q34 0 60.5 20.5t42 56t15.5 81.5v190h103v-419h-93l-8 97l4 -16q-13 -28 -37 -50.5t-57 -35t-71 -12.5zM79 379h93v-614h-93v614z" />
    <glyph glyph-name="pi" unicode="&#x3c0;" horiz-adv-x="394" 
d="M8 354h376v-90h-56v-264h-91v264h-81v-264h-92v264h-56v90z" />
    <glyph glyph-name="Wgrave" unicode="&#x1e80;" horiz-adv-x="1011" 
d="M39 722h124l188 -534l-18 7l142 365l49 -145l-196 -449zM391 722h106l206 -525l-21 4l176 521h114l-284 -754zM348 903h114l70 -134h-64z" />
    <glyph glyph-name="wgrave" unicode="&#x1e81;" horiz-adv-x="676" 
d="M354 419l117 -269l-20 -1l107 270h101l-192 -444l-134 285l-123 -285l-193 444h101l124 -282l-36 6l90 208l-31 68h89zM186 620h114l70 -134h-64z" />
    <glyph glyph-name="Wacute" unicode="&#x1e82;" horiz-adv-x="1011" 
d="M39 722h124l188 -534l-18 7l142 365l49 -145l-196 -449zM391 722h106l206 -525l-21 4l176 521h114l-284 -754zM666 897l-131 -134h-65l82 134h114z" />
    <glyph glyph-name="wacute" unicode="&#x1e83;" horiz-adv-x="676" 
d="M354 419l117 -269l-20 -1l107 270h101l-192 -444l-134 285l-123 -285l-193 444h101l124 -282l-36 6l90 208l-31 68h89zM458 614l-131 -134h-65l82 134h114z" />
    <glyph glyph-name="Wdieresis" unicode="&#x1e84;" horiz-adv-x="1011" 
d="M39 722h124l188 -534l-18 7l142 365l49 -145l-196 -449zM391 722h106l206 -525l-21 4l176 521h114l-284 -754zM350 826q0 24 17 40.5t39 16.5q20 0 38 -16.5t18 -40.5q0 -25 -18 -41t-38 -16q-21 0 -38.5 16t-17.5 41v0zM539 826q0 24 18 40.5t39 16.5q20 0 37.5 -16.5
t17.5 -40.5q0 -25 -17.5 -41t-37.5 -16q-21 0 -39 16t-18 41v0z" />
    <glyph glyph-name="wdieresis" unicode="&#x1e85;" horiz-adv-x="676" 
d="M354 419l117 -269l-20 -1l107 270h101l-192 -444l-134 285l-123 -285l-193 444h101l124 -282l-36 6l90 208l-31 68h89zM186 530q0 24 17 40.5t39 16.5q20 0 38 -16.5t18 -40.5q0 -25 -18 -41t-38 -16q-21 0 -38.5 16t-17.5 41v0zM375 530q0 24 18 40.5t39 16.5
q20 0 37.5 -16.5t17.5 -40.5q0 -25 -17.5 -41t-37.5 -16q-21 0 -39 16t-18 41v0z" />
    <glyph glyph-name="uni1E9E" unicode="&#x1e9e;" horiz-adv-x="839" 
d="M571 -8q-63 0 -122 18t-108 51l47 83q37 -25 84.5 -41.5t89.5 -16.5q25 0 51.5 10t44.5 32t18 58q0 27 -16.5 46.5t-42 35.5t-54.5 32q-38 20 -75.5 46.5t-62.5 63.5t-25 88t20.5 90t59.5 62.5t95 26.5q27 0 44 -7t28 -17l-33 -52q-39 39 -90.5 58t-105.5 19
q-63 0 -110 -29.5t-73 -92.5t-26 -162v-394h-107v398q0 108 35 190.5t103 128.5t167 46q56 0 110.5 -15t99 -38.5t67.5 -49.5l-29 -78q-7 5 -23.5 13.5t-40.5 8.5q-25 0 -44 -11.5t-29.5 -31t-10.5 -44.5q0 -32 17 -54t44 -39.5t56 -34.5q28 -16 57 -33.5t52.5 -40t38.5 -54
t15 -75.5q0 -52 -25.5 -96t-73.5 -71t-117 -27z" />
    <glyph glyph-name="uni1EA0" unicode="&#x1ea0;" horiz-adv-x="700" 
d="M28 0l319 755h6l319 -755h-122l-232 588l77 51l-262 -639h-105zM222 272h258l37 -92h-327zM288 -105q0 24 19 40t41 16q23 0 41 -16t18 -40t-18 -39.5t-41 -15.5q-22 0 -41 15.5t-19 39.5z" />
    <glyph glyph-name="uni1EA1" unicode="&#x1ea1;" horiz-adv-x="592" 
d="M254 -10q-59 0 -107 24.5t-76 73.5t-28 121q0 71 29.5 122t78 78.5t105.5 27.5q60 0 98.5 -25.5t60.5 -59.5l-7 -16l10 83h95v-419h-103v105l11 -25q-4 -8 -17 -22.5t-34.5 -30.5t-50 -26.5t-65.5 -10.5zM282 74q33 0 59 12t44 34t25 52v87q-8 28 -27 48.5t-45.5 32.5
t-58.5 12q-36 0 -66 -17.5t-48 -48.5t-18 -72q0 -39 18.5 -71t49.5 -50.5t67 -18.5zM244 -105q0 21 16 34.5t36 13.5q19 0 34.5 -13.5t15.5 -34.5t-15.5 -34.5t-34.5 -13.5t-35.5 13.5t-16.5 34.5z" />
    <glyph glyph-name="uni1EA2" unicode="&#x1ea2;" horiz-adv-x="700" 
d="M28 0l319 755h6l319 -755h-122l-232 588l77 51l-262 -639h-105zM222 272h258l37 -92h-327zM343 823q19 15 31 28t12 31q0 15 -8 25t-24 10q-15 0 -26 -8.5t-19 -21.5l-38 24q17 33 42.5 48.5t54.5 15.5q26 0 43 -11t25.5 -29.5t8.5 -39.5q0 -35 -23 -59t-55 -44z" />
    <glyph glyph-name="uni1EA3" unicode="&#x1ea3;" horiz-adv-x="592" 
d="M254 -10q-59 0 -107 24.5t-76 73.5t-28 121q0 71 29.5 122t78 78.5t105.5 27.5q60 0 98.5 -25.5t60.5 -59.5l-7 -16l10 83h95v-419h-103v105l11 -25q-4 -8 -17 -22.5t-34.5 -30.5t-50 -26.5t-65.5 -10.5zM282 74q33 0 59 12t44 34t25 52v87q-8 28 -27 48.5t-45.5 32.5
t-58.5 12q-36 0 -66 -17.5t-48 -48.5t-18 -72q0 -39 18.5 -71t49.5 -50.5t67 -18.5zM288 511q19 15 31 28t12 31q0 15 -8 25t-24 10q-15 0 -26 -8.5t-19 -21.5l-38 24q17 33 42.5 48.5t54.5 15.5q26 0 43 -11t25.5 -29.5t8.5 -39.5q0 -35 -23 -59t-55 -44z" />
    <glyph glyph-name="uni1EA4" unicode="&#x1ea4;" horiz-adv-x="700" 
d="M28 0l319 755h6l319 -755h-122l-232 588l77 51l-262 -639h-105zM222 272h258l37 -92h-327zM429 817l-91 93l29 7l-91 -100h-95l169 174h1l172 -174h-94zM633 1051l-131 -134h-65l82 134h114z" />
    <glyph glyph-name="uni1EA5" unicode="&#x1ea5;" horiz-adv-x="592" 
d="M254 -10q-59 0 -107 24.5t-76 73.5t-28 121q0 71 29.5 122t78 78.5t105.5 27.5q60 0 98.5 -25.5t60.5 -59.5l-7 -16l10 83h95v-419h-103v105l11 -25q-4 -8 -17 -22.5t-34.5 -30.5t-50 -26.5t-65.5 -10.5zM282 74q33 0 59 12t44 34t25 52v87q-8 28 -27 48.5t-45.5 32.5
t-58.5 12q-36 0 -66 -17.5t-48 -48.5t-18 -72q0 -39 18.5 -71t49.5 -50.5t67 -18.5zM389 496l-91 93l29 7l-91 -100h-95l169 174h1l172 -174h-94zM593 730l-131 -134h-65l82 134h114z" />
    <glyph glyph-name="uni1EA6" unicode="&#x1ea6;" horiz-adv-x="700" 
d="M28 0l319 755h6l319 -755h-122l-232 588l77 51l-262 -639h-105zM222 272h258l37 -92h-327zM423 815l-91 93l29 7l-91 -100h-95l169 174h1l172 -174h-94zM35 1056h114l70 -134h-64z" />
    <glyph glyph-name="uni1EA7" unicode="&#x1ea7;" horiz-adv-x="592" 
d="M254 -10q-59 0 -107 24.5t-76 73.5t-28 121q0 71 29.5 122t78 78.5t105.5 27.5q60 0 98.5 -25.5t60.5 -59.5l-7 -16l10 83h95v-419h-103v105l11 -25q-4 -8 -17 -22.5t-34.5 -30.5t-50 -26.5t-65.5 -10.5zM282 74q33 0 59 12t44 34t25 52v87q-8 28 -27 48.5t-45.5 32.5
t-58.5 12q-36 0 -66 -17.5t-48 -48.5t-18 -72q0 -39 18.5 -71t49.5 -50.5t67 -18.5zM383 494l-91 93l29 7l-91 -100h-95l169 174h1l172 -174h-94zM-5 735h114l70 -134h-64z" />
    <glyph glyph-name="uni1EA8" unicode="&#x1ea8;" horiz-adv-x="700" 
d="M28 0l319 755h6l319 -755h-122l-232 588l77 51l-262 -639h-105zM222 272h258l37 -92h-327zM426 817l-91 93l29 7l-91 -100h-95l169 174h1l172 -174h-94zM511 923q19 15 31 28t12 31q0 15 -8 25t-24 10q-15 0 -26 -8.5t-19 -21.5l-38 24q17 33 42.5 48.5t54.5 15.5
q26 0 43 -11t25.5 -29.5t8.5 -39.5q0 -35 -23 -59t-55 -44z" />
    <glyph glyph-name="uni1EA9" unicode="&#x1ea9;" horiz-adv-x="592" 
d="M254 -10q-59 0 -107 24.5t-76 73.5t-28 121q0 71 29.5 122t78 78.5t105.5 27.5q60 0 98.5 -25.5t60.5 -59.5l-7 -16l10 83h95v-419h-103v105l11 -25q-4 -8 -17 -22.5t-34.5 -30.5t-50 -26.5t-65.5 -10.5zM282 74q33 0 59 12t44 34t25 52v87q-8 28 -27 48.5t-45.5 32.5
t-58.5 12q-36 0 -66 -17.5t-48 -48.5t-18 -72q0 -39 18.5 -71t49.5 -50.5t67 -18.5zM386 496l-91 93l29 7l-91 -100h-95l169 174h1l172 -174h-94zM471 602q19 15 31 28t12 31q0 15 -8 25t-24 10q-15 0 -26 -8.5t-19 -21.5l-38 24q17 33 42.5 48.5t54.5 15.5q26 0 43 -11
t25.5 -29.5t8.5 -39.5q0 -35 -23 -59t-55 -44z" />
    <glyph glyph-name="uni1EAA" unicode="&#x1eaa;" horiz-adv-x="700" 
d="M28 0l319 755h6l319 -755h-122l-232 588l77 51l-262 -639h-105zM222 272h258l37 -92h-327zM421 811l-91 93l29 7l-91 -100h-95l169 174h1l172 -174h-94zM422 1011q-32 0 -53 14.5t-39 30.5q-12 11 -23.5 19.5t-26.5 8.5q-12 0 -21.5 -9t-13.5 -25.5t-4 -38.5h-54
q-3 39 8.5 71t34.5 51t56 19q26 0 45 -14t35 -29q14 -13 26.5 -23.5t27.5 -10.5q20 0 27.5 21.5t7.5 55.5l54 -1q4 -41 -6.5 -73t-32 -49.5t-48.5 -17.5z" />
    <glyph glyph-name="uni1EAB" unicode="&#x1eab;" horiz-adv-x="592" 
d="M254 -10q-59 0 -107 24.5t-76 73.5t-28 121q0 71 29.5 122t78 78.5t105.5 27.5q60 0 98.5 -25.5t60.5 -59.5l-7 -16l10 83h95v-419h-103v105l11 -25q-4 -8 -17 -22.5t-34.5 -30.5t-50 -26.5t-65.5 -10.5zM282 74q33 0 59 12t44 34t25 52v87q-8 28 -27 48.5t-45.5 32.5
t-58.5 12q-36 0 -66 -17.5t-48 -48.5t-18 -72q0 -39 18.5 -71t49.5 -50.5t67 -18.5zM382 490l-91 93l29 7l-91 -100h-95l169 174h1l172 -174h-94zM383 690q-32 0 -53 14.5t-39 30.5q-12 11 -23.5 19.5t-26.5 8.5q-12 0 -21.5 -9t-13.5 -25.5t-4 -38.5h-54q-3 39 8.5 71
t34.5 51t56 19q26 0 45 -14t35 -29q14 -13 26.5 -23.5t27.5 -10.5q20 0 27.5 21.5t7.5 55.5l54 -1q4 -41 -6.5 -73t-32 -49.5t-48.5 -17.5z" />
    <glyph glyph-name="uni1EAC" unicode="&#x1eac;" horiz-adv-x="700" 
d="M28 0l319 755h6l319 -755h-122l-232 588l77 51l-262 -639h-105zM222 272h258l37 -92h-327zM288 -105q0 24 19 40t41 16q23 0 41 -16t18 -40t-18 -39.5t-41 -15.5q-22 0 -41 15.5t-19 39.5zM421 801l-91 93l29 7l-91 -100h-95l169 174h1l172 -174h-94z" />
    <glyph glyph-name="uni1EAD" unicode="&#x1ead;" horiz-adv-x="592" 
d="M254 -10q-59 0 -107 24.5t-76 73.5t-28 121q0 71 29.5 122t78 78.5t105.5 27.5q60 0 98.5 -25.5t60.5 -59.5l-7 -16l10 83h95v-419h-103v105l11 -25q-4 -8 -17 -22.5t-34.5 -30.5t-50 -26.5t-65.5 -10.5zM282 74q33 0 59 12t44 34t25 52v87q-8 28 -27 48.5t-45.5 32.5
t-58.5 12q-36 0 -66 -17.5t-48 -48.5t-18 -72q0 -39 18.5 -71t49.5 -50.5t67 -18.5zM244 -105q0 21 16 34.5t36 13.5q19 0 34.5 -13.5t15.5 -34.5t-15.5 -34.5t-34.5 -13.5t-35.5 13.5t-16.5 34.5zM387 501l-91 93l29 7l-91 -100h-95l169 174h1l172 -174h-94z" />
    <glyph glyph-name="uni1EAE" unicode="&#x1eae;" horiz-adv-x="700" 
d="M28 0l319 755h6l319 -755h-122l-232 588l77 51l-262 -639h-105zM222 272h258l37 -92h-327zM351 789q-43 0 -75 20.5t-52 60.5t-28 97h69q5 -31 15.5 -56t28 -38.5t42.5 -13.5q26 0 42.5 13.5t26.5 38.5t14 56h70q-8 -59 -27.5 -98.5t-51 -59.5t-74.5 -20zM509 1138
l-131 -134h-65l82 134h114z" />
    <glyph glyph-name="uni1EAF" unicode="&#x1eaf;" horiz-adv-x="592" 
d="M254 -10q-59 0 -107 24.5t-76 73.5t-28 121q0 71 29.5 122t78 78.5t105.5 27.5q60 0 98.5 -25.5t60.5 -59.5l-7 -16l10 83h95v-419h-103v105l11 -25q-4 -8 -17 -22.5t-34.5 -30.5t-50 -26.5t-65.5 -10.5zM282 74q33 0 59 12t44 34t25 52v87q-8 28 -27 48.5t-45.5 32.5
t-58.5 12q-36 0 -66 -17.5t-48 -48.5t-18 -72q0 -39 18.5 -71t49.5 -50.5t67 -18.5zM312 481q-43 0 -75 20.5t-52 60.5t-28 97h69q5 -31 15.5 -56t28 -38.5t42.5 -13.5q26 0 42.5 13.5t26.5 38.5t14 56h70q-8 -59 -27.5 -98.5t-51 -59.5t-74.5 -20zM419 814l-131 -134h-65
l82 134h114z" />
    <glyph glyph-name="uni1EB0" unicode="&#x1eb0;" horiz-adv-x="700" 
d="M28 0l319 755h6l319 -755h-122l-232 588l77 51l-262 -639h-105zM222 272h258l37 -92h-327zM351 789q-43 0 -75 20.5t-52 60.5t-28 97h69q5 -31 15.5 -56t28 -38.5t42.5 -13.5q26 0 42.5 13.5t26.5 38.5t14 56h70q-8 -59 -27.5 -98.5t-51 -59.5t-74.5 -20zM191 1144h114
l70 -134h-64z" />
    <glyph glyph-name="uni1EB1" unicode="&#x1eb1;" horiz-adv-x="592" 
d="M254 -10q-59 0 -107 24.5t-76 73.5t-28 121q0 71 29.5 122t78 78.5t105.5 27.5q60 0 98.5 -25.5t60.5 -59.5l-7 -16l10 83h95v-419h-103v105l11 -25q-4 -8 -17 -22.5t-34.5 -30.5t-50 -26.5t-65.5 -10.5zM282 74q33 0 59 12t44 34t25 52v87q-8 28 -27 48.5t-45.5 32.5
t-58.5 12q-36 0 -66 -17.5t-48 -48.5t-18 -72q0 -39 18.5 -71t49.5 -50.5t67 -18.5zM312 481q-43 0 -75 20.5t-52 60.5t-28 97h69q5 -31 15.5 -56t28 -38.5t42.5 -13.5q26 0 42.5 13.5t26.5 38.5t14 56h70q-8 -59 -27.5 -98.5t-51 -59.5t-74.5 -20zM162 812h114l70 -134h-64
z" />
    <glyph glyph-name="uni1EB2" unicode="&#x1eb2;" horiz-adv-x="700" 
d="M28 0l319 755h6l319 -755h-122l-232 588l77 51l-262 -639h-105zM222 272h258l37 -92h-327zM351 789q-43 0 -75 20.5t-52 60.5t-28 97h69q5 -31 15.5 -56t28 -38.5t42.5 -13.5q26 0 42.5 13.5t26.5 38.5t14 56h70q-8 -59 -27.5 -98.5t-51 -59.5t-74.5 -20zM342 1043
q19 15 31 28t12 31q0 15 -8 25t-24 10q-15 0 -26 -8.5t-19 -21.5l-38 24q17 33 42.5 48.5t54.5 15.5q26 0 43 -11t25.5 -29.5t8.5 -39.5q0 -35 -23 -59t-55 -44z" />
    <glyph glyph-name="uni1EB3" unicode="&#x1eb3;" horiz-adv-x="592" 
d="M254 -10q-59 0 -107 24.5t-76 73.5t-28 121q0 71 29.5 122t78 78.5t105.5 27.5q60 0 98.5 -25.5t60.5 -59.5l-7 -16l10 83h95v-419h-103v105l11 -25q-4 -8 -17 -22.5t-34.5 -30.5t-50 -26.5t-65.5 -10.5zM282 74q33 0 59 12t44 34t25 52v87q-8 28 -27 48.5t-45.5 32.5
t-58.5 12q-36 0 -66 -17.5t-48 -48.5t-18 -72q0 -39 18.5 -71t49.5 -50.5t67 -18.5zM312 481q-43 0 -75 20.5t-52 60.5t-28 97h69q5 -31 15.5 -56t28 -38.5t42.5 -13.5q26 0 42.5 13.5t26.5 38.5t14 56h70q-8 -59 -27.5 -98.5t-51 -59.5t-74.5 -20zM306 695q19 15 31 28
t12 31q0 15 -8 25t-24 10q-15 0 -26 -8.5t-19 -21.5l-38 24q17 33 42.5 48.5t54.5 15.5q26 0 43 -11t25.5 -29.5t8.5 -39.5q0 -35 -23 -59t-55 -44z" />
    <glyph glyph-name="uni1EB4" unicode="&#x1eb4;" horiz-adv-x="700" 
d="M28 0l319 755h6l319 -755h-122l-232 588l77 51l-262 -639h-105zM222 272h258l37 -92h-327zM351 789q-43 0 -75 20.5t-52 60.5t-28 97h69q5 -31 15.5 -56t28 -38.5t42.5 -13.5q26 0 42.5 13.5t26.5 38.5t14 56h70q-8 -59 -27.5 -98.5t-51 -59.5t-74.5 -20zM425 1039
q-32 0 -53 14.5t-39 30.5q-12 11 -23.5 19.5t-26.5 8.5q-12 0 -21.5 -9t-13.5 -25.5t-4 -38.5h-54q-3 39 8.5 71t34.5 51t56 19q26 0 45 -14t35 -29q14 -13 26.5 -23.5t27.5 -10.5q20 0 27.5 21.5t7.5 55.5l54 -1q4 -41 -6.5 -73t-32 -49.5t-48.5 -17.5z" />
    <glyph glyph-name="uni1EB5" unicode="&#x1eb5;" horiz-adv-x="592" 
d="M254 -10q-59 0 -107 24.5t-76 73.5t-28 121q0 71 29.5 122t78 78.5t105.5 27.5q60 0 98.5 -25.5t60.5 -59.5l-7 -16l10 83h95v-419h-103v105l11 -25q-4 -8 -17 -22.5t-34.5 -30.5t-50 -26.5t-65.5 -10.5zM282 74q33 0 59 12t44 34t25 52v87q-8 28 -27 48.5t-45.5 32.5
t-58.5 12q-36 0 -66 -17.5t-48 -48.5t-18 -72q0 -39 18.5 -71t49.5 -50.5t67 -18.5zM311 481q-43 0 -75 20.5t-52 60.5t-28 97h69q5 -31 15.5 -56t28 -38.5t42.5 -13.5q26 0 42.5 13.5t26.5 38.5t14 56h70q-8 -59 -27.5 -98.5t-51 -59.5t-74.5 -20zM396 691q-32 0 -53 14.5
t-39 30.5q-12 11 -23.5 19.5t-26.5 8.5q-12 0 -21.5 -9t-13.5 -25.5t-4 -38.5h-54q-3 39 8.5 71t34.5 51t56 19q26 0 45 -14t35 -29q14 -13 26.5 -23.5t27.5 -10.5q20 0 27.5 21.5t7.5 55.5l54 -1q4 -41 -6.5 -73t-32 -49.5t-48.5 -17.5z" />
    <glyph glyph-name="uni1EB6" unicode="&#x1eb6;" horiz-adv-x="700" 
d="M28 0l319 755h6l319 -755h-122l-232 588l77 51l-262 -639h-105zM222 272h258l37 -92h-327zM288 -105q0 24 19 40t41 16q23 0 41 -16t18 -40t-18 -39.5t-41 -15.5q-22 0 -41 15.5t-19 39.5zM351 789q-43 0 -75 20.5t-52 60.5t-28 97h69q5 -31 15.5 -56t28 -38.5
t42.5 -13.5q26 0 42.5 13.5t26.5 38.5t14 56h70q-8 -59 -27.5 -98.5t-51 -59.5t-74.5 -20z" />
    <glyph glyph-name="uni1EB7" unicode="&#x1eb7;" horiz-adv-x="592" 
d="M254 -10q-59 0 -107 24.5t-76 73.5t-28 121q0 71 29.5 122t78 78.5t105.5 27.5q60 0 98.5 -25.5t60.5 -59.5l-7 -16l10 83h95v-419h-103v105l11 -25q-4 -8 -17 -22.5t-34.5 -30.5t-50 -26.5t-65.5 -10.5zM282 74q33 0 59 12t44 34t25 52v87q-8 28 -27 48.5t-45.5 32.5
t-58.5 12q-36 0 -66 -17.5t-48 -48.5t-18 -72q0 -39 18.5 -71t49.5 -50.5t67 -18.5zM244 -105q0 21 16 34.5t36 13.5q19 0 34.5 -13.5t15.5 -34.5t-15.5 -34.5t-34.5 -13.5t-35.5 13.5t-16.5 34.5zM312 481q-43 0 -75 20.5t-52 60.5t-28 97h69q5 -31 15.5 -56t28 -38.5
t42.5 -13.5q26 0 42.5 13.5t26.5 38.5t14 56h70q-8 -59 -27.5 -98.5t-51 -59.5t-74.5 -20z" />
    <glyph glyph-name="uni1EB8" unicode="&#x1eb8;" horiz-adv-x="655" 
d="M102 726h477v-103h-370v-207h329v-103h-329v-210h384v-103h-491v726zM275 -105q0 24 19 40t41 16q23 0 41 -16t18 -40t-18 -39.5t-41 -15.5q-22 0 -41 15.5t-19 39.5z" />
    <glyph glyph-name="uni1EB9" unicode="&#x1eb9;" horiz-adv-x="527" 
d="M276 -10q-73 0 -125 28.5t-80 79t-28 115.5q0 62 31.5 112.5t85 80.5t118.5 30q84 0 139.5 -49t74.5 -137l-341 -118l-24 60l273 98l-21 -13q-12 31 -38 54.5t-71 23.5q-36 0 -64.5 -17.5t-45 -48t-16.5 -71.5q0 -42 17.5 -73.5t48 -49.5t68.5 -18q27 0 51.5 10t46.5 25
l47 -76q-33 -21 -71.5 -33.5t-75.5 -12.5zM212 -105q0 21 16 34.5t36 13.5q19 0 34.5 -13.5t15.5 -34.5t-15.5 -34.5t-34.5 -13.5t-35.5 13.5t-16.5 34.5z" />
    <glyph glyph-name="uni1EBA" unicode="&#x1eba;" horiz-adv-x="655" 
d="M102 726h477v-103h-370v-207h329v-103h-329v-210h384v-103h-491v726zM330 809q19 15 31 28t12 31q0 15 -8 25t-24 10q-15 0 -26 -8.5t-19 -21.5l-38 24q17 33 42.5 48.5t54.5 15.5q26 0 43 -11t25.5 -29.5t8.5 -39.5q0 -35 -23 -59t-55 -44z" />
    <glyph glyph-name="uni1EBB" unicode="&#x1ebb;" horiz-adv-x="527" 
d="M276 -10q-73 0 -125 28.5t-80 79t-28 115.5q0 62 31.5 112.5t85 80.5t118.5 30q84 0 139.5 -49t74.5 -137l-341 -118l-24 60l273 98l-21 -13q-12 31 -38 54.5t-71 23.5q-36 0 -64.5 -17.5t-45 -48t-16.5 -71.5q0 -42 17.5 -73.5t48 -49.5t68.5 -18q27 0 51.5 10t46.5 25
l47 -76q-33 -21 -71.5 -33.5t-75.5 -12.5zM251 512q19 15 31 28t12 31q0 15 -8 25t-24 10q-15 0 -26 -8.5t-19 -21.5l-38 24q17 33 42.5 48.5t54.5 15.5q26 0 43 -11t25.5 -29.5t8.5 -39.5q0 -35 -23 -59t-55 -44z" />
    <glyph glyph-name="uni1EBC" unicode="&#x1ebc;" horiz-adv-x="655" 
d="M102 726h477v-103h-370v-207h329v-103h-329v-210h384v-103h-491v726zM413 806q-32 0 -53 14.5t-39 30.5q-12 11 -23.5 19.5t-26.5 8.5q-12 0 -21.5 -9t-13.5 -25.5t-4 -38.5h-54q-3 39 8.5 71t34.5 51t56 19q26 0 45 -14t35 -29q14 -13 26.5 -23.5t27.5 -10.5
q20 0 27.5 21.5t7.5 55.5l54 -1q4 -41 -6.5 -73t-32 -49.5t-48.5 -17.5z" />
    <glyph glyph-name="uni1EBD" unicode="&#x1ebd;" horiz-adv-x="527" 
d="M276 -10q-73 0 -125 28.5t-80 79t-28 115.5q0 62 31.5 112.5t85 80.5t118.5 30q84 0 139.5 -49t74.5 -137l-341 -118l-24 60l273 98l-21 -13q-12 31 -38 54.5t-71 23.5q-36 0 -64.5 -17.5t-45 -48t-16.5 -71.5q0 -42 17.5 -73.5t48 -49.5t68.5 -18q27 0 51.5 10t46.5 25
l47 -76q-33 -21 -71.5 -33.5t-75.5 -12.5zM350 475q-32 0 -53 14.5t-39 30.5q-12 11 -23.5 19.5t-26.5 8.5q-12 0 -21.5 -9t-13.5 -25.5t-4 -38.5h-54q-3 39 8.5 71t34.5 51t56 19q26 0 45 -14t35 -29q14 -13 26.5 -23.5t27.5 -10.5q20 0 27.5 21.5t7.5 55.5l54 -1
q4 -41 -6.5 -73t-32 -49.5t-48.5 -17.5z" />
    <glyph glyph-name="uni1EBE" unicode="&#x1ebe;" horiz-adv-x="655" 
d="M102 726h477v-103h-370v-207h329v-103h-329v-210h384v-103h-491v726zM416 803l-91 93l29 7l-91 -100h-95l169 174h1l172 -174h-94zM620 1037l-131 -134h-65l82 134h114z" />
    <glyph glyph-name="uni1EBF" unicode="&#x1ebf;" horiz-adv-x="527" 
d="M276 -10q-73 0 -125 28.5t-80 79t-28 115.5q0 62 31.5 112.5t85 80.5t118.5 30q84 0 139.5 -49t74.5 -137l-341 -118l-24 60l273 98l-21 -13q-12 31 -38 54.5t-71 23.5q-36 0 -64.5 -17.5t-45 -48t-16.5 -71.5q0 -42 17.5 -73.5t48 -49.5t68.5 -18q27 0 51.5 10t46.5 25
l47 -76q-33 -21 -71.5 -33.5t-75.5 -12.5zM352 497l-91 93l29 7l-91 -100h-95l169 174h1l172 -174h-94zM556 731l-131 -134h-65l82 134h114z" />
    <glyph glyph-name="uni1EC0" unicode="&#x1ec0;" horiz-adv-x="655" 
d="M102 726h477v-103h-370v-207h329v-103h-329v-210h384v-103h-491v726zM409 801l-91 93l29 7l-91 -100h-95l169 174h1l172 -174h-94zM21 1042h114l70 -134h-64z" />
    <glyph glyph-name="uni1EC1" unicode="&#x1ec1;" horiz-adv-x="527" 
d="M276 -10q-73 0 -125 28.5t-80 79t-28 115.5q0 62 31.5 112.5t85 80.5t118.5 30q84 0 139.5 -49t74.5 -137l-341 -118l-24 60l273 98l-21 -13q-12 31 -38 54.5t-71 23.5q-36 0 -64.5 -17.5t-45 -48t-16.5 -71.5q0 -42 17.5 -73.5t48 -49.5t68.5 -18q27 0 51.5 10t46.5 25
l47 -76q-33 -21 -71.5 -33.5t-75.5 -12.5zM345 495l-91 93l29 7l-91 -100h-95l169 174h1l172 -174h-94zM-43 736h114l70 -134h-64z" />
    <glyph glyph-name="uni1EC2" unicode="&#x1ec2;" horiz-adv-x="655" 
d="M102 726h477v-103h-370v-207h329v-103h-329v-210h384v-103h-491v726zM412 803l-91 93l29 7l-91 -100h-95l169 174h1l172 -174h-94zM497 909q19 15 31 28t12 31q0 15 -8 25t-24 10q-15 0 -26 -8.5t-19 -21.5l-38 24q17 33 42.5 48.5t54.5 15.5q26 0 43 -11t25.5 -29.5
t8.5 -39.5q0 -35 -23 -59t-55 -44z" />
    <glyph glyph-name="uni1EC3" unicode="&#x1ec3;" horiz-adv-x="527" 
d="M276 -10q-73 0 -125 28.5t-80 79t-28 115.5q0 62 31.5 112.5t85 80.5t118.5 30q84 0 139.5 -49t74.5 -137l-341 -118l-24 60l273 98l-21 -13q-12 31 -38 54.5t-71 23.5q-36 0 -64.5 -17.5t-45 -48t-16.5 -71.5q0 -42 17.5 -73.5t48 -49.5t68.5 -18q27 0 51.5 10t46.5 25
l47 -76q-33 -21 -71.5 -33.5t-75.5 -12.5zM348 497l-91 93l29 7l-91 -100h-95l169 174h1l172 -174h-94zM433 603q19 15 31 28t12 31q0 15 -8 25t-24 10q-15 0 -26 -8.5t-19 -21.5l-38 24q17 33 42.5 48.5t54.5 15.5q26 0 43 -11t25.5 -29.5t8.5 -39.5q0 -35 -23 -59t-55 -44
z" />
    <glyph glyph-name="uni1EC4" unicode="&#x1ec4;" horiz-adv-x="655" 
d="M102 726h477v-103h-370v-207h329v-103h-329v-210h384v-103h-491v726zM408 797l-91 93l29 7l-91 -100h-95l169 174h1l172 -174h-94zM409 997q-32 0 -53 14.5t-39 30.5q-12 11 -23.5 19.5t-26.5 8.5q-12 0 -21.5 -9t-13.5 -25.5t-4 -38.5h-54q-3 39 8.5 71t34.5 51t56 19
q26 0 45 -14t35 -29q14 -13 26.5 -23.5t27.5 -10.5q20 0 27.5 21.5t7.5 55.5l54 -1q4 -41 -6.5 -73t-32 -49.5t-48.5 -17.5z" />
    <glyph glyph-name="uni1EC5" unicode="&#x1ec5;" horiz-adv-x="527" 
d="M276 -10q-73 0 -125 28.5t-80 79t-28 115.5q0 62 31.5 112.5t85 80.5t118.5 30q84 0 139.5 -49t74.5 -137l-341 -118l-24 60l273 98l-21 -13q-12 31 -38 54.5t-71 23.5q-36 0 -64.5 -17.5t-45 -48t-16.5 -71.5q0 -42 17.5 -73.5t48 -49.5t68.5 -18q27 0 51.5 10t46.5 25
l47 -76q-33 -21 -71.5 -33.5t-75.5 -12.5zM344 491l-91 93l29 7l-91 -100h-95l169 174h1l172 -174h-94zM345 691q-32 0 -53 14.5t-39 30.5q-12 11 -23.5 19.5t-26.5 8.5q-12 0 -21.5 -9t-13.5 -25.5t-4 -38.5h-54q-3 39 8.5 71t34.5 51t56 19q26 0 45 -14t35 -29
q14 -13 26.5 -23.5t27.5 -10.5q20 0 27.5 21.5t7.5 55.5l54 -1q4 -41 -6.5 -73t-32 -49.5t-48.5 -17.5z" />
    <glyph glyph-name="uni1EC6" unicode="&#x1ec6;" horiz-adv-x="655" 
d="M102 726h477v-103h-370v-207h329v-103h-329v-210h384v-103h-491v726zM275 -105q0 24 19 40t41 16q23 0 41 -16t18 -40t-18 -39.5t-41 -15.5q-22 0 -41 15.5t-19 39.5zM408 787l-91 93l29 7l-91 -100h-95l169 174h1l172 -174h-94z" />
    <glyph glyph-name="uni1EC7" unicode="&#x1ec7;" horiz-adv-x="527" 
d="M276 -10q-73 0 -125 28.5t-80 79t-28 115.5q0 62 31.5 112.5t85 80.5t118.5 30q84 0 139.5 -49t74.5 -137l-341 -118l-24 60l273 98l-21 -13q-12 31 -38 54.5t-71 23.5q-36 0 -64.5 -17.5t-45 -48t-16.5 -71.5q0 -42 17.5 -73.5t48 -49.5t68.5 -18q27 0 51.5 10t46.5 25
l47 -76q-33 -21 -71.5 -33.5t-75.5 -12.5zM212 -105q0 21 16 34.5t36 13.5q19 0 34.5 -13.5t15.5 -34.5t-15.5 -34.5t-34.5 -13.5t-35.5 13.5t-16.5 34.5zM349 501l-91 93l29 7l-91 -100h-95l169 174h1l172 -174h-94z" />
    <glyph glyph-name="uni1EC8" unicode="&#x1ec8;" horiz-adv-x="311" 
d="M102 726h107v-726h-107v726zM149 809q19 15 31 28t12 31q0 15 -8 25t-24 10q-15 0 -26 -8.5t-19 -21.5l-38 24q17 33 42.5 48.5t54.5 15.5q26 0 43 -11t25.5 -29.5t8.5 -39.5q0 -35 -23 -59t-55 -44z" />
    <glyph glyph-name="uni1EC9" unicode="&#x1ec9;" horiz-adv-x="260" 
d="M79 419h103v-419h-103v419zM110 497q19 15 31 28t12 31q0 15 -8 25t-24 10q-15 0 -26 -8.5t-19 -21.5l-38 24q17 33 42.5 48.5t54.5 15.5q26 0 43 -11t25.5 -29.5t8.5 -39.5q0 -35 -23 -59t-55 -44z" />
    <glyph glyph-name="uni1ECA" unicode="&#x1eca;" horiz-adv-x="311" 
d="M102 726h107v-726h-107v726zM94 -105q0 24 19 40t41 16q23 0 41 -16t18 -40t-18 -39.5t-41 -15.5q-22 0 -41 15.5t-19 39.5z" />
    <glyph glyph-name="uni1ECB" unicode="&#x1ecb;" horiz-adv-x="260" 
d="M79 419h103v-419h-103v419zM73 569q0 24 19 40t41 16q23 0 41 -16t18 -40t-18 -39.5t-41 -15.5q-22 0 -41 15.5t-19 39.5zM78 -105q0 21 16 34.5t36 13.5q19 0 34.5 -13.5t15.5 -34.5t-15.5 -34.5t-34.5 -13.5t-35.5 13.5t-16.5 34.5z" />
    <glyph glyph-name="uni1ECC" unicode="&#x1ecc;" horiz-adv-x="856" 
d="M57 362q0 75 28.5 142t79.5 119t118 81.5t144 29.5q76 0 143 -29.5t119 -81.5t81 -119t29 -142q0 -77 -29 -144t-80.5 -118t-119 -79.5t-143.5 -28.5q-77 0 -144 28t-118 78.5t-79.5 118t-28.5 145.5zM167 362q0 -56 20.5 -104.5t56.5 -85t83.5 -57t102.5 -20.5
q54 0 101 20.5t82.5 57t55.5 85t20 104.5t-20.5 104.5t-56 85.5t-83 58t-101.5 21q-56 0 -103 -21t-83 -58t-55.5 -86t-19.5 -104zM366 -105q0 24 19 40t41 16q23 0 41 -16t18 -40t-18 -39.5t-41 -15.5q-22 0 -41 15.5t-19 39.5z" />
    <glyph glyph-name="uni1ECD" unicode="&#x1ecd;" horiz-adv-x="550" 
d="M43 214q0 63 30 113.5t83 79.5t121 29q69 0 121 -29t80.5 -79.5t28.5 -113.5t-28.5 -114t-80.5 -80.5t-122 -29.5q-67 0 -119.5 27t-83 77.5t-30.5 119.5zM147 213q0 -39 17 -70.5t46 -50t65 -18.5q37 0 66 18.5t45.5 50t16.5 70.5t-16.5 70t-45.5 50t-66 19t-66 -19
t-45.5 -50.5t-16.5 -69.5zM223 -105q0 21 16 34.5t36 13.5q19 0 34.5 -13.5t15.5 -34.5t-15.5 -34.5t-34.5 -13.5t-35.5 13.5t-16.5 34.5z" />
    <glyph glyph-name="uni1ECE" unicode="&#x1ece;" horiz-adv-x="856" 
d="M57 362q0 75 28.5 142t79.5 119t118 81.5t144 29.5q76 0 143 -29.5t119 -81.5t81 -119t29 -142q0 -77 -29 -144t-80.5 -118t-119 -79.5t-143.5 -28.5q-77 0 -144 28t-118 78.5t-79.5 118t-28.5 145.5zM167 362q0 -56 20.5 -104.5t56.5 -85t83.5 -57t102.5 -20.5
q54 0 101 20.5t82.5 57t55.5 85t20 104.5t-20.5 104.5t-56 85.5t-83 58t-101.5 21q-56 0 -103 -21t-83 -58t-55.5 -86t-19.5 -104zM421 802q19 15 31 28t12 31q0 15 -8 25t-24 10q-15 0 -26 -8.5t-19 -21.5l-38 24q17 33 42.5 48.5t54.5 15.5q26 0 43 -11t25.5 -29.5
t8.5 -39.5q0 -35 -23 -59t-55 -44z" />
    <glyph glyph-name="uni1ECF" unicode="&#x1ecf;" horiz-adv-x="550" 
d="M43 214q0 63 30 113.5t83 79.5t121 29q69 0 121 -29t80.5 -79.5t28.5 -113.5t-28.5 -114t-80.5 -80.5t-122 -29.5q-67 0 -119.5 27t-83 77.5t-30.5 119.5zM147 213q0 -39 17 -70.5t46 -50t65 -18.5q37 0 66 18.5t45.5 50t16.5 70.5t-16.5 70t-45.5 50t-66 19t-66 -19
t-45.5 -50.5t-16.5 -69.5zM254 511q19 15 31 28t12 31q0 15 -8 25t-24 10q-15 0 -26 -8.5t-19 -21.5l-38 24q17 33 42.5 48.5t54.5 15.5q26 0 43 -11t25.5 -29.5t8.5 -39.5q0 -35 -23 -59t-55 -44z" />
    <glyph glyph-name="uni1ED0" unicode="&#x1ed0;" horiz-adv-x="856" 
d="M57 362q0 75 28.5 142t79.5 119t118 81.5t144 29.5q76 0 143 -29.5t119 -81.5t81 -119t29 -142q0 -77 -29 -144t-80.5 -118t-119 -79.5t-143.5 -28.5q-77 0 -144 28t-118 78.5t-79.5 118t-28.5 145.5zM167 362q0 -56 20.5 -104.5t56.5 -85t83.5 -57t102.5 -20.5
q54 0 101 20.5t82.5 57t55.5 85t20 104.5t-20.5 104.5t-56 85.5t-83 58t-101.5 21q-56 0 -103 -21t-83 -58t-55.5 -86t-19.5 -104zM507 796l-91 93l29 7l-91 -100h-95l169 174h1l172 -174h-94zM711 1030l-131 -134h-65l82 134h114z" />
    <glyph glyph-name="uni1ED1" unicode="&#x1ed1;" horiz-adv-x="550" 
d="M43 214q0 63 30 113.5t83 79.5t121 29q69 0 121 -29t80.5 -79.5t28.5 -113.5t-28.5 -114t-80.5 -80.5t-122 -29.5q-67 0 -119.5 27t-83 77.5t-30.5 119.5zM147 213q0 -39 17 -70.5t46 -50t65 -18.5q37 0 66 18.5t45.5 50t16.5 70.5t-16.5 70t-45.5 50t-66 19t-66 -19
t-45.5 -50.5t-16.5 -69.5zM355 496l-91 93l29 7l-91 -100h-95l169 174h1l172 -174h-94zM559 730l-131 -134h-65l82 134h114z" />
    <glyph glyph-name="uni1ED2" unicode="&#x1ed2;" horiz-adv-x="856" 
d="M57 362q0 75 28.5 142t79.5 119t118 81.5t144 29.5q76 0 143 -29.5t119 -81.5t81 -119t29 -142q0 -77 -29 -144t-80.5 -118t-119 -79.5t-143.5 -28.5q-77 0 -144 28t-118 78.5t-79.5 118t-28.5 145.5zM167 362q0 -56 20.5 -104.5t56.5 -85t83.5 -57t102.5 -20.5
q54 0 101 20.5t82.5 57t55.5 85t20 104.5t-20.5 104.5t-56 85.5t-83 58t-101.5 21q-56 0 -103 -21t-83 -58t-55.5 -86t-19.5 -104zM501 794l-91 93l29 7l-91 -100h-95l169 174h1l172 -174h-94zM113 1035h114l70 -134h-64z" />
    <glyph glyph-name="uni1ED3" unicode="&#x1ed3;" horiz-adv-x="550" 
d="M43 214q0 63 30 113.5t83 79.5t121 29q69 0 121 -29t80.5 -79.5t28.5 -113.5t-28.5 -114t-80.5 -80.5t-122 -29.5q-67 0 -119.5 27t-83 77.5t-30.5 119.5zM147 213q0 -39 17 -70.5t46 -50t65 -18.5q37 0 66 18.5t45.5 50t16.5 70.5t-16.5 70t-45.5 50t-66 19t-66 -19
t-45.5 -50.5t-16.5 -69.5zM348 494l-91 93l29 7l-91 -100h-95l169 174h1l172 -174h-94zM-40 735h114l70 -134h-64z" />
    <glyph glyph-name="uni1ED4" unicode="&#x1ed4;" horiz-adv-x="856" 
d="M57 362q0 75 28.5 142t79.5 119t118 81.5t144 29.5q76 0 143 -29.5t119 -81.5t81 -119t29 -142q0 -77 -29 -144t-80.5 -118t-119 -79.5t-143.5 -28.5q-77 0 -144 28t-118 78.5t-79.5 118t-28.5 145.5zM167 362q0 -56 20.5 -104.5t56.5 -85t83.5 -57t102.5 -20.5
q54 0 101 20.5t82.5 57t55.5 85t20 104.5t-20.5 104.5t-56 85.5t-83 58t-101.5 21q-56 0 -103 -21t-83 -58t-55.5 -86t-19.5 -104zM504 796l-91 93l29 7l-91 -100h-95l169 174h1l172 -174h-94zM589 902q19 15 31 28t12 31q0 15 -8 25t-24 10q-15 0 -26 -8.5t-19 -21.5
l-38 24q17 33 42.5 48.5t54.5 15.5q26 0 43 -11t25.5 -29.5t8.5 -39.5q0 -35 -23 -59t-55 -44z" />
    <glyph glyph-name="uni1ED5" unicode="&#x1ed5;" horiz-adv-x="550" 
d="M43 214q0 63 30 113.5t83 79.5t121 29q69 0 121 -29t80.5 -79.5t28.5 -113.5t-28.5 -114t-80.5 -80.5t-122 -29.5q-67 0 -119.5 27t-83 77.5t-30.5 119.5zM147 213q0 -39 17 -70.5t46 -50t65 -18.5q37 0 66 18.5t45.5 50t16.5 70.5t-16.5 70t-45.5 50t-66 19t-66 -19
t-45.5 -50.5t-16.5 -69.5zM351 496l-91 93l29 7l-91 -100h-95l169 174h1l172 -174h-94zM436 602q19 15 31 28t12 31q0 15 -8 25t-24 10q-15 0 -26 -8.5t-19 -21.5l-38 24q17 33 42.5 48.5t54.5 15.5q26 0 43 -11t25.5 -29.5t8.5 -39.5q0 -35 -23 -59t-55 -44z" />
    <glyph glyph-name="uni1ED6" unicode="&#x1ed6;" horiz-adv-x="856" 
d="M57 362q0 75 28.5 142t79.5 119t118 81.5t144 29.5q76 0 143 -29.5t119 -81.5t81 -119t29 -142q0 -77 -29 -144t-80.5 -118t-119 -79.5t-143.5 -28.5q-77 0 -144 28t-118 78.5t-79.5 118t-28.5 145.5zM167 362q0 -56 20.5 -104.5t56.5 -85t83.5 -57t102.5 -20.5
q54 0 101 20.5t82.5 57t55.5 85t20 104.5t-20.5 104.5t-56 85.5t-83 58t-101.5 21q-56 0 -103 -21t-83 -58t-55.5 -86t-19.5 -104zM499 790l-91 93l29 7l-91 -100h-95l169 174h1l172 -174h-94zM500 990q-32 0 -53 14.5t-39 30.5q-12 11 -23.5 19.5t-26.5 8.5q-12 0 -21.5 -9
t-13.5 -25.5t-4 -38.5h-54q-3 39 8.5 71t34.5 51t56 19q26 0 45 -14t35 -29q14 -13 26.5 -23.5t27.5 -10.5q20 0 27.5 21.5t7.5 55.5l54 -1q4 -41 -6.5 -73t-32 -49.5t-48.5 -17.5z" />
    <glyph glyph-name="uni1ED7" unicode="&#x1ed7;" horiz-adv-x="550" 
d="M43 214q0 63 30 113.5t83 79.5t121 29q69 0 121 -29t80.5 -79.5t28.5 -113.5t-28.5 -114t-80.5 -80.5t-122 -29.5q-67 0 -119.5 27t-83 77.5t-30.5 119.5zM147 213q0 -39 17 -70.5t46 -50t65 -18.5q37 0 66 18.5t45.5 50t16.5 70.5t-16.5 70t-45.5 50t-66 19t-66 -19
t-45.5 -50.5t-16.5 -69.5zM347 490l-91 93l29 7l-91 -100h-95l169 174h1l172 -174h-94zM348 690q-32 0 -53 14.5t-39 30.5q-12 11 -23.5 19.5t-26.5 8.5q-12 0 -21.5 -9t-13.5 -25.5t-4 -38.5h-54q-3 39 8.5 71t34.5 51t56 19q26 0 45 -14t35 -29q14 -13 26.5 -23.5
t27.5 -10.5q20 0 27.5 21.5t7.5 55.5l54 -1q4 -41 -6.5 -73t-32 -49.5t-48.5 -17.5z" />
    <glyph glyph-name="uni1ED8" unicode="&#x1ed8;" horiz-adv-x="856" 
d="M57 362q0 75 28.5 142t79.5 119t118 81.5t144 29.5q76 0 143 -29.5t119 -81.5t81 -119t29 -142q0 -77 -29 -144t-80.5 -118t-119 -79.5t-143.5 -28.5q-77 0 -144 28t-118 78.5t-79.5 118t-28.5 145.5zM167 362q0 -56 20.5 -104.5t56.5 -85t83.5 -57t102.5 -20.5
q54 0 101 20.5t82.5 57t55.5 85t20 104.5t-20.5 104.5t-56 85.5t-83 58t-101.5 21q-56 0 -103 -21t-83 -58t-55.5 -86t-19.5 -104zM366 -105q0 24 19 40t41 16q23 0 41 -16t18 -40t-18 -39.5t-41 -15.5q-22 0 -41 15.5t-19 39.5zM499 780l-91 93l29 7l-91 -100h-95l169 174
h1l172 -174h-94z" />
    <glyph glyph-name="uni1ED9" unicode="&#x1ed9;" horiz-adv-x="550" 
d="M43 214q0 63 30 113.5t83 79.5t121 29q69 0 121 -29t80.5 -79.5t28.5 -113.5t-28.5 -114t-80.5 -80.5t-122 -29.5q-67 0 -119.5 27t-83 77.5t-30.5 119.5zM147 213q0 -39 17 -70.5t46 -50t65 -18.5q37 0 66 18.5t45.5 50t16.5 70.5t-16.5 70t-45.5 50t-66 19t-66 -19
t-45.5 -50.5t-16.5 -69.5zM223 -105q0 21 16 34.5t36 13.5q19 0 34.5 -13.5t15.5 -34.5t-15.5 -34.5t-34.5 -13.5t-35.5 13.5t-16.5 34.5zM352 501l-91 93l29 7l-91 -100h-95l169 174h1l172 -174h-94z" />
    <glyph glyph-name="uni1EDA" unicode="&#x1eda;" horiz-adv-x="856" 
d="M57 362q0 75 28.5 142t79.5 119t118 81.5t144 29.5q76 0 143 -29.5t119 -81.5t81 -119t29 -142q0 -77 -29 -144t-80.5 -118t-119 -79.5t-143.5 -28.5q-77 0 -144 28t-118 78.5t-79.5 118t-28.5 145.5zM167 362q0 -56 20.5 -104.5t56.5 -85t83.5 -57t102.5 -20.5
q54 0 101 20.5t82.5 57t55.5 85t20 104.5t-20.5 104.5t-56 85.5t-83 58t-101.5 21q-56 0 -103 -21t-83 -58t-55.5 -86t-19.5 -104zM499 727q40 0 56.5 18.5t22.5 68.5h77q-8 -63 -28 -95.5t-52.5 -43.5t-75.5 -11v63zM588 897l-131 -134h-65l82 134h114z" />
    <glyph glyph-name="uni1EDB" unicode="&#x1edb;" horiz-adv-x="550" 
d="M43 214q0 63 30 113.5t83 79.5t121 29q69 0 121 -29t80.5 -79.5t28.5 -113.5t-28.5 -114t-80.5 -80.5t-122 -29.5q-67 0 -119.5 27t-83 77.5t-30.5 119.5zM147 213q0 -39 17 -70.5t46 -50t65 -18.5q37 0 66 18.5t45.5 50t16.5 70.5t-16.5 70t-45.5 50t-66 19t-66 -19
t-45.5 -50.5t-16.5 -69.5zM356 419q41 0 62.5 21.5t28.5 69.5h77q-8 -61 -31 -94.5t-58 -46.5t-79 -13v63zM396 616l-131 -134h-65l82 134h114z" />
    <glyph glyph-name="uni1EDC" unicode="&#x1edc;" horiz-adv-x="856" 
d="M57 362q0 75 28.5 142t79.5 119t118 81.5t144 29.5q76 0 143 -29.5t119 -81.5t81 -119t29 -142q0 -77 -29 -144t-80.5 -118t-119 -79.5t-143.5 -28.5q-77 0 -144 28t-118 78.5t-79.5 118t-28.5 145.5zM167 362q0 -56 20.5 -104.5t56.5 -85t83.5 -57t102.5 -20.5
q54 0 101 20.5t82.5 57t55.5 85t20 104.5t-20.5 104.5t-56 85.5t-83 58t-101.5 21q-56 0 -103 -21t-83 -58t-55.5 -86t-19.5 -104zM499 727q40 0 56.5 18.5t22.5 68.5h77q-8 -63 -28 -95.5t-52.5 -43.5t-75.5 -11v63zM293 903h114l70 -134h-64z" />
    <glyph glyph-name="uni1EDD" unicode="&#x1edd;" horiz-adv-x="550" 
d="M43 214q0 63 30 113.5t83 79.5t121 29q69 0 121 -29t80.5 -79.5t28.5 -113.5t-28.5 -114t-80.5 -80.5t-122 -29.5q-67 0 -119.5 27t-83 77.5t-30.5 119.5zM147 213q0 -39 17 -70.5t46 -50t65 -18.5q37 0 66 18.5t45.5 50t16.5 70.5t-16.5 70t-45.5 50t-66 19t-66 -19
t-45.5 -50.5t-16.5 -69.5zM356 419q41 0 62.5 21.5t28.5 69.5h77q-8 -61 -31 -94.5t-58 -46.5t-79 -13v63zM124 634h114l70 -134h-64z" />
    <glyph glyph-name="uni1EDE" unicode="&#x1ede;" horiz-adv-x="856" 
d="M57 362q0 75 28.5 142t79.5 119t118 81.5t144 29.5q76 0 143 -29.5t119 -81.5t81 -119t29 -142q0 -77 -29 -144t-80.5 -118t-119 -79.5t-143.5 -28.5q-77 0 -144 28t-118 78.5t-79.5 118t-28.5 145.5zM167 362q0 -56 20.5 -104.5t56.5 -85t83.5 -57t102.5 -20.5
q54 0 101 20.5t82.5 57t55.5 85t20 104.5t-20.5 104.5t-56 85.5t-83 58t-101.5 21q-56 0 -103 -21t-83 -58t-55.5 -86t-19.5 -104zM499 727q40 0 56.5 18.5t22.5 68.5h77q-8 -63 -28 -95.5t-52.5 -43.5t-75.5 -11v63zM421 802q19 15 31 28t12 31q0 15 -8 25t-24 10
q-15 0 -26 -8.5t-19 -21.5l-38 24q17 33 42.5 48.5t54.5 15.5q26 0 43 -11t25.5 -29.5t8.5 -39.5q0 -35 -23 -59t-55 -44z" />
    <glyph glyph-name="uni1EDF" unicode="&#x1edf;" horiz-adv-x="550" 
d="M43 214q0 63 30 113.5t83 79.5t121 29q69 0 121 -29t80.5 -79.5t28.5 -113.5t-28.5 -114t-80.5 -80.5t-122 -29.5q-67 0 -119.5 27t-83 77.5t-30.5 119.5zM147 213q0 -39 17 -70.5t46 -50t65 -18.5q37 0 66 18.5t45.5 50t16.5 70.5t-16.5 70t-45.5 50t-66 19t-66 -19
t-45.5 -50.5t-16.5 -69.5zM356 419q41 0 62.5 21.5t28.5 69.5h77q-8 -61 -31 -94.5t-58 -46.5t-79 -13v63zM254 511q19 15 31 28t12 31q0 15 -8 25t-24 10q-15 0 -26 -8.5t-19 -21.5l-38 24q17 33 42.5 48.5t54.5 15.5q26 0 43 -11t25.5 -29.5t8.5 -39.5q0 -35 -23 -59
t-55 -44z" />
    <glyph glyph-name="uni1EE0" unicode="&#x1ee0;" horiz-adv-x="856" 
d="M57 362q0 75 28.5 142t79.5 119t118 81.5t144 29.5q76 0 143 -29.5t119 -81.5t81 -119t29 -142q0 -77 -29 -144t-80.5 -118t-119 -79.5t-143.5 -28.5q-77 0 -144 28t-118 78.5t-79.5 118t-28.5 145.5zM167 362q0 -56 20.5 -104.5t56.5 -85t83.5 -57t102.5 -20.5
q54 0 101 20.5t82.5 57t55.5 85t20 104.5t-20.5 104.5t-56 85.5t-83 58t-101.5 21q-56 0 -103 -21t-83 -58t-55.5 -86t-19.5 -104zM499 727q40 0 56.5 18.5t22.5 68.5h77q-8 -63 -28 -95.5t-52.5 -43.5t-75.5 -11v63zM504 799q-32 0 -53 14.5t-39 30.5q-12 11 -23.5 19.5
t-26.5 8.5q-12 0 -21.5 -9t-13.5 -25.5t-4 -38.5h-54q-3 39 8.5 71t34.5 51t56 19q26 0 45 -14t35 -29q14 -13 26.5 -23.5t27.5 -10.5q20 0 27.5 21.5t7.5 55.5l54 -1q4 -41 -6.5 -73t-32 -49.5t-48.5 -17.5z" />
    <glyph glyph-name="uni1EE1" unicode="&#x1ee1;" horiz-adv-x="550" 
d="M326 480q-28 0 -46.5 13t-33.5 26q-11 10 -21 17.5t-23 7.5q-12 0 -20 -8t-12 -22.5t-3 -33.5h-46q-3 34 7 62t30 44t48 16q23 0 39.5 -12t31.5 -27q12 -11 23 -19.5t24 -8.5q17 0 24.5 18.5t6.5 48.5h46q4 -37 -5 -64.5t-28 -42.5t-42 -15zM43 214q0 63 30 113.5
t83 79.5t121 29q69 0 121 -29t80.5 -79.5t28.5 -113.5t-28.5 -114t-80.5 -80.5t-122 -29.5q-67 0 -119.5 27t-83 77.5t-30.5 119.5zM147 213q0 -39 17 -70.5t46 -50t65 -18.5q37 0 66 18.5t45.5 50t16.5 70.5t-16.5 70t-45.5 50t-66 19t-66 -19t-45.5 -50.5t-16.5 -69.5z
M356 419q40 0 62 21.5t28 69.5h77q-8 -61 -31 -94.5t-58 -46.5t-78 -13v63z" />
    <glyph glyph-name="uni1EE2" unicode="&#x1ee2;" horiz-adv-x="856" 
d="M57 362q0 75 28.5 142t79.5 119t118 81.5t144 29.5q76 0 143 -29.5t119 -81.5t81 -119t29 -142q0 -77 -29 -144t-80.5 -118t-119 -79.5t-143.5 -28.5q-77 0 -144 28t-118 78.5t-79.5 118t-28.5 145.5zM167 362q0 -56 20.5 -104.5t56.5 -85t83.5 -57t102.5 -20.5
q54 0 101 20.5t82.5 57t55.5 85t20 104.5t-20.5 104.5t-56 85.5t-83 58t-101.5 21q-56 0 -103 -21t-83 -58t-55.5 -86t-19.5 -104zM499 727q40 0 56.5 18.5t22.5 68.5h77q-8 -63 -28 -95.5t-52.5 -43.5t-75.5 -11v63zM366 -105q0 24 19 40t41 16q23 0 41 -16t18 -40
t-18 -39.5t-41 -15.5q-22 0 -41 15.5t-19 39.5z" />
    <glyph glyph-name="uni1EE3" unicode="&#x1ee3;" horiz-adv-x="550" 
d="M43 214q0 63 30 113.5t83 79.5t121 29q69 0 121 -29t80.5 -79.5t28.5 -113.5t-28.5 -114t-80.5 -80.5t-122 -29.5q-67 0 -119.5 27t-83 77.5t-30.5 119.5zM147 213q0 -39 17 -70.5t46 -50t65 -18.5q37 0 66 18.5t45.5 50t16.5 70.5t-16.5 70t-45.5 50t-66 19t-66 -19
t-45.5 -50.5t-16.5 -69.5zM356 419q41 0 62.5 21.5t28.5 69.5h77q-8 -61 -31 -94.5t-58 -46.5t-79 -13v63zM223 -105q0 21 16 34.5t36 13.5q19 0 34.5 -13.5t15.5 -34.5t-15.5 -34.5t-34.5 -13.5t-35.5 13.5t-16.5 34.5z" />
    <glyph glyph-name="uni1EE4" unicode="&#x1ee4;" horiz-adv-x="736" 
d="M198 259q0 -46 23 -83t61 -59t85 -22q50 0 89 22t61.5 59t22.5 83v467h105v-470q0 -79 -37 -138.5t-100 -92.5t-141 -33v0q-76 0 -139 33t-99.5 92.5t-36.5 138.5v470h106v-467zM307 -105q0 24 19 40t41 16q23 0 41 -16t18 -40t-18 -39.5t-41 -15.5q-22 0 -41 15.5
t-19 39.5z" />
    <glyph glyph-name="uni1EE5" unicode="&#x1ee5;" horiz-adv-x="554" 
d="M213 -17q-58 0 -95 35t-39 90v311h103v-274q2 -32 18.5 -52.5t53.5 -21.5q34 0 60.5 20.5t42 56t15.5 81.5v190h103v-419h-93l-8 97l4 -16q-13 -28 -37 -50.5t-57 -35t-71 -12.5zM225 -105q0 21 16 34.5t36 13.5q19 0 34.5 -13.5t15.5 -34.5t-15.5 -34.5t-34.5 -13.5
t-35.5 13.5t-16.5 34.5z" />
    <glyph glyph-name="uni1EE6" unicode="&#x1ee6;" horiz-adv-x="736" 
d="M198 259q0 -46 23 -83t61 -59t85 -22q50 0 89 22t61.5 59t22.5 83v467h105v-470q0 -79 -37 -138.5t-100 -92.5t-141 -33v0q-76 0 -139 33t-99.5 92.5t-36.5 138.5v470h106v-467zM362 809q19 15 31 28t12 31q0 15 -8 25t-24 10q-15 0 -26 -8.5t-19 -21.5l-38 24
q17 33 42.5 48.5t54.5 15.5q26 0 43 -11t25.5 -29.5t8.5 -39.5q0 -35 -23 -59t-55 -44z" />
    <glyph glyph-name="uni1EE7" unicode="&#x1ee7;" horiz-adv-x="554" 
d="M213 -17q-58 0 -95 35t-39 90v311h103v-274q2 -32 18.5 -52.5t53.5 -21.5q34 0 60.5 20.5t42 56t15.5 81.5v190h103v-419h-93l-8 97l4 -16q-13 -28 -37 -50.5t-57 -35t-71 -12.5zM257 511q19 15 31 28t12 31q0 15 -8 25t-24 10q-15 0 -26 -8.5t-19 -21.5l-38 24
q17 33 42.5 48.5t54.5 15.5q26 0 43 -11t25.5 -29.5t8.5 -39.5q0 -35 -23 -59t-55 -44z" />
    <glyph glyph-name="uni1EE8" unicode="&#x1ee8;" horiz-adv-x="757" 
d="M198 259q0 -46 23 -83t61 -59t85 -22q50 0 89 22t61.5 59t22.5 83v467h105v-470q0 -79 -37 -138.5t-100 -92.5t-141 -33v0q-76 0 -139 33t-99.5 92.5t-36.5 138.5v470h106v-467zM626 676q40 0 56.5 18.5t22.5 68.5h77q-8 -63 -28 -95.5t-52.5 -43.5t-75.5 -11v63z
M529 905l-131 -134h-65l82 134h114z" />
    <glyph glyph-name="uni1EE9" unicode="&#x1ee9;" horiz-adv-x="564" 
d="M213 -17q-58 0 -95 35t-39 90v311h103v-274q2 -32 18.5 -52.5t53.5 -21.5q34 0 60.5 20.5t42 56t15.5 81.5v190h103v-419h-93l-8 97l4 -16q-13 -28 -37 -50.5t-57 -35t-71 -12.5zM416 419q41 0 62.5 21.5t28.5 69.5h77q-8 -61 -31 -94.5t-58 -46.5t-79 -13v63zM399 628
l-131 -134h-65l82 134h114z" />
    <glyph glyph-name="uni1EEA" unicode="&#x1eea;" horiz-adv-x="757" 
d="M198 259q0 -46 23 -83t61 -59t85 -22q50 0 89 22t61.5 59t22.5 83v467h105v-470q0 -79 -37 -138.5t-100 -92.5t-141 -33v0q-76 0 -139 33t-99.5 92.5t-36.5 138.5v470h106v-467zM626 676q40 0 56.5 18.5t22.5 68.5h77q-8 -63 -28 -95.5t-52.5 -43.5t-75.5 -11v63z
M210 911h114l70 -134h-64z" />
    <glyph glyph-name="uni1EEB" unicode="&#x1eeb;" horiz-adv-x="564" 
d="M213 -17q-58 0 -95 35t-39 90v311h103v-274q2 -32 18.5 -52.5t53.5 -21.5q34 0 60.5 20.5t42 56t15.5 81.5v190h103v-419h-93l-8 97l4 -16q-13 -28 -37 -50.5t-57 -35t-71 -12.5zM416 419q41 0 62.5 21.5t28.5 69.5h77q-8 -61 -31 -94.5t-58 -46.5t-79 -13v63zM127 634
h114l70 -134h-64z" />
    <glyph glyph-name="uni1EEC" unicode="&#x1eec;" horiz-adv-x="757" 
d="M198 259q0 -46 23 -83t61 -59t85 -22q50 0 89 22t61.5 59t22.5 83v467h105v-470q0 -79 -37 -138.5t-100 -92.5t-141 -33v0q-76 0 -139 33t-99.5 92.5t-36.5 138.5v470h106v-467zM626 676q40 0 56.5 18.5t22.5 68.5h77q-8 -63 -28 -95.5t-52.5 -43.5t-75.5 -11v63z
M362 809q19 15 31 28t12 31q0 15 -8 25t-24 10q-15 0 -26 -8.5t-19 -21.5l-38 24q17 33 42.5 48.5t54.5 15.5q26 0 43 -11t25.5 -29.5t8.5 -39.5q0 -35 -23 -59t-55 -44z" />
    <glyph glyph-name="uni1EED" unicode="&#x1eed;" horiz-adv-x="564" 
d="M213 -17q-58 0 -95 35t-39 90v311h103v-274q2 -32 18.5 -52.5t53.5 -21.5q34 0 60.5 20.5t42 56t15.5 81.5v190h103v-419h-93l-8 97l4 -16q-13 -28 -37 -50.5t-57 -35t-71 -12.5zM416 419q41 0 62.5 21.5t28.5 69.5h77q-8 -61 -31 -94.5t-58 -46.5t-79 -13v63zM257 511
q19 15 31 28t12 31q0 15 -8 25t-24 10q-15 0 -26 -8.5t-19 -21.5l-38 24q17 33 42.5 48.5t54.5 15.5q26 0 43 -11t25.5 -29.5t8.5 -39.5q0 -35 -23 -59t-55 -44z" />
    <glyph glyph-name="uni1EEE" unicode="&#x1eee;" horiz-adv-x="757" 
d="M198 259q0 -46 23 -83t61 -59t85 -22q50 0 89 22t61.5 59t22.5 83v467h105v-470q0 -79 -37 -138.5t-100 -92.5t-141 -33v0q-76 0 -139 33t-99.5 92.5t-36.5 138.5v470h106v-467zM626 676q40 0 56.5 18.5t22.5 68.5h77q-8 -63 -28 -95.5t-52.5 -43.5t-75.5 -11v63z
M445 806q-32 0 -53 14.5t-39 30.5q-12 11 -23.5 19.5t-26.5 8.5q-12 0 -21.5 -9t-13.5 -25.5t-4 -38.5h-54q-3 39 8.5 71t34.5 51t56 19q26 0 45 -14t35 -29q14 -13 26.5 -23.5t27.5 -10.5q20 0 27.5 21.5t7.5 55.5l54 -1q4 -41 -6.5 -73t-32 -49.5t-48.5 -17.5z" />
    <glyph glyph-name="uni1EEF" unicode="&#x1eef;" horiz-adv-x="564" 
d="M213 -17q-58 0 -95 35t-39 90v311h103v-274q2 -32 18.5 -52.5t53.5 -21.5q34 0 60.5 20.5t42 56t15.5 81.5v190h103v-419h-93l-8 97l4 -16q-13 -28 -37 -50.5t-57 -35t-71 -12.5zM416 419q41 0 62.5 21.5t28.5 69.5h77q-8 -61 -31 -94.5t-58 -46.5t-79 -13v63zM355 474
q-32 0 -53 14.5t-39 30.5q-12 11 -23.5 19.5t-26.5 8.5q-12 0 -21.5 -9t-13.5 -25.5t-4 -38.5h-54q-3 39 8.5 71t34.5 51t56 19q26 0 45 -14t35 -29q14 -13 26.5 -23.5t27.5 -10.5q20 0 27.5 21.5t7.5 55.5l54 -1q4 -41 -6.5 -73t-32 -49.5t-48.5 -17.5z" />
    <glyph glyph-name="uni1EF0" unicode="&#x1ef0;" horiz-adv-x="757" 
d="M198 259q0 -46 23 -83t61 -59t85 -22q50 0 89 22t61.5 59t22.5 83v467h105v-470q0 -79 -37 -138.5t-100 -92.5t-141 -33v0q-76 0 -139 33t-99.5 92.5t-36.5 138.5v470h106v-467zM626 676q40 0 56.5 18.5t22.5 68.5h77q-8 -63 -28 -95.5t-52.5 -43.5t-75.5 -11v63z
M307 -105q0 24 19 40t41 16q23 0 41 -16t18 -40t-18 -39.5t-41 -15.5q-22 0 -41 15.5t-19 39.5z" />
    <glyph glyph-name="uni1EF1" unicode="&#x1ef1;" horiz-adv-x="564" 
d="M213 -17q-58 0 -95 35t-39 90v311h103v-274q2 -32 18.5 -52.5t53.5 -21.5q34 0 60.5 20.5t42 56t15.5 81.5v190h103v-419h-93l-8 97l4 -16q-13 -28 -37 -50.5t-57 -35t-71 -12.5zM416 419q41 0 62.5 21.5t28.5 69.5h77q-8 -61 -31 -94.5t-58 -46.5t-79 -13v63zM225 -105
q0 21 16 34.5t36 13.5q19 0 34.5 -13.5t15.5 -34.5t-15.5 -34.5t-34.5 -13.5t-35.5 13.5t-16.5 34.5z" />
    <glyph glyph-name="Ygrave" unicode="&#x1ef2;" horiz-adv-x="698" 
d="M294 239l-269 487h132l209 -396l-32 -2l207 398h131l-271 -487v-239h-107v239zM205 909h114l70 -134h-64z" />
    <glyph glyph-name="ygrave" unicode="&#x1ef3;" horiz-adv-x="502" 
d="M114 -201l277 620h94l-270 -620h-101zM220 -3l-203 422h116l166 -370zM106 620h114l70 -134h-64z" />
    <glyph glyph-name="uni1EF4" unicode="&#x1ef4;" horiz-adv-x="698" 
d="M294 239l-269 487h132l209 -396l-32 -2l207 398h131l-271 -487v-239h-107v239zM287 -105q0 24 19 40t41 16q23 0 41 -16t18 -40t-18 -39.5t-41 -15.5q-22 0 -41 15.5t-19 39.5z" />
    <glyph glyph-name="uni1EF5" unicode="&#x1ef5;" horiz-adv-x="502" 
d="M114 -201l277 620h94l-270 -620h-101zM220 -3l-203 422h116l166 -370zM351 -112q0 21 16 34.5t36 13.5q19 0 34.5 -13.5t15.5 -34.5t-15.5 -34.5t-34.5 -13.5t-35.5 13.5t-16.5 34.5z" />
    <glyph glyph-name="uni1EF6" unicode="&#x1ef6;" horiz-adv-x="698" 
d="M294 239l-269 487h132l209 -396l-32 -2l207 398h131l-271 -487v-239h-107v239zM356 807q19 15 31 28t12 31q0 15 -8 25t-24 10q-15 0 -26 -8.5t-19 -21.5l-38 24q17 33 42.5 48.5t54.5 15.5q26 0 43 -11t25.5 -29.5t8.5 -39.5q0 -35 -23 -59t-55 -44z" />
    <glyph glyph-name="uni1EF7" unicode="&#x1ef7;" horiz-adv-x="502" 
d="M114 -201l277 620h94l-270 -620h-101zM220 -3l-203 422h116l166 -370zM236 497q19 15 31 28t12 31q0 15 -8 25t-24 10q-15 0 -26 -8.5t-19 -21.5l-38 24q17 33 42.5 48.5t54.5 15.5q26 0 43 -11t25.5 -29.5t8.5 -39.5q0 -35 -23 -59t-55 -44z" />
    <glyph glyph-name="uni1EF8" unicode="&#x1ef8;" horiz-adv-x="698" 
d="M294 239l-269 487h132l209 -396l-32 -2l207 398h131l-271 -487v-239h-107v239zM439 804q-32 0 -53 14.5t-39 30.5q-12 11 -23.5 19.5t-26.5 8.5q-12 0 -21.5 -9t-13.5 -25.5t-4 -38.5h-54q-3 39 8.5 71t34.5 51t56 19q26 0 45 -14t35 -29q14 -13 26.5 -23.5t27.5 -10.5
q20 0 27.5 21.5t7.5 55.5l54 -1q4 -41 -6.5 -73t-32 -49.5t-48.5 -17.5z" />
    <glyph glyph-name="uni1EF9" unicode="&#x1ef9;" horiz-adv-x="502" 
d="M114 -201l277 620h94l-270 -620h-101zM220 -3l-203 422h116l166 -370zM335 460q-32 0 -53 14.5t-39 30.5q-12 11 -23.5 19.5t-26.5 8.5q-12 0 -21.5 -9t-13.5 -25.5t-4 -38.5h-54q-3 39 8.5 71t34.5 51t56 19q26 0 45 -14t35 -29q14 -13 26.5 -23.5t27.5 -10.5
q20 0 27.5 21.5t7.5 55.5l54 -1q4 -41 -6.5 -73t-32 -49.5t-48.5 -17.5z" />
    <glyph glyph-name="endash" unicode="&#x2013;" horiz-adv-x="516" 
d="M102 259h305v-90h-305v90z" />
    <glyph glyph-name="emdash" unicode="&#x2014;" horiz-adv-x="710" 
d="M101 259h508v-90h-508v90z" />
    <glyph glyph-name="quoteleft" unicode="&#x2018;" horiz-adv-x="184" 
d="M102 735l52 -25q-22 -23 -34 -58t-6 -68l-81 -7q-6 35 1.5 64.5t26 53.5t41.5 40z" />
    <glyph glyph-name="quoteright" unicode="&#x2019;" horiz-adv-x="187" 
d="M84 563l-52 25q21 20 33.5 55.5t5.5 70.5l82 7q6 -28 -3 -59t-26 -57.5t-40 -41.5v0z" />
    <glyph glyph-name="quotesinglbase" unicode="&#x201a;" horiz-adv-x="187" 
d="M84 -83l-52 25q21 20 33.5 55.5t5.5 70.5l82 7q6 -28 -3 -59t-26 -57.5t-40 -41.5v0z" />
    <glyph glyph-name="quotedblleft" unicode="&#x201c;" horiz-adv-x="301" 
d="M233 735l52 -25q-22 -23 -34 -58t-6 -68l-81 -7q-6 35 1.5 64.5t26 53.5t41.5 40zM106 735l52 -25q-22 -23 -34 -58t-6 -68l-81 -7q-6 35 1.5 64.5t26 53.5t41.5 40z" />
    <glyph glyph-name="quotedblright" unicode="&#x201d;" horiz-adv-x="299" 
d="M84 563l-52 25q21 20 33.5 55.5t5.5 70.5l82 7q6 -28 -3 -59t-26 -57.5t-40 -41.5v0zM206 563l-52 25q21 20 33.5 55.5t5.5 70.5l82 7q6 -28 -3 -59t-26 -57.5t-40 -41.5v0z" />
    <glyph glyph-name="quotedblbase" unicode="&#x201e;" horiz-adv-x="309" 
d="M84 -79l-52 25q21 20 33.5 55.5t5.5 70.5l82 7q6 -28 -3 -59t-26 -57.5t-40 -41.5v0zM206 -79l-52 25q21 20 33.5 55.5t5.5 70.5l82 7q6 -28 -3 -59t-26 -57.5t-40 -41.5v0z" />
    <glyph glyph-name="dagger" unicode="&#x2020;" horiz-adv-x="300" 
d="M30 470h239v-91h-239v91zM103 616h94v-615h-94v615z" />
    <glyph glyph-name="daggerdbl" unicode="&#x2021;" horiz-adv-x="304" 
d="M18 301h268v-90h-268v90zM33 470h240v-91h-240v91zM107 616h92v-615h-92v615z" />
    <glyph glyph-name="bullet" unicode="&#x2022;" horiz-adv-x="485" 
d="M108 304q0 38 18 69.5t48.5 49.5t67.5 18q39 0 69.5 -18.5t49 -49.5t18.5 -69q0 -37 -18.5 -68t-49.5 -49t-69 -18q-37 0 -67.5 18t-48.5 49t-18 68v0z" />
    <glyph glyph-name="ellipsis" unicode="&#x2026;" horiz-adv-x="529" 
d="M30 57q0 24 17.5 40.5t39.5 16.5q20 0 37.5 -16.5t17.5 -40.5q0 -26 -17.5 -41.5t-37.5 -15.5q-22 0 -39.5 15.5t-17.5 41.5v0zM210 57q0 24 17.5 40.5t39.5 16.5q20 0 37.5 -16.5t17.5 -40.5q0 -26 -17.5 -41.5t-37.5 -15.5q-22 0 -39.5 15.5t-17.5 41.5v0zM390 57
q0 24 17.5 40.5t39.5 16.5q20 0 37.5 -16.5t17.5 -40.5q0 -26 -17.5 -41.5t-37.5 -15.5q-22 0 -39.5 15.5t-17.5 41.5v0z" />
    <glyph glyph-name="perthousand" unicode="&#x2030;" horiz-adv-x="1118" 
d="M203 272q-48 0 -80.5 22.5t-49 62t-16.5 90.5t16.5 90.5t49 61.5t80.5 22t80 -22t49 -61.5t17 -90.5t-17 -90.5t-49 -62t-80 -22.5zM147 447q0 -47 14 -74.5t42 -27.5t41.5 27.5t13.5 74.5q0 50 -13.5 75.5t-41.5 25.5t-42 -24.5t-14 -76.5zM587 -18q-48 0 -80.5 22
t-49 61.5t-16.5 90.5q0 52 16.5 91t49 61.5t80.5 22.5t80.5 -22.5t49 -61.5t16.5 -91q0 -51 -16.5 -90.5t-49 -61.5t-80.5 -22zM531 156q0 -47 14 -74.5t42 -27.5t41.5 27.5t13.5 74.5q0 51 -13.5 76t-41.5 25t-42 -24.5t-14 -76.5zM668 622l-431 -624l-101 2l429 622h103z
M921 -18q-48 0 -80.5 22t-49 61.5t-16.5 90.5q0 52 16.5 91t49 61.5t80.5 22.5q47 0 79.5 -22.5t49.5 -61.5t17 -91q0 -51 -17 -90.5t-49.5 -61.5t-79.5 -22zM865 156q0 -47 14 -74.5t42 -27.5q27 0 41 27.5t14 74.5q0 51 -14 76t-41 25q-28 0 -42 -24.5t-14 -76.5z" />
    <glyph glyph-name="guilsinglleft" unicode="&#x2039;" horiz-adv-x="369" 
d="M45 242q4 4 21.5 18.5t42 35t51.5 42.5t51.5 42.5t42 35t21.5 18.5v-93q-6 -6 -21 -19.5t-33.5 -29.5t-33.5 -30t-20 -20q5 -5 20 -19t33.5 -30.5t33.5 -30.5t21 -19v-93z" />
    <glyph glyph-name="guilsinglright" unicode="&#x203a;" horiz-adv-x="362" 
d="M320 242q-4 4 -21 18.5t-41.5 35t-51.5 42.5t-52 42.5t-42 35t-21 18.5v-93q5 -6 20 -19.5t34 -29.5t34 -30t20 -20q-5 -5 -20 -19t-34 -30.5t-34 -30.5t-20 -19v-93z" />
    <glyph glyph-name="fraction" unicode="&#x2044;" horiz-adv-x="570" 
d="M514 688l-407 -688h-97l407 688h97z" />
    <glyph glyph-name="uni2074" unicode="&#x2074;" horiz-adv-x="391" 
d="M343 447v-58h-307l-2 26l201 264h64v-389h-89v282l22 3l-123 -164l-14 36h248z" />
    <glyph glyph-name="colonmonetary" unicode="&#x20a1;" horiz-adv-x="695" 
d="M536 793l-314 -852h-93l314 852h93zM698 794l-314 -853h-94l315 853h93zM637 55q-16 -11 -47.5 -26.5t-74 -26.5t-93.5 -10q-85 1 -152.5 30t-114.5 79.5t-72.5 116t-25.5 139.5q0 82 26 150.5t74.5 119.5t114 79t143.5 28q67 0 121 -18t91 -42l-42 -100
q-29 20 -71.5 38.5t-94.5 18.5q-51 0 -96.5 -20.5t-80 -57t-54.5 -85t-20 -105.5q0 -58 18 -107t51.5 -85t80.5 -56t106 -20q56 0 98.5 17t69.5 39z" />
    <glyph glyph-name="franc" unicode="&#x20a3;" horiz-adv-x="584" 
d="M102 726h435v-103h-328v-218h287v-102h-287v-303h-107v726zM36 191h248v-72h-248v72z" />
    <glyph glyph-name="lira" unicode="&#x20a4;" horiz-adv-x="644" 
d="M408 447v-96h-319v96h319zM408 296v-96h-319v96h319zM158 542q0 48 27 85.5t75.5 58.5t112.5 21q72 0 120.5 -28t73.5 -76l-77 -53q-5 5 -11.5 13.5t-18 17.5t-32 16t-53.5 7q-39 0 -63.5 -11.5t-36 -34t-11.5 -54.5v-324v5q0 7 0 -2.5t-2 -25.5t-6 -32t-12 -23l-17 1
h208q34 0 49 10t15 33v40l94 1v-69q0 -25 -7 -46.5t-22.5 -37.5t-41.5 -25t-64 -9h-397v103h44q21 0 32.5 6.5t16 27t4.5 62.5v343z" />
    <glyph glyph-name="uni20A6" unicode="&#x20a6;" horiz-adv-x="841" 
d="M438 413h385v-72h-385v72zM418 341h-403v72h403v-72zM735 -25l-559 559l32 -14l2 -520h-108v749h5l552 -559l-26 10l-2 526h107v-751h-3z" />
    <glyph glyph-name="peseta" unicode="&#x20a7;" horiz-adv-x="631" 
d="M514 529h104v-73h-104v73zM130 456h-106v73h106v-73zM302 726q81 0 138.5 -27.5t88 -78.5t30.5 -124q0 -43 -13 -85t-41.5 -76.5t-75.5 -55t-114 -20.5h-106v-259h-107v726h200zM315 362q40 0 67 13.5t42.5 34.5t22 43.5t6.5 40.5q0 20 -6.5 42.5t-21.5 42t-41 32
t-65 12.5h-110v-261h106z" />
    <glyph glyph-name="uni20A9" unicode="&#x20a9;" horiz-adv-x="1011" 
d="M65 455h893v-72h-893v72zM39 722h124l188 -534l-18 7l142 365l49 -145l-196 -449zM391 722h106l206 -525l-21 4l176 521h114l-284 -754z" />
    <glyph glyph-name="dong" unicode="&#x20ab;" horiz-adv-x="622" 
d="M331 722h257v-72h-257v72zM90 72h466v-72h-466v72zM271 136q-57 0 -102 28t-71 79t-26 119q0 70 27.5 119.5t76 75.5t108.5 26q46 0 88.5 -20.5t66.5 -55.5l-6 -33v309h102v-636h-103v98l10 -26q-28 -36 -72 -59.5t-99 -23.5zM304 224q33 0 59 12t43.5 34t25.5 52v85
q-7 28 -25.5 49.5t-44.5 33.5t-58 12q-35 0 -64 -18t-46.5 -49t-17.5 -71t17.5 -71.5t46.5 -50t64 -18.5z" />
    <glyph glyph-name="Euro" unicode="&#x20ac;" horiz-adv-x="752" 
d="M57 469h371v-84h-371v84zM58 327h370v-84h-370v84zM695 55q-17 -11 -48.5 -26.5t-74 -26.5t-93.5 -10q-85 1 -152.5 30t-114.5 79.5t-72.5 116t-25.5 139.5q0 82 26.5 150.5t74.5 119.5t113.5 79t143.5 28q67 0 121 -18t91 -42l-42 -100q-29 20 -71.5 38.5t-94.5 18.5
q-51 0 -96.5 -20.5t-80 -57t-54.5 -85t-20 -105.5q0 -58 18 -107t51.5 -85t81 -56t105.5 -20q56 0 99 17t69 39z" />
    <glyph glyph-name="uni20AD" unicode="&#x20ad;" horiz-adv-x="695" 
d="M35 440h538v-103h-538v103zM224 440l-3 -36l15 21l284 301h138l-300 -315l314 -411h-135l-257 344l-56 -55v-289h-108v726h108v-286z" />
    <glyph glyph-name="uni20B1" unicode="&#x20b1;" horiz-adv-x="621" 
d="M461 588h151v-73h-151v73zM475 457h137v-73h-137v73zM150 384h-135v73h135v-73zM150 515h-135v73h135v-73zM302 726q81 0 138.5 -27.5t88 -78.5t30.5 -124q0 -43 -13 -85t-41.5 -76.5t-75.5 -55t-114 -20.5h-106v-259h-107v726h200zM315 362q40 0 67 13.5t42.5 34.5
t22 43.5t6.5 40.5q0 20 -6.5 42.5t-21.5 42t-41 32t-65 12.5h-110v-261h106z" />
    <glyph glyph-name="uni20B2" unicode="&#x20b2;" horiz-adv-x="754" 
d="M675 64q-15 -13 -42 -26t-60.5 -23t-68.5 -16.5t-66 -6.5q-88 0 -158 27t-120 75t-76.5 112.5t-26.5 140.5q0 93 30 165t81.5 121.5t119 75t141.5 25.5q65 0 120.5 -15t95.5 -39l-35 -98q-20 11 -49.5 21.5t-60.5 16.5t-57 6q-64 0 -114.5 -18.5t-86.5 -53.5t-55.5 -85
t-19.5 -113q0 -57 20 -104.5t56 -82t86 -53t111 -18.5q35 0 69 7t58 20v132h-140v103h248v-296zM356 819h93v-945h-93v945z" />
    <glyph glyph-name="uni20B5" unicode="&#x20b5;" horiz-adv-x="695" 
d="M637 55q-16 -11 -47.5 -26.5t-74 -26.5t-93.5 -10q-85 1 -152.5 30t-114.5 79.5t-72.5 116t-25.5 139.5q0 82 26 150.5t74.5 119.5t114 79t143.5 28q67 0 121 -18t91 -42l-42 -100q-29 20 -71.5 38.5t-94.5 18.5q-51 0 -96.5 -20.5t-80 -57t-54.5 -85t-20 -105.5
q0 -58 18 -107t51.5 -85t80.5 -56t106 -20q56 0 98.5 17t69.5 39zM357 820h93v-945h-93v945z" />
    <glyph glyph-name="uni20B9" unicode="&#x20b9;" horiz-adv-x="539" 
d="M98 260v102h84q41 0 68.5 13t43 32.5t22 42t6.5 43.5q0 20 -7 42t-22.5 42t-41 33t-63.5 13h-90v103h407v-103h-243l-92 73q57 0 105 -10.5t83 -34t54.5 -61.5t19.5 -94q0 -43 -13 -85t-42 -76t-76 -54.5t-117 -20.5h-86zM368 0l-190 297l127 3l187 -300h-124zM101 449
v89h406v-89h-406z" />
    <glyph glyph-name="uni20BA" unicode="&#x20ba;" horiz-adv-x="665" 
d="M602 321q3 -16 5 -33.5t1 -35.5q-1 -69 -28 -117t-73 -78t-106.5 -43.5t-129.5 -13.5h-106v726h106v-682l-9 59q52 0 95 8t73.5 25t47 46.5t16.5 71.5q0 11 -0.5 20.5t-2.5 18.5zM440 455l41 -65l-375 -209l-41 65zM395 582l41 -65l-374 -207l-41 65z" />
    <glyph glyph-name="uni20BC" unicode="&#x20bc;" horiz-adv-x="758" 
d="M333 831h93v-831h-93v831zM549 464q0 46 -23 83t-61 59t-85 22q-49 0 -88 -22t-61.5 -59t-22.5 -83v-466h-106v469q0 79 37 138.5t100.5 92.5t140.5 33v0q77 0 139.5 -33t99 -92.5t36.5 -138.5v-469h-106v466z" />
    <glyph glyph-name="uni20BD" unicode="&#x20bd;" horiz-adv-x="597" 
d="M15 188h290v-94h-290v94zM15 356h246v-94h-246v94zM302 726q81 0 138.5 -27.5t88 -78.5t30.5 -124q0 -43 -13 -85t-41.5 -76.5t-75.5 -55t-114 -20.5h-106v-259h-107v726h200zM315 362q40 0 67 13.5t42.5 34.5t22 43.5t6.5 40.5q0 20 -6.5 42.5t-21.5 42t-41 32t-65 12.5
h-110v-261h106z" />
    <glyph glyph-name="uni2116" unicode="&#x2116;" horiz-adv-x="1328" 
d="M864 234h395v-90h-395v90zM735 -25l-559 555l31 -10l3 -520h-108v749h5l552 -556l-25 7l-2 526h106v-751h-3zM821 513q0 63 29.5 113.5t83 80t121.5 29.5q69 0 120.5 -29.5t80 -80t28.5 -113.5t-28.5 -114t-80.5 -80.5t-122 -29.5q-67 0 -119.5 27.5t-82.5 77.5t-30 119z
M924 512q0 -39 17 -70.5t46 -50t65 -18.5q38 0 67 18.5t45.5 50t16.5 70.5t-16.5 70.5t-45.5 50t-67 18.5q-36 0 -65 -19t-46 -50.5t-17 -69.5z" />
    <glyph glyph-name="trademark" unicode="&#x2122;" horiz-adv-x="579" 
d="M458 637l25 -19l-90 -126l-92 126l25 16v-169h-62v270l134 -154h-10l135 154v-270h-65v172zM43 724h180v-60h-56v-199h-68v199h-56v60z" />
    <glyph glyph-name="uni2126" unicode="&#x2126;" horiz-adv-x="833" 
d="M492 89q37 17 63.5 48.5t41 75t14.5 93.5q0 39 -9.5 77t-29.5 69t-54 50t-84 19q-52 0 -86.5 -20t-55 -51.5t-29.5 -68t-9 -70.5q-1 -54 16 -98.5t46.5 -75t65.5 -48.5v-43q-26 8 -56.5 19.5t-59.5 30.5t-53 49t-38.5 74t-14.5 107q0 73 21 126t58 88.5t86 52.5t105 17
q71 0 123.5 -23t87 -64t50 -96t13.5 -118q-3 -60 -19 -102.5t-40 -71.5t-52 -47t-54 -28.5t-47 -17.5v47zM153 89h229v-89h-229v89zM492 89h218v-89h-218v89z" />
    <glyph glyph-name="uni2206" unicode="&#x2206;" horiz-adv-x="508" 
d="M236 739l170 -482h-64l-106 314l-105 -314h-65l170 482v0zM119 311h240v-54h-240v54z" />
    <glyph glyph-name="product" unicode="&#x220f;" horiz-adv-x="743" 
d="M204 761h300v-839h-92v749h-116v-749h-92v839z" />
    <glyph glyph-name="summation" unicode="&#x2211;" horiz-adv-x="558" 
d="M77 761h407l-28 -90h-257l93 -333l-93 -334h257l28 -89h-407l115 423z" />
    <glyph glyph-name="minus" unicode="&#x2212;" horiz-adv-x="619" 
d="M83 251h365v-90h-365v90z" />
    <glyph glyph-name="uni2215" unicode="&#x2215;" horiz-adv-x="392" 
d="M392 747q-70 -192 -140.5 -383t-141.5 -383h-93q71 192 141.5 383t140.5 383h93z" />
    <glyph glyph-name="uni2219" unicode="&#x2219;" horiz-adv-x="223" 
d="M112 236q-36 0 -60.5 24.5t-24.5 59.5t24.5 59.5t60.5 24.5q34 0 58.5 -24.5t24.5 -59.5t-24.5 -59.5t-58.5 -24.5z" />
    <glyph glyph-name="radical" unicode="&#x221a;" horiz-adv-x="565" 
d="M450 616h64l-278 -621l-138 301h-81l1 54h121l97 -215z" />
    <glyph glyph-name="infinity" unicode="&#x221e;" horiz-adv-x="470" 
d="M263 308q0 -27 -18.5 -47.5t-46.5 -32.5t-60 -12q-35 0 -57.5 14.5t-33 36t-10.5 41.5t10.5 41t33 35.5t57.5 14.5q32 0 60 -12t46.5 -32.5t18.5 -46.5v0zM208 308q0 26 18 46.5t46.5 32.5t59.5 12q35 0 57 -14.5t32.5 -35.5t10.5 -41t-10.5 -41.5t-32.5 -36t-58 -14.5
q-30 0 -59 12t-46.5 33t-17.5 47v0zM208 306q0 17 -21.5 27.5t-47.5 10.5q-24 0 -35.5 -10.5t-11.5 -26.5q0 -14 10.5 -25.5t36.5 -11.5q25 0 47 10t22 26v0zM263 306q0 -16 22.5 -26t45.5 -10q27 0 37 11.5t10 25.5q0 16 -11.5 26.5t-35.5 10.5q-25 0 -46.5 -10.5
t-21.5 -27.5v0z" />
    <glyph glyph-name="integral" unicode="&#x222b;" horiz-adv-x="387" 
d="M258 666q-20 0 -31.5 -7.5t-16.5 -29t-5 -65.5v-600q0 -45 -10 -69.5t-27.5 -34t-39.5 -10.5t-46 -1h-67v90h43q21 0 32.5 7.5t16 30t4.5 65.5v595v0q0 47 9.5 72t27 35t40 11.5t47.5 1.5h66v-91h-43z" />
    <glyph glyph-name="approxequal" unicode="&#x2248;" horiz-adv-x="463" 
d="M292 91q-38 0 -62 16.5t-45 34.5q-13 12 -26.5 22t-29.5 10q-14 0 -24.5 -10.5t-15.5 -30t-4 -43.5l-64 1q-3 44 10 81t39.5 59t64.5 22q30 0 52 -16t41 -34q16 -15 30.5 -26t30.5 -11q15 0 23.5 11t12 31t3.5 45l63 -1q6 -48 -6.5 -84.5t-37 -56.5t-55.5 -20zM293 281
q-38 0 -62 16.5t-45 34.5q-13 12 -26.5 22t-29.5 10q-14 0 -24.5 -10.5t-15.5 -30t-4 -43.5l-64 1q-3 44 10 81t39.5 59t64.5 22q30 0 52 -16t41 -34q16 -15 30.5 -26t30.5 -11q15 0 23.5 11t12 31t3.5 45l63 -1q6 -48 -6.5 -84.5t-37 -56.5t-55.5 -20z" />
    <glyph glyph-name="notequal" unicode="&#x2260;" horiz-adv-x="718" 
d="M592 496q-36 -41 -79.5 -92.5t-91.5 -107.5l-96 -112t-91.5 -107.5t-79.5 -92.5l-53 46q36 42 79.5 93.5t91.5 107.5t96.5 112t92.5 107.5t80 93.5zM102 396h512v-90h-512v90zM102 199h512v-90h-512v90z" />
    <glyph glyph-name="lessequal" unicode="&#x2264;" horiz-adv-x="556" 
d="M470 217l-443 256l443 255v-111l-245 -146l245 -142v0v-112zM66 147h394v-90h-394v90z" />
    <glyph glyph-name="greaterequal" unicode="&#x2265;" horiz-adv-x="556" 
d="M75 728l443 -255l-443 -256v112l260 140l-260 148v111zM74 147h407v-90h-407v90z" />
    <glyph glyph-name="lozenge" unicode="&#x25ca;" horiz-adv-x="464" 
d="M236 739l170 -372l-170 -372l-170 372zM236 599l-105 -232l105 -232l106 232z" />
    <glyph glyph-name="i.loclTRK" horiz-adv-x="260" 
d="M79 419h103v-419h-103v419zM73 569q0 24 19 40t41 16q23 0 41 -16t18 -40t-18 -39.5t-41 -15.5q-22 0 -41 15.5t-19 39.5z" />
    <glyph glyph-name="f_f_ij" horiz-adv-x="1172" 
d="M114 0v328h-71v91h71v170q0 90 43 139t125 49q22 0 49 -6.5t48 -20.5l-43 -75q-9 10 -20.5 14t-23.5 4q-35 0 -55 -24t-20 -82v-168h132v-91h-132v-328h-103zM431 0v328h-71v91h71v170q0 90 43 139t125 49q22 0 49 -6.5t48 -20.5l-43 -75q-9 10 -20.5 14t-23.5 4
q-35 0 -55 -24t-20 -82v-168h132v-91h-132v-328h-103zM736 419h103v-419h-103v419zM730 569q0 24 19 40t41 16q23 0 41 -16t18 -40t-18 -39.5t-41 -15.5q-22 0 -41 15.5t-19 39.5zM988 -202l-60 64q28 24 44 58.5t16 81.5v417h104v-421q0 -72 -24.5 -121t-79.5 -79zM981 569
q0 24 19 40t41 16q23 0 41 -16t18 -40t-18 -39.5t-41 -15.5q-22 0 -41 15.5t-19 39.5z" />
    <glyph glyph-name="f_ij" horiz-adv-x="855" 
d="M114 0v328h-71v91h71v170q0 90 43 139t125 49q22 0 49 -6.5t48 -20.5l-43 -75q-9 10 -20.5 14t-23.5 4q-35 0 -55 -24t-20 -82v-168h132v-91h-132v-328h-103zM419 419h103v-419h-103v419zM413 569q0 24 19 40t41 16q23 0 41 -16t18 -40t-18 -39.5t-41 -15.5
q-22 0 -41 15.5t-19 39.5zM671 -202l-60 64q28 24 44 58.5t16 81.5v417h104v-421q0 -72 -24.5 -121t-79.5 -79zM664 569q0 24 19 40t41 16q23 0 41 -16t18 -40t-18 -39.5t-41 -15.5q-22 0 -41 15.5t-19 39.5z" />
    <glyph glyph-name="zero.zero" horiz-adv-x="624" 
d="M312 -3q-60 0 -110.5 22.5t-87.5 65.5t-58 105.5t-21 141.5q0 86 20 149t56.5 104.5t87.5 61t113 19.5q61 0 111.5 -22t87.5 -65t57.5 -105.5t20.5 -141.5q0 -81 -20.5 -143.5t-58 -105t-87.5 -64.5t-111 -22zM311 100q57 0 94 29.5t55 83t18 122.5q0 67 -18 118.5
t-55 81t-94 28.5q-55 1 -92 -28.5t-55 -81.5t-18 -121q0 -67 18 -120t55 -82.5t92 -29.5zM255 332q0 24 17.5 40.5t39.5 16.5q20 0 37.5 -16.5t17.5 -40.5q0 -26 -17.5 -41.5t-37.5 -15.5q-22 0 -39.5 15.5t-17.5 41.5v0z" />
    <glyph glyph-name="periodcentered.loclCAT.case" horiz-adv-x="171" 
d="M30 374q0 24 17.5 40.5t39.5 16.5q20 0 37.5 -16.5t17.5 -40.5q0 -26 -17.5 -41.5t-37.5 -15.5q-22 0 -39.5 15.5t-17.5 41.5v0z" />
    <glyph glyph-name="periodcentered.loclCAT" horiz-adv-x="171" 
d="M30 287q0 24 17.5 40.5t39.5 16.5q20 0 37.5 -16.5t17.5 -40.5q0 -26 -17.5 -41.5t-37.5 -15.5q-22 0 -39.5 15.5t-17.5 41.5v0z" />
    <glyph glyph-name="uni0308.case" 
d="M73 670q0 24 17 40.5t39 16.5q20 0 38 -16.5t18 -40.5q0 -25 -18 -41t-38 -16q-21 0 -38.5 16t-17.5 41v0zM262 670q0 24 18 40.5t39 16.5q20 0 37.5 -16.5t17.5 -40.5q0 -25 -17.5 -41t-37.5 -16q-21 0 -39 16t-18 41v0z" />
    <glyph glyph-name="uni0307.case" 
d="M36 638q0 24 19 40t41 16q23 0 41 -16t18 -40t-18 -39.5t-41 -15.5q-22 0 -41 15.5t-19 39.5z" />
    <glyph glyph-name="gravecomb.case" 
d="M17 707h114l70 -134h-64z" />
    <glyph glyph-name="acutecomb.case" 
d="M203 687l-131 -134h-65l82 134h114z" />
    <glyph glyph-name="uni030B.case" 
d="M238 620l-131 -134h-65l82 134h114zM395 618l-131 -134h-65l82 134h114z" />
    <glyph glyph-name="uni0302.case" 
d="M285 495l-91 93l29 7l-91 -100h-95l169 174h1l172 -174h-94z" />
    <glyph glyph-name="uni030C.case" 
d="M131 660l91 -93l-30 -8l92 101h95l-169 -174h-1l-173 174h95z" />
    <glyph glyph-name="uni0306.case" 
d="M205 479q-43 0 -75 20.5t-52 60.5t-28 97h69q5 -31 15.5 -56t28 -38.5t42.5 -13.5q26 0 42.5 13.5t26.5 38.5t14 56h70q-8 -59 -27.5 -98.5t-51 -59.5t-74.5 -20z" />
    <glyph glyph-name="uni030A.case" 
d="M66 561q0 42 27.5 67.5t69.5 25.5t69.5 -25.5t27.5 -66.5t-28 -67t-69 -26q-42 0 -69.5 25.5t-27.5 66.5zM121 560q0 -19 12 -31t30 -12q19 0 30.5 12t11.5 31q0 21 -11.5 32.5t-29.5 11.5q-19 0 -31 -11.5t-12 -32.5z" />
    <glyph glyph-name="tildecomb.case" 
d="M313 739q-32 0 -53 14.5t-39 30.5q-12 11 -23.5 19.5t-26.5 8.5q-12 0 -21.5 -9t-13.5 -25.5t-4 -38.5h-54q-3 39 8.5 71t34.5 51t56 19q26 0 45 -14t35 -29q14 -13 26.5 -23.5t27.5 -10.5q20 0 27.5 21.5t7.5 55.5l54 -1q4 -41 -6.5 -73t-32 -49.5t-48.5 -17.5z" />
    <glyph glyph-name="uni0304.case" 
d="M60 630h248v-72h-248v72z" />
    <glyph glyph-name="hookabovecomb.case" 
d="M154 590q19 15 31 28t12 31q0 15 -8 25t-24 10q-15 0 -26 -8.5t-19 -21.5l-38 24q17 33 42.5 48.5t54.5 15.5q26 0 43 -11t25.5 -29.5t8.5 -39.5q0 -35 -23 -59t-55 -44z" />
    <glyph glyph-name="uni030F.case" 
d="M104 620h114l70 -134h-64zM252 620h114l70 -134h-64z" />
    <glyph glyph-name="uni0311.case" 
d="M230 669q43 0 75 -20.5t52 -60t28 -97.5h-70q-4 32 -14.5 56.5t-27.5 38.5t-43 14q-25 0 -42.5 -14t-27 -38.5t-14.5 -56.5h-70q8 59 28 99t51.5 59.5t74.5 19.5z" />
    <glyph glyph-name="uni031B.case" 
d="M50 533q40 0 56.5 18.5t22.5 68.5h77q-8 -63 -28 -95.5t-52.5 -43.5t-75.5 -11v63z" />
    <glyph glyph-name="dotbelowcomb.case" 
d="M50 -105q0 24 19 40t41 16q23 0 41 -16t18 -40t-18 -39.5t-41 -15.5q-22 0 -41 15.5t-19 39.5z" />
    <glyph glyph-name="uni0324.case" 
d="M73 -97q0 24 17 40.5t39 16.5q20 0 38 -16.5t18 -40.5q0 -25 -18 -41t-38 -16q-21 0 -38.5 16t-17.5 41v0zM262 -97q0 24 18 40.5t39 16.5q20 0 37.5 -16.5t17.5 -40.5q0 -25 -17.5 -41t-37.5 -16q-21 0 -39 16t-18 41v0z" />
    </font>
</defs>
</svg>
